#TITLE:Dangerous;
#SUBTITLE:;
#ARTIST:Kardinal Offishall feat. Akon;
#TITLETRANSLIT:;
#SUBTITLETRANSLIT:;
#ARTISTTRANSLIT:;
#GENRE:;
#CREDIT:Chewphoria~;
#MENUCOLOR:;
#METERTYPE:DDR;
#BANNER:Dangerous.PNG;
#BACKGROUND:Dangerous-bg.PNG;
#LYRICSPATH:;
#CDTITLE:;
#MUSIC:Dangerous.mp3;
#OFFSET:-6.490;
#SAMPLESTART:21.355;
#SAMPLELENGTH:12.000;
#SELECTABLE:YES;
#LISTSORT:;
#DISPLAYBPM:117.000;
#BPMS:0.000=117.010;
#STOPS:;
#BGCHANGES:-12.980=Dangerous.avi=1.000=0=0=1,
195.500=Dangerous-bg.png=1.000=1=0=1,
99999=-nosongbg-=1.000=0=0=0 // don't automatically add -songbackground-
;
#ATTACKS:;

//---------------dance-single - Chewphoria~----------------
#NOTES:
     dance-single:
     Chewphoria~:
     Hard:
     11:
     0.411,0.399,0.292,0.206,0.000: // measure 1
0001
0010
0001
0100
0001
0010
1000
0000
,  // measure 2
0000
0000
1001
0000
0100
0100
0000
0000
,  // measure 3
0000
0000
0010
1000
0100
0001
0000
0000
,  // measure 4
0000
0000
0001
1000
0000
1100
0000
1000
,  // measure 5
0100
0001
0100
1000
0010
0100
0001
0100
,  // measure 6
0010
0000
1000
1000
0001
0001
0000
0000
,  // measure 7
0000
0000
0100
0100
0010
0010
0000
0000
,  // measure 8
0000
0000
0010
1000
0100
0001
0000
0001
,  // measure 9
0100
1000
0010
0100
0001
0100
2010
0000
,  // measure 10
0001
3001
0001
0010
0100
1000
2100
0000
,  // measure 11
0001
3001
1000
0010
0100
0001
0102
0000
,  // measure 12
0000
2000
0000
0000
3003
0000
0000
1000
,  // measure 13
0010
0100
0001
0100
0010
1000
2001
0000
,  // measure 14
0100
3100
0001
0010
0100
1000
2010
0000
,  // measure 15
0001
3001
0001
0100
0010
0100
0102
0000
,  // measure 16
0000
0023
0000
0000
0000
0032
0000
0000
,  // measure 17
0000
0000
0000
0000
0000
0000
0000
0003
,  // measure 18
0000
0000
0000
0001
0100
0010
1000
0001
,  // measure 19
0000
1100
0000
1000
0001
0100
0100
0000
,  // measure 20
0100
0000
1010
0000
0101
0000
0000
1000
,  // measure 21
0001
1000
0100
0010
0001
0100
0000
0220
,  // measure 22
0000
0000
0330
0010
1000
0100
0001
0100
,  // measure 23
0000
1000
0000
1000
0010
0001
0010
0000
,  // measure 24
0011
0000
0010
0000
1010
0000
0000
1000
,  // measure 25
0010
0100
0001
0100
0010
1000
0000
1001
,  // measure 26
0000
0101
0000
0100
0001
0101
0000
0001
,  // measure 27
0100
0010
1000
0001
1000
0001
0000
1000
,  // measure 28
0100
0001
0100
1000
0001
1001
0000
1000
,  // measure 29
0010
0100
0001
0100
0100
0100
0000
0010
,  // measure 30
1000
0010
0000
0100
0001
0100
0000
0001
,  // measure 31
1000
0100
0010
0001
1001
0100
0101
0100
,  // measure 32
0010
1000
0001
0010
0100
1000
0000
1000
,  // measure 33
0100
0010
0001
0100
0010
1000
1010
0000
,  // measure 34
0000
0000
0101
0000
1000
1000
0000
0000
,  // measure 35
0000
0000
0010
1000
0100
0002
0000
0000
,  // measure 36
0000
0000
0013
1000
0000
1001
0000
1000
,  // measure 37
0100
0001
0100
1000
0010
0100
0001
0100
,  // measure 38
0100
0000
1010
0000
0101
0100
0000
0000
,  // measure 39
0000
0000
0010
0001
0100
2000
0000
0000
,  // measure 40
0000
0000
3001
0010
0000
1000
0000
1000
,  // measure 41
0001
1000
0001
0010
0100
1000
1002
0000
,  // measure 42
0100
0103
1000
0010
0100
0001
0102
0000
,  // measure 43
1000
1003
0010
0100
1000
0001
2002
0000
,  // measure 44
3003
0202
0000
0000
0000
0000
0303
1000
,  // measure 45
0010
0100
0001
0100
0010
1000
2001
0000
,  // measure 46
0100
3100
0001
0010
0100
1000
1020
0000
,  // measure 47
0100
0130
0010
1000
0100
0001
0020
0000
,  // measure 48
0000
0230
0000
0000
0000
0302
0000
0000
,  // measure 49
0000
0000
0000
0000
0000
0000
0003
1000
,  // measure 50
0010
0100
0001
0100
0000
0101
0000
0001
,  // measure 51
0100
0010
1000
0010
0000
1010
0000
1000
,  // measure 52
0010
0100
0001
0100
0000
0101
0000
0000
;

//---------------dance-single - Chewphoria~----------------
#NOTES:
     dance-single:
     Chewphoria~:
     Medium:
     8:
     0.238,0.265,0.198,0.206,0.000: // measure 1
0000
1000
0000
0100
0000
0001
0000
0101
,  // measure 2
0000
0000
0010
0000
0000
0010
0000
0000
,  // measure 3
0000
0000
0100
0000
0000
0100
0000
0000
,  // measure 4
0000
0000
0000
0010
0000
1000
0000
0100
,  // measure 5
0000
0001
0000
0100
0000
1000
0000
0010
,  // measure 6
0000
0000
0100
0000
0000
0100
0000
0000
,  // measure 7
0000
0000
0001
0000
0000
0001
0000
0000
,  // measure 8
0000
0000
0000
1000
0000
0010
0000
0001
,  // measure 9
0000
0100
0000
1000
0000
1000
0000
2002
,  // measure 10
0000
0000
0000
0000
0000
3003
0000
0220
,  // measure 11
0000
0000
0000
0000
0000
0330
0000
2002
,  // measure 12
0000
0000
0000
0000
0000
3003
0000
1000
,  // measure 13
0000
0010
0000
0001
0000
0100
0000
0202
,  // measure 14
0000
0000
0000
0000
0000
0303
0000
2200
,  // measure 15
0000
0000
0000
0000
0000
3300
0000
2002
,  // measure 16
0000
0000
0000
0000
0000
3003
0000
0000
,  // measure 17
0000
0000
0000
0000
,  // measure 18
0000
0000
0000
1000
0000
0010
0000
0100
,  // measure 19
0000
0001
0000
0100
0000
0010
0010
0000
,  // measure 20
1010
0000
0100
0000
0101
0000
0000
1000
,  // measure 21
0000
0001
0000
0100
0000
0010
0000
0220
,  // measure 22
0000
0000
0330
0010
0000
0010
0000
1000
,  // measure 23
0000
1000
0000
0100
0000
0001
0000
0020
,  // measure 24
0000
0000
0000
0230
0000
0000
0000
0301
,  // measure 25
0000
0001
0000
1000
0000
1000
0000
0001
,  // measure 26
0000
0100
0000
0001
0001
0001
0000
0010
,  // measure 27
0000
0100
0000
1000
1000
1000
0000
0001
,  // measure 28
0000
0101
0000
1000
0000
1010
0000
1000
,  // measure 29
0010
1000
0000
0001
0100
0001
0000
1000
,  // measure 30
0000
0100
0000
0001
0000
0100
0000
1000
,  // measure 31
0000
0010
0000
0100
0001
0100
0001
0100
,  // measure 32
0000
0010
0000
1000
0000
0100
0000
0100
,  // measure 33
0000
0010
0000
0001
0000
0101
0000
1000
,  // measure 34
0000
0000
1010
0000
0000
0010
0000
0000
,  // measure 35
0000
0000
0100
0000
0000
0101
0000
0000
,  // measure 36
0000
0000
0001
1000
0000
1100
0000
1000
,  // measure 37
0000
0010
0000
0001
0000
0100
0000
1000
,  // measure 38
0000
0000
0101
0000
0000
1000
0000
0000
,  // measure 39
0000
0000
1010
0000
0000
0001
0000
0000
,  // measure 40
0000
0000
0001
0010
0000
1000
0000
0100
,  // measure 41
0000
0001
0000
0010
0000
0100
0000
0220
,  // measure 42
0000
0000
0000
0000
0000
0000
0300
2000
,  // measure 43
0000
0000
0000
0000
0000
0000
0030
0200
,  // measure 44
0000
0000
0000
0000
0000
0000
3300
0001
,  // measure 45
0000
0010
0000
1000
0000
0100
0000
2002
,  // measure 46
0000
0000
0000
0000
0000
3000
0200
0000
,  // measure 47
0000
0000
0000
0000
0000
0000
0003
0020
,  // measure 48
0000
0000
0000
0000
0000
0000
0330
1000
,  // measure 49
0000
0100
0000
0001
0000
0010
0000
1010
,  // measure 50
0000
0010
0000
0010
0000
0000
0000
0101
,  // measure 51
0000
0001
0000
0001
0000
0000
0000
1001
,  // measure 52
0000
1000
0000
1000
0000
0000
0000
0000
;

//---------------dance-single - Chewphoria~----------------
#NOTES:
     dance-single:
     Chewphoria~:
     Easy:
     5:
     0.195,0.177,0.017,0.198,0.000: // measure 1
0000
1000
0000
1000
0000
2000
0000
0000
,  // measure 2
0000
0000
0000
3100
0000
0200
0000
0000
,  // measure 3
0000
0000
0000
0301
0000
0020
0000
0000
,  // measure 4
0000
0000
0030
0010
0000
0100
0000
0010
,  // measure 5
0000
0010
0000
0010
0000
0010
0000
0020
,  // measure 6
0000
0000
0000
1030
0000
2000
0000
0000
,  // measure 7
0000
0000
0000
0001
3000
0002
0000
0000
,  // measure 8
0000
0000
0000
0103
0000
0010
0000
1000
,  // measure 9
0000
0100
0000
0001
0000
0100
0000
2000
,  // measure 10
0000
0000
0000
0000
0000
0000
0000
3002
,  // measure 11
0000
0000
0000
0000
0000
0000
0000
0203
,  // measure 12
0000
0000
0000
0000
0000
0000
0000
0310
,  // measure 13
0000
0010
0000
0100
0000
0100
0000
0002
,  // measure 14
0000
0000
0000
0000
0000
0000
0000
2003
,  // measure 15
0000
0000
0000
0000
0000
0000
0000
3200
,  // measure 16
0000
0000
0000
0000
0000
0000
0000
1300
,  // measure 17
0000
1000
0000
1001
0000
0000
0000
0000
,  // measure 18
0000
0000
0000
0010
0000
1000
0000
0100
,  // measure 19
0000
0000
0000
0010
0000
0001
0000
0100
,  // measure 20
0000
0000
0000
0100
0000
0000
0000
1000
,  // measure 21
0000
0001
0000
1000
0000
0001
0000
0100
,  // measure 22
0000
0000
0000
0100
0000
0010
0000
0100
,  // measure 23
0000
0000
0000
0100
0000
0001
0000
0010
,  // measure 24
0000
0000
0000
0010
0000
1000
0000
0100
,  // measure 25
0000
0100
0000
0010
0000
0010
0000
0001
,  // measure 26
0000
0000
0000
1001
0000
0000
0000
0100
,  // measure 27
0000
0100
0000
0100
0000
0000
0000
0010
,  // measure 28
0000
0010
0000
0010
0000
0000
0000
1000
,  // measure 29
0000
0100
0000
0001
0000
0100
0000
1000
,  // measure 30
0000
1000
0000
1000
0000
0000
0000
0001
,  // measure 31
0000
0001
0000
1000
0000
0001
0000
0010
,  // measure 32
0000
0010
0000
0010
0000
0000
0000
1000
,  // measure 33
0000
0100
0000
0100
0000
0100
0000
0001
,  // measure 34
0000
0000
0000
2000
0000
0000
0000
0000
,  // measure 35
0000
0000
0000
3002
0000
0000
0000
0000
,  // measure 36
0000
0000
0000
0103
0000
0100
0000
0010
,  // measure 37
0000
1000
0000
0100
0000
0001
0000
0100
,  // measure 38
0000
0000
0000
2000
0000
0000
0000
0000
,  // measure 39
0000
0000
0000
3002
0000
0000
0000
0000
,  // measure 40
0000
0003
0000
1000
0000
0100
0000
0001
,  // measure 41
0000
0100
0000
1000
0000
0010
0000
0200
,  // measure 42
0000
0001
0000
0000
0000
0001
0000
0302
,  // measure 43
0000
1000
0000
0000
0000
1000
0000
2000
,  // measure 44
0003
0000
0000
0000
0000
0000
0000
3100
,  // measure 45
0000
0100
0000
0001
0000
0001
0000
0200
,  // measure 46
0000
1000
0000
0000
0000
1000
0000
2300
,  // measure 47
0000
0100
0000
0000
0000
0100
0000
3002
,  // measure 48
0000
0100
0000
0000
0000
0203
0000
0000
,  // measure 49
0000
0000
0000
0000
0000
0000
0000
0310
,  // measure 50
0000
0010
0000
0010
0000
0000
0000
1000
,  // measure 51
0000
1000
0000
1000
0000
0000
0000
0001
,  // measure 52
0000
0001
0000
0001
0000
0000
0000
0000
;

//---------------dance-single - Chewphoria~----------------
#NOTES:
     dance-single:
     Chewphoria~:
     Beginner:
     2:
     0.120,0.132,0.026,0.043,0.000: // measure 1
0000
1000
0000
1000
0000
0000
0000
0000
,  // measure 2
0000
0000
0000
1001
0000
0000
0000
0000
,  // measure 3
0000
0000
0000
0001
0000
0001
0000
0000
,  // measure 4
0000
0000
0000
0100
0000
0000
0000
0010
,  // measure 5
0000
0000
0000
0100
0000
0000
0000
0010
,  // measure 6
0000
0000
0000
1000
0000
1000
0000
0000
,  // measure 7
0000
0000
0000
0001
0000
0001
0000
0000
,  // measure 8
0000
0000
0000
1000
0000
0000
0000
0010
,  // measure 9
0000
0000
0000
0001
0000
0000
0000
0200
,  // measure 10
0000
0000
0000
0000
,  // measure 11
0000
0000
0000
0000
0000
0300
0000
0100
,  // measure 12
0000
0000
0000
0000
0000
0000
0000
0010
,  // measure 13
0000
0010
0000
0000
0000
0000
0000
2000
,  // measure 14
0000
0000
0000
0000
,  // measure 15
0000
0000
0000
0000
0000
3000
0000
1000
,  // measure 16
0000
0000
0000
0000
0000
1001
0000
0000
,  // measure 17
0000
0000
0000
0000
,  // measure 18
0000
0000
0000
1000
0000
0000
0000
0010
,  // measure 19
0000
0000
0000
0100
0000
0000
0000
0001
,  // measure 20
0000
0000
0000
0000
0000
0000
0000
1000
,  // measure 21
0000
0001
0000
1000
0000
0000
0000
0100
,  // measure 22
0000
0000
0000
0010
0000
0010
0000
0010
,  // measure 23
0000
0010
0000
0010
0000
0010
0000
0010
,  // measure 24
0000
0000
0000
0100
0000
0000
0000
1000
,  // measure 25
0000
0000
0000
0001
0000
0001
0000
0000
,  // measure 26
0000
0100
0000
0000
0000
0010
0000
0000
,  // measure 27
0000
1000
0000
0000
0000
0010
0000
0000
,  // measure 28
0000
0100
0000
0000
0000
0100
0000
0000
,  // measure 29
0000
0010
0000
0000
0000
0100
0000
0000
,  // measure 30
0000
0001
0000
0000
0000
1000
0000
0000
,  // measure 31
0000
1000
0000
2000
0000
3000
0000
1000
,  // measure 32
0000
0000
0000
1000
0000
0000
0000
0001
,  // measure 33
0000
0001
0000
0001
0000
0000
0000
0000
,  // measure 34
0000
0000
0000
0010
0000
0010
0000
0000
,  // measure 35
0000
0000
0000
1000
0000
1000
0000
0000
,  // measure 36
0000
0000
0000
1000
0000
0000
0000
0010
,  // measure 37
0000
0000
0000
0001
0000
0000
0000
0100
,  // measure 38
0000
0000
0000
0100
0000
0100
0000
0000
,  // measure 39
0000
0000
0000
0010
0000
0010
0000
0000
,  // measure 40
0000
0000
0000
0001
0000
0001
0000
0001
,  // measure 41
0000
0001
0000
0001
0000
0000
0000
2000
,  // measure 42
0000
0000
0000
0000
,  // measure 43
0000
0000
0000
0000
0000
3000
0000
1000
,  // measure 44
0000
0000
0000
0000
0000
0000
0000
1000
,  // measure 45
0000
0000
0000
0001
0000
0000
0000
0200
,  // measure 46
0000
0000
0000
0000
,  // measure 47
0000
0000
0000
0000
0000
0300
0000
0100
,  // measure 48
0000
0000
0000
0000
0000
0000
0000
0010
,  // measure 49
0000
0000
0000
0000
0000
0000
0000
1000
,  // measure 50
0000
1000
0000
1000
0000
0000
0000
1001
,  // measure 51
0000
0000
0000
0000
0000
0000
0000
0010
,  // measure 52
0000
0010
0000
0010
0000
0000
0000
0000
;
