#TITLE:Dancing Crazy;
#SUBTITLE:;
#ARTIST:Miranda Cosgrove;
#TITLETRANSLIT:;
#SUBTITLETRANSLIT:;
#ARTISTTRANSLIT:;
#GENRE:;
#CREDIT:Chewi☆;
#MENUCOLOR:#FFFFFF;
#METERTYPE:DDR X;
#BANNER:Dancing Crazy.png;
#BACKGROUND:Dancing Crazy-bg.png;
#LYRICSPATH:;
#CDTITLE:./CDTITLES/DanceDanceRevolution skyMIX3 -breeze-.png;
#MUSIC:Dancing Crazy.mp3;
#OFFSET:-0.178;
#SAMPLESTART:45.469;
#SAMPLELENGTH:15.000;
#SELECTABLE:YES;
#LISTSORT:;
#DISPLAYBPM:106.000;
#BPMS:0.000=106.000;
#STOPS:;
#BGCHANGES:0.000=Dancing Crazy.avi=1.000=1=0=0,
144.500=Dancing Crazy-bg.png=1.000=1=0=1,
99999=-nosongbg-=1.000=0=0=0 // don't automatically add -songbackground-
;
#ATTACKS:;

//---------------dance-single - Chewi----------------
#NOTES:
     dance-single:
     Chewi:
     Beginner:
     2:
     0.106,0.148,0.024,0.024,0.000: // measure 1
0000
0000
0000
0000
,  // measure 2
0000
0000
0000
0000
,  // measure 3
0000
0000
0000
0000
,  // measure 4
0000
0000
0000
0000
,  // measure 5
1000
0000
0000
0000
,  // measure 6
0100
0000
0000
0000
,  // measure 7
0010
0000
0000
0000
,  // measure 8
0001
0000
0000
0000
,  // measure 9
0001
0000
0000
0000
,  // measure 10
0100
0000
0000
0000
,  // measure 11
0010
0000
0000
0000
,  // measure 12
1000
0000
0000
0000
,  // measure 13
1000
1000
1000
0000
,  // measure 14
0000
0100
0000
0010
,  // measure 15
0001
0001
0001
0000
,  // measure 16
0000
0100
0000
0010
,  // measure 17
1000
1000
1000
0000
,  // measure 18
0000
0001
0000
1000
,  // measure 19
0100
0100
0100
0000
,  // measure 20
0000
0010
0000
0010
,  // measure 21
0020
0000
0000
0030
,  // measure 22
0010
0010
0010
0000
,  // measure 23
1001
0000
0000
0000
,  // measure 24
1000
0000
0000
0000
,  // measure 25
0200
0000
0000
0300
,  // measure 26
0100
0100
0100
0000
,  // measure 27
0110
0000
0000
0000
,  // measure 28
0010
0000
0000
0000
,  // measure 29
1000
0000
0100
0000
,  // measure 30
0100
0000
0010
0000
,  // measure 31
0001
0000
1000
0000
,  // measure 32
0100
0000
0010
0010
,  // measure 33
0001
0000
0100
0000
,  // measure 34
1000
0000
0100
0000
,  // measure 35
0010
0000
0001
0000
,  // measure 36
1000
1000
1000
1000
;

//---------------dance-single - Chewi----------------
#NOTES:
     dance-single:
     Chewi:
     Easy:
     4:
     0.159,0.211,0.059,0.059,0.000: // measure 1
0000
0000
0000
0000
,  // measure 2
0000
0000
0000
0000
,  // measure 3
0000
0000
0000
0000
,  // measure 4
0000
0000
0000
0000
,  // measure 5
1000
0000
0100
0000
,  // measure 6
0001
0000
0100
0000
,  // measure 7
1000
0000
0010
0000
,  // measure 8
1000
0000
0100
0000
,  // measure 9
1000
0000
0010
0000
,  // measure 10
0001
0000
0010
0000
,  // measure 11
0001
0000
0100
0000
,  // measure 12
0001
0000
0010
0000
,  // measure 13
0010
0010
0010
0000
,  // measure 14
0000
0100
1000
0010
,  // measure 15
0001
0001
0001
0000
,  // measure 16
0001
0010
1000
0100
,  // measure 17
0001
0001
0001
0000
,  // measure 18
0100
0100
0001
0010
,  // measure 19
0100
0100
0100
0000
,  // measure 20
2000
0000
0000
0001
,  // measure 21
3001
0100
0001
0100
,  // measure 22
1000
0100
1000
0100
,  // measure 23
1001
0000
0000
0000
,  // measure 24
0110
0000
0000
0000
,  // measure 25
1000
0010
1000
0010
,  // measure 26
0001
0010
0001
0010
,  // measure 27
0110
0000
0000
0000
,  // measure 28
1001
0000
0000
0000
,  // measure 29
0002
0000
0103
0000
,  // measure 30
0100
1000
0010
1000
,  // measure 31
2000
0000
3100
0000
,  // measure 32
0100
0100
0100
0000
,  // measure 33
2000
0000
3100
0000
,  // measure 34
0100
0001
0010
0001
,  // measure 35
0200
0000
0301
0000
,  // measure 36
0100
0100
0100
0110
;

//---------------dance-single - Chewi----------------
#NOTES:
     dance-single:
     Chewi:
     Medium:
     6:
     0.246,0.253,0.059,0.000,0.083: // measure 1
0000
0000
0000
0000
,  // measure 2
0000
0000
0000
0000
,  // measure 3
0000
0000
0000
0000
,  // measure 4
0000
0000
0000
0000
,  // measure 5
1000
0100
0001
0010
,  // measure 6
0100
0100
0100
0100
0100
0000
0000
0000
,  // measure 7
0010
0001
0100
1000
,  // measure 8
0010
0010
0010
0010
0010
0000
0000
0000
,  // measure 9
0100
0000
0010
0000
1000
0001
1000
0000
,  // measure 10
0010
0000
0100
0000
0001
1000
0001
0000
,  // measure 11
1000
0100
0001
0010
,  // measure 12
1000
0001
1000
0001
,  // measure 13
0100
0000
0000
0000
0100
0000
0000
0000
0010
0000
0000
0010
0000
0010
0000
0000
,  // measure 14
0000
0000
0000
0000
1000
0000
0000
0000
1000
0000
0000
1000
0000
1000
0000
0000
,  // measure 15
0001
0000
0000
0000
0010
0000
0000
0000
0100
0000
0000
0100
0000
0100
0000
0000
,  // measure 16
0010
0001
0100
1000
,  // measure 17
0010
0000
0000
0000
0100
0000
0000
0000
0001
0000
0000
0001
0000
0001
0000
0000
,  // measure 18
0000
0000
0001
0000
0000
0000
0100
0000
0010
0000
0000
1000
0000
1000
0000
0000
,  // measure 19
1000
0000
0000
0000
0001
0000
0000
0000
0010
0000
0000
0010
0000
0010
0000
0000
,  // measure 20
0110
0000
0000
0000
0000
0000
0010
0010
,  // measure 21
0010
0000
0000
0001
0000
0010
0000
0100
,  // measure 22
0000
1000
0010
0100
0001
0100
0010
1000
,  // measure 23
0001
0000
0000
1001
0000
0000
0000
0000
,  // measure 24
1000
0000
0000
1100
0000
0000
0000
0000
,  // measure 25
1000
0000
0100
0010
0000
0001
0000
0010
,  // measure 26
0000
0100
1000
0100
0010
0000
0010
0000
,  // measure 27
0001
0000
0000
0010
0000
0000
0100
0000
0000
0000
0000
0000
0000
0000
0000
0000
,  // measure 28
1000
0000
0000
0010
0000
0000
0010
0000
0000
0000
0000
0000
0000
0000
0000
0000
,  // measure 29
1000
0010
1000
0010
0000
0000
0010
0000
,  // measure 30
0100
0001
0100
0001
0000
0000
0001
0000
,  // measure 31
0000
0001
0010
0100
1000
0000
0000
0100
,  // measure 32
0000
0100
0000
0100
0100
0000
1001
0000
,  // measure 33
1000
0010
0100
0001
0000
0000
0001
0000
,  // measure 34
0100
0010
1000
0001
0000
0000
0001
0000
,  // measure 35
0000
0001
0000
1000
0001
0000
0000
0100
,  // measure 36
0000
0100
0010
0100
0010
0000
0110
0000
;

//---------------dance-single - Chewi----------------
#NOTES:
     dance-single:
     Chewi:
     Hard:
     9:
     0.339,0.338,0.165,0.024,0.000: // measure 1
0000
0000
0000
0000
,  // measure 2
0000
0000
0000
0000
,  // measure 3
0000
0000
0000
0000
,  // measure 4
0000
0000
0000
0000
,  // measure 5
0000
0100
0010
0001
1000
0100
0010
0001
,  // measure 6
1000
0001
1000
0001
1000
0000
0000
0000
,  // measure 7
0001
0001
0001
0000
0100
1000
1001
0000
,  // measure 8
1000
1000
1000
0000
0100
0001
1001
0000
,  // measure 9
0001
0010
0100
1000
0001
0010
0100
1000
,  // measure 10
0001
1000
0001
1000
0001
0000
0000
0000
,  // measure 11
1000
1000
1000
0000
1000
0001
0011
0000
,  // measure 12
0001
0001
0001
0000
0001
1000
1100
0000
,  // measure 13
1100
0000
1010
0000
0010
0001
0100
0000
,  // measure 14
0010
0000
0100
0000
0010
1000
0100
0001
,  // measure 15
0010
0000
0100
0000
0010
0001
0100
0000
,  // measure 16
0010
1000
0100
0001
0100
1000
0010
0100
,  // measure 17
0001
0000
0100
0000
0010
1000
0100
0001
,  // measure 18
0010
0000
0100
0000
0010
0001
0100
1000
,  // measure 19
0010
0000
1000
0000
0100
0001
0010
1000
,  // measure 20
2002
0000
0000
0000
3003
0000
1000
1000
,  // measure 21
1000
0010
0100
0001
0000
0100
0000
1010
,  // measure 22
0000
1000
0001
0010
0100
1000
0100
0010
,  // measure 23
0001
1001
1001
0000
,  // measure 24
1000
1001
1001
0000
,  // measure 25
0001
0100
0010
1000
0000
0010
0000
0001
,  // measure 26
0000
0100
1000
0100
0010
0001
0010
0100
,  // measure 27
1000
0001
0100
0010
0000
0010
0100
0001
,  // measure 28
1000
0100
0010
0001
0000
0010
0010
0000
,  // measure 29
0001
0010
0100
0000
0100
0100
0100
0000
,  // measure 30
1000
0100
0010
0000
0010
0010
0010
0000
,  // measure 31
0000
0010
0001
1000
0010
0000
0000
0100
,  // measure 32
0100
0010
0010
0100
0100
0000
1001
0000
,  // measure 33
0100
1000
0010
0000
0100
0100
0100
0000
,  // measure 34
0100
0001
0010
0000
0010
0010
0010
0000
,  // measure 35
0000
0100
0010
0001
0100
0000
0000
0010
,  // measure 36
0010
0100
0100
0010
0010
0000
1001
0000
;
