#TITLE:Dança do Alarme;
#SUBTITLE:;
#ARTIST:Sincrosone;
#TITLETRANSLIT:Danca do Alarme;
#SUBTITLETRANSLIT:;
#ARTISTTRANSLIT:;
#GENRE:Hip-Hop/Rap;
#CREDIT:chewi;
#BANNER:Danca do Alarme.png;
#BACKGROUND:Danca do Alarme-bg.png;
#LYRICSPATH:;
#CDTITLE:cdtitle.png;
#MUSIC:Danca do Alarme.ogg;
#OFFSET:-1.956000;
#SAMPLESTART:31.957001;
#SAMPLELENGTH:15.000000;
#SELECTABLE:YES;
#DISPLAYBPM:128.000000;
#BPMS:0.000000=128.000000
;
#STOPS:
;
#BGCHANGES:;
#KEYSOUNDS:;
#ATTACKS:;

//---------------dance-single - ----------------
#NOTES:
     dance-single:
     :
     Beginner:
     2:
     0.117228,0.229897,0.031868,0.047802,0.000000,103.000000,99.000000,4.000000,6.000000,0.000000,0.000000,0.117228,0.229897,0.031868,0.047802,0.000000,103.000000,99.000000,4.000000,6.000000,0.000000,0.000000:
// measure 0
0000
0000
0000
0000
,  // measure 1
0000
0000
0000
0000
,  // measure 2
0000
0000
0000
0000
,  // measure 3
0000
0000
0000
0000
,  // measure 4
1000
0000
0000
0000
,  // measure 5
0001
0000
0000
0000
,  // measure 6
1000
0000
0000
0000
,  // measure 7
0001
0000
0000
0000
,  // measure 8
1001
0000
0000
0000
,  // measure 9
0100
0000
0000
0000
,  // measure 10
0110
0000
0000
0000
,  // measure 11
0010
0000
0000
0000
,  // measure 12
1001
0000
0000
0000
,  // measure 13
0001
0000
0000
0000
,  // measure 14
1001
0000
0000
0000
,  // measure 15
1000
0000
0000
0000
,  // measure 16
2000
0000
0000
3000
,  // measure 17
0002
0000
0000
0003
,  // measure 18
0001
0001
0001
0001
,  // measure 19
1000
1000
1000
1000
,  // measure 20
1000
0000
0000
0001
,  // measure 21
0000
0000
0001
0000
,  // measure 22
0000
0000
0000
0000
,  // measure 23
0001
0001
0000
0000
,  // measure 24
1000
0000
0000
0000
,  // measure 25
0001
0000
0000
0000
,  // measure 26
1000
0000
0000
0000
,  // measure 27
0001
0000
0000
0000
,  // measure 28
1000
0000
0000
0000
,  // measure 29
0001
0000
0000
0000
,  // measure 30
1000
0000
0000
0000
,  // measure 31
0001
0000
0000
0000
,  // measure 32
0001
0000
0001
0000
,  // measure 33
0001
0000
0001
0000
,  // measure 34
1000
0000
1000
0000
,  // measure 35
1000
0000
1000
0000
,  // measure 36
0010
0000
0010
0000
,  // measure 37
0010
0000
0010
0000
,  // measure 38
0100
0000
0100
0000
,  // measure 39
0100
0000
0100
0000
,  // measure 40
2000
0000
0000
3000
,  // measure 41
0002
0000
0000
0003
,  // measure 42
1000
1000
1000
1000
,  // measure 43
0001
0001
0001
0001
,  // measure 44
1000
0000
0000
1000
,  // measure 45
0000
0000
1000
0000
,  // measure 46
0000
0000
0000
0000
,  // measure 47
0001
0001
0000
0000
,  // measure 48
0002
0000
0000
0003
,  // measure 49
2000
0000
0000
3000
,  // measure 50
0001
0001
0001
0001
,  // measure 51
1000
1000
1000
1000
,  // measure 52
0001
0000
0000
0001
,  // measure 53
0000
0000
0001
0000
,  // measure 54
0000
0000
0000
0000
,  // measure 55
1000
0000
0001
0000
,  // measure 56
0010
0000
0100
0000
,  // measure 57
0100
0000
0010
0000
,  // measure 58
0001
0000
0010
0000
,  // measure 59
0010
0000
0001
0000
,  // measure 60
1000
0000
0100
0000
,  // measure 61
0100
0000
1000
0000
,  // measure 62
0001
0000
1000
0000
,  // measure 63
1000
0000
0001
0000
,  // measure 64
0001
0001
0000
0000
0000
0000
0000
0000
;

//---------------dance-single - ----------------
#NOTES:
     dance-single:
     :
     Easy:
     5:
     0.184379,0.229897,0.031868,0.159340,0.011950,162.000000,158.000000,4.000000,20.000000,0.000000,0.000000,0.184379,0.229897,0.031868,0.159340,0.011950,162.000000,158.000000,4.000000,20.000000,0.000000,0.000000:
0000
0000
0000
0000
,
0000
0000
0000
0000
,
0000
0000
0000
0000
,
0000
0000
0000
0000
,
1000
0010
1000
0000
,
0001
0010
0001
0000
,
1000
0100
1000
0000
,
0001
0100
0001
0000
,
1001
0000
0000
0000
,
0100
0100
0100
0000
,
0110
0000
0000
0000
,
0010
0010
0010
0000
,
1001
0000
1000
0000
,
0001
1000
0001
0000
,
1001
0000
0001
0000
,
1000
0001
1000
0000
,
2000
0000
0000
3000
,
0002
0000
0000
0003
,
1000
0001
1000
0001
,
1000
0001
1000
0001
,
1000
0000
0000
1000
0000
0000
1000
0000
,
0000
0000
1000
0000
0000
0000
0000
2000
0000
0000
0000
0000
0000
0000
0000
0000
,
0000
0000
0000
0000
,
3001
0001
0000
0000
,
1000
0100
1000
0000
,
0001
0100
0001
0000
,
1000
0010
1000
0000
,
0001
0010
0001
0000
,
1000
0100
1000
0000
,
0001
0100
0001
0000
,
1000
0010
1000
0000
,
0001
0010
0001
0000
,
0001
0001
0001
0001
,
0001
0001
0002
0000
,
1003
1000
1000
1000
,
1000
1000
2000
0000
,
3010
0010
0010
0010
,
0010
0010
0020
0000
,
0130
0100
0100
0100
,
0100
0100
0100
0100
,
2000
0000
0000
3000
,
0002
0000
0000
0003
,
1000
0001
1000
0001
,
1000
0001
1000
0001
,
1000
0000
0000
1000
0000
0000
1000
0000
,
0000
0000
1000
0000
0000
0000
0000
2000
0000
0000
0000
0000
0000
0000
0000
0000
,
0000
0000
0000
0000
,
3001
0001
0000
0000
,
0002
0000
0000
0003
,
2000
0000
0000
3000
,
0001
1000
0001
1000
,
0001
1000
0001
1000
,
0001
0000
0000
0001
0000
0000
0001
0000
,
0000
0000
0001
0000
0000
0000
0000
0002
0000
0000
0000
0000
0000
0000
0000
0000
,
0000
0000
0000
0000
,
1003
1000
0001
0001
,
0020
0000
0130
0000
,
0200
0000
0310
0010
,
0002
0000
0013
0000
,
0020
0000
0031
0001
,
2000
0000
3100
0000
,
0200
0000
1300
1000
,
0002
0000
1003
0000
,
2000
0000
3001
0001
,
0001
0001
0000
0000
0000
0000
0000
0000
;

//---------------dance-single - ----------------
#NOTES:
     dance-single:
     :
     Medium:
     8:
     0.312989,0.434251,0.191208,0.071703,0.059752,275.000000,251.000000,24.000000,9.000000,0.000000,0.000000,0.312989,0.434251,0.191208,0.071703,0.059752,275.000000,251.000000,24.000000,9.000000,0.000000,0.000000:
0000
0000
0000
0000
,
0000
0000
0000
0000
,
0000
0000
0000
0000
,
0000
0000
0000
0000
,
1000
0010
0001
0100
,
1000
0010
0001
0001
,
0001
0010
1000
0100
,
0001
0010
1000
1000
,
0001
0000
0001
0000
1000
0001
1000
0000
,
0001
0000
0001
0000
1000
0001
1000
0000
,
1000
0000
1000
0000
0001
1000
0001
0000
,
1000
0000
1000
0000
0001
1000
0001
0000
,
0010
0000
0010
0000
0100
0010
0100
0000
,
0010
0000
0010
0000
0100
0010
0100
0000
,
0010
0000
0010
0000
0010
0100
0010
0000
,
0010
0000
0010
0000
0010
0100
0010
0000
,
0002
0010
0010
0013
,
2000
0010
0010
3010
,
1001
1001
1001
1001
,
1001
1001
1001
1001
,
1000
0000
0000
0001
0000
0000
1000
0000
,
0000
0000
0001
0000
0000
2000
0000
0000
0000
0000
0000
0000
0000
0000
0000
0000
,
0000
0000
0000
0000
,
3001
1000
0001
0000
0000
1000
0001
1000
,
0001
0000
0000
0001
0010
0000
0000
0000
0001
0000
0000
0000
0001
0000
0000
0000
,
1000
0000
0000
1000
0100
0000
0000
0000
1000
0000
0000
0000
1000
0000
0000
0000
,
0001
0000
0000
0001
0100
0000
0000
0000
0001
0000
0000
0000
0001
0000
0000
0000
,
1000
0000
0000
1000
0100
0000
0000
0000
1000
0000
0000
0000
1000
0000
0000
0000
,
0010
0000
0000
0010
1000
0000
0000
0000
0010
0000
0000
0000
0010
0000
0000
0000
,
0100
0000
0000
0100
0001
0000
0000
0000
0100
0000
0000
0000
0100
0000
0000
0000
,
0001
0000
0000
0001
0100
0000
0000
0000
0001
0000
0000
0000
0001
0000
0000
0000
,
1000
0000
0000
1000
0001
0000
0000
0000
1000
0000
0000
0000
1000
0000
0000
0000
,
0001
0010
0100
1000
,
0010
1000
0100
0000
1000
0000
0010
0000
,
1000
0010
0100
0001
,
0100
0000
0010
0000
0100
0001
0010
0000
,
0100
1000
0001
0010
,
0100
1000
0010
0000
1000
0000
0001
0000
,
1000
0010
0100
0001
,
0010
0000
0001
0000
0100
0001
0010
0000
,
0002
0010
0010
0013
,
2000
0010
0010
3010
,
1001
1001
1001
1001
,
1001
1001
1001
1001
,
0100
0000
0000
0100
0000
0000
0100
0000
,
0000
0000
0100
0000
0000
0000
0000
0200
0000
0000
0000
0000
0000
0000
0000
0000
,
0000
0000
0000
0000
,
0310
0010
0010
0000
0000
0010
0100
0010
,
2000
0100
0100
3100
,
0002
0100
0100
0103
,
1001
1001
1001
1001
,
1001
1001
1001
1001
,
0010
0000
0000
0010
0000
0000
0010
0000
,
0000
0000
0010
0000
0000
0000
0000
0020
0000
0000
0000
0000
0000
0000
0000
0000
,
0000
0000
0000
0000
,
0130
0100
0100
0000
0000
0010
0100
0010
,
1000
0000
0000
1000
0010
0000
0000
0000
1000
0000
0000
0000
0100
0000
0000
0000
,
0010
0001
1000
0001
,
0001
0000
0000
0001
0100
0000
0000
0000
0010
0000
0000
0000
1000
0000
0000
0000
,
0001
1000
0010
1000
,
0001
0000
0000
0001
1000
0000
0000
0000
0100
0000
0000
0000
0010
0000
0000
0000
,
0001
1000
0100
1000
,
0010
0000
0000
0010
1000
0000
0000
0000
0001
0000
0000
0000
0100
0000
0000
0000
,
0010
1000
0001
1000
,
0001
0001
0000
0000
0000
0000
0000
0000
;

//---------------dance-single - ----------------
#NOTES:
     dance-single:
     :
     Hard:
     11:
     0.441599,0.561971,0.422250,0.071703,0.171290,388.000000,335.000000,53.000000,9.000000,0.000000,0.000000,0.441599,0.561971,0.422250,0.071703,0.171290,388.000000,335.000000,53.000000,9.000000,0.000000,0.000000:
0000
0000
0000
0000
,
0000
0000
0000
0000
,
0000
0000
0000
0000
,
0000
0000
0000
0000
,
0001
0000
0000
0001
0100
0000
0000
0000
0010
0000
1000
0000
1100
0000
0000
0000
,
0010
0000
0000
0010
0001
0000
1000
0000
1100
0000
0000
0000
0101
0000
0000
0000
,
1000
0000
0000
1000
0010
0000
0100
0000
0001
0000
0000
0000
0101
0000
0000
0000
,
0001
0000
0000
0001
0100
0000
0010
0000
1000
0000
0000
0000
1001
0000
0000
0000
,
1000
0001
0010
0100
1000
0000
1100
0000
,
1000
0001
0100
0010
0100
0100
0100
0000
,
0010
0100
0001
1000
0010
0000
1010
0000
,
1000
0001
0010
0100
0010
0010
0010
0000
,
0001
0000
0010
0000
0100
0000
1000
0000
0010
1000
0100
0000
1000
0000
0000
0000
,
0010
0000
0100
0000
0001
0000
1000
0000
0010
1000
0100
0000
1100
0000
0000
0000
,
0010
0000
0100
0000
0001
0000
1000
0000
0100
1000
0100
0000
1000
0000
0000
0000
,
1000
0000
0100
0000
0010
0000
0001
0000
1000
0001
1000
0000
1001
0000
0000
0000
,
0002
0100
0100
0103
,
2000
0100
0100
3100
,
1001
1001
1001
1001
,
0110
0110
0110
0110
,
0010
0000
0000
0100
0000
0000
0001
0000
,
0000
0000
1000
0000
0000
0000
0000
0002
0000
0000
0000
0000
0000
0000
0000
0000
,
0000
0000
0000
0000
,
1003
1000
1000
0000
0000
0001
0001
0001
,
1000
0000
0000
1000
0010
0000
0000
0000
1000
0000
0000
1000
0001
0000
0000
0000
,
1000
0000
0000
1000
0100
0000
0000
0000
0011
0000
0000
0000
1100
0000
0000
0000
,
0001
0000
0000
0001
0100
0000
0000
0000
0001
0000
0000
0001
0010
0000
0000
0000
,
0001
0000
0000
0001
1000
0000
0001
0000
1001
0000
0000
0000
1001
0000
0000
0000
,
1000
0000
0000
1000
0010
0000
0100
0000
0001
0000
0000
0001
0100
0000
0010
0000
,
1000
0000
0000
1000
0100
0000
0010
0000
0011
0000
0000
0000
1100
0000
0000
0000
,
0001
0000
0000
0001
0100
0000
0010
0000
1000
0000
0000
1000
0010
0000
0100
0000
,
0001
0000
0000
0001
0100
0000
0010
0000
1010
0000
0000
0000
0101
0000
0000
0000
,
0100
0010
1000
0001
0100
0010
0100
0001
,
0010
0000
0100
0000
1000
0000
0010
0000
1000
0100
1000
0000
0001
0100
0001
0000
,
1000
0010
0100
0010
1000
0001
0010
0100
,
1000
0000
0100
0000
0010
0000
0001
0000
0100
0001
0100
0000
0001
0100
0001
0000
,
0100
0010
1000
0001
0010
0100
1000
0001
,
1000
0100
1000
0000
0001
0100
0001
0000
0101
0000
0000
0000
1010
0000
0000
0000
,
0001
1000
0010
0100
0001
0100
0010
1000
,
0100
0010
0001
0000
1000
0100
0010
0000
0011
0000
0000
0000
1001
0000
0000
0000
,
0002
0010
0010
0013
,
2000
0010
0010
3010
,
0110
0110
0110
0110
,
1001
1001
1001
1001
,
1000
0000
0000
0100
0000
0000
0010
0000
,
0000
0000
0001
0000
0000
0000
0000
2000
0000
0000
0000
0000
0000
0000
0000
0000
,
0000
0000
0000
0000
,
3001
0001
0001
0000
0000
1000
1000
1000
,
0020
0100
0100
0130
,
0200
0010
0010
0310
,
1010
1010
0101
0101
,
1010
1010
0101
0101
,
1000
0000
0000
0001
0000
0000
1000
0000
,
0000
0000
0001
0000
0000
0000
0000
0020
0000
0000
0000
0000
0000
0000
0000
0000
,
0000
0000
0000
0000
,
0130
0100
0100
0000
0000
0010
0010
0010
,
0001
0000
0000
0001
0100
0000
0000
0000
0001
0000
0000
0001
1000
0000
0000
0000
,
0001
0000
0000
0001
0010
0000
0000
0000
1100
0000
0000
0000
0011
0000
0000
0000
,
1000
0000
0000
1000
0010
0000
0000
0000
1000
0000
0000
1000
0100
0000
0000
0000
,
1000
0000
0000
1000
0001
0000
1000
0000
1001
0000
0000
0000
1001
0000
0000
0000
,
0001
0000
0000
0001
0100
0000
0010
0000
1000
0000
0000
1000
0010
0000
0100
0000
,
0001
0000
0000
0001
0010
0000
0100
0000
1100
0000
0000
0000
0011
0000
0000
0000
,
1000
0000
0000
1000
0010
0000
0100
0000
0001
0000
0000
0001
0100
0000
0010
0000
,
1000
0000
0000
1000
0010
0000
0100
0000
0101
0000
0000
0000
1010
0000
0000
0000
,
0010
0010
0000
0000
0000
0000
0000
0000
;
