#TITLE:DYNAMITE RAVE;
#SUBTITLE:;
#ARTIST:NAOKI;
#TITLETRANSLIT:;
#SUBTITLETRANSLIT:;
#ARTISTTRANSLIT:;
#GENRE:;
#CREDIT:KONAMI;
#MENUCOLOR:;
#METERTYPE:DDR X;
#BANNER:DYNAMITE RAVE.png;
#BACKGROUND:DYNAMITE RAVE-bg.png;
#LYRICSPATH:;
#CDTITLE:;
#MUSIC:DYNAMITE RAVE.mp3;
#OFFSET:-3.399;
#SAMPLESTART:39.382;
#SAMPLELENGTH:15.000;
#SELECTABLE:YES;
#LISTSORT:;
#DISPLAYBPM:150.000;
#BPMS:0.000=150.000;
#STOPS:;
#BGCHANGES:;
#ATTACKS:;

//---------------dance-single - KONAMI----------------
#NOTES:
     dance-single:
     KONAMI:
     Hard:
     8:
     0.477,0.466,0.322,0.062,0.010: // measure 1
0000
0000
0000
0000
,  // measure 2
0000
0000
0000
0000
,  // measure 3
0010
0000
0001
0000
0100
0010
0100
0001
,  // measure 4
1000
0000
0100
0000
1000
0010
0100
0001
,  // measure 5
1000
0100
1000
0000
0001
0010
0001
0000
,  // measure 6
0100
0000
0001
0000
1000
0001
0010
0100
,  // measure 7
0010
0000
0000
0000
,  // measure 8
1000
0000
0010
0000
0001
0100
0010
1000
,  // measure 9
0001
0000
1100
0000
0010
0001
0100
0000
,  // measure 10
1010
0100
0011
0100
,  // measure 11
0010
0000
0100
0000
1000
0001
1000
0000
,  // measure 12
0100
1001
0100
1001
,  // measure 13
0010
1001
0010
1001
,  // measure 14
0100
0000
1100
0000
0001
0001
0100
0010
,  // measure 15
1000
0001
0100
0100
1000
0001
0010
0000
,  // measure 16
0100
0000
0010
0000
0001
0010
0100
0010
,  // measure 17
0001
0000
0100
0000
0010
0100
1000
0100
,  // measure 18
0010
0000
1000
0000
0100
0010
0001
0010
,  // measure 19
0100
0000
1000
0010
0000
0100
0001
0010
,  // measure 20
0100
0000
0010
0000
1000
0010
0100
0010
,  // measure 21
1000
0000
0100
0000
0010
0100
0001
0100
,  // measure 22
0010
0000
0001
0000
0100
0010
1000
0010
,  // measure 23
0100
0000
0110
0000
0001
0001
0001
0001
,  // measure 24
1001
0010
1010
0100
,  // measure 25
0010
1000
0000
0100
0010
0001
0100
0000
,  // measure 26
0010
0000
1000
0000
0010
0000
0001
1000
,  // measure 27
0100
0000
0001
0000
0010
0010
0100
0000
,  // measure 28
0001
0000
1100
0000
0110
0000
0001
0100
,  // measure 29
0001
0000
1000
0000
0100
0010
0100
0000
,  // measure 30
1000
0001
0101
0000
0010
1000
1100
0000
,  // measure 31
1001
0110
1001
0000
,  // measure 32
0100
0010
0000
0100
0000
0001
0000
1000
,  // measure 33
0000
0001
0000
0100
0000
1000
0000
0100
,  // measure 34
0000
0001
0000
1000
0000
0010
0000
0100
,  // measure 35
0020
2030
3002
0103
,  // measure 36
1000
0001
0000
0010
0000
0001
0100
1000
,  // measure 37
0000
0001
0000
1000
0000
0010
0001
0100
,  // measure 38
0000
0001
0000
0100
0000
1000
0100
1000
,  // measure 39
0020
0032
0203
0310
,  // measure 40
0100
0000
0010
0000
1000
0010
0100
0010
,  // measure 41
1000
0000
0100
0000
0010
0100
0001
0100
,  // measure 42
0010
0000
0001
0000
0100
0010
1000
0010
,  // measure 43
0100
0000
0001
0010
0000
0100
1000
0010
,  // measure 44
0100
0000
0010
0000
0001
0010
0100
0010
,  // measure 45
0001
0000
0100
0000
0010
0100
1000
0100
,  // measure 46
0010
0000
1000
0000
0100
0010
0001
0010
,  // measure 47
0100
0000
0110
0000
1000
1000
1000
1000
,  // measure 48
1001
0010
0011
0100
,  // measure 49
0010
0001
0000
0100
0010
1000
0100
0000
,  // measure 50
0010
0000
0001
0000
0010
0000
1000
0001
,  // measure 51
0100
0000
1000
0000
0010
0010
0100
0000
,  // measure 52
1000
0000
0101
0000
0110
0000
1000
0100
,  // measure 53
1000
0000
0001
0000
0100
0010
0100
0000
,  // measure 54
0001
1000
1100
0000
0010
0001
0101
0000
,  // measure 55
1001
0110
1001
0000
,  // measure 56
1000
0000
0000
1100
0000
0000
0001
0000
0000
0011
0000
0000
0100
0000
0010
0000
,  // measure 57
0110
0000
0000
0000
;

//---------------dance-single - KONAMI----------------
#NOTES:
     dance-single:
     KONAMI:
     Medium:
     6:
     0.361,0.379,0.229,0.042,0.010: // measure 1
0000
0000
0000
0000
,  // measure 2
0000
0000
0000
0000
,  // measure 3
0001
0000
0010
0000
0100
0000
0010
0001
,  // measure 4
1000
0000
0010
0000
1000
0100
1000
0000
,  // measure 5
0001
0101
1000
1100
,  // measure 6
0001
0001
1000
0010
,  // measure 7
0100
0000
0000
0000
,  // measure 8
1000
0100
0010
0010
,  // measure 9
0100
0001
0001
0100
,  // measure 10
0101
0001
1000
0100
,  // measure 11
1000
0000
1000
0000
1000
0001
1000
0000
,  // measure 12
0001
0101
0001
0101
,  // measure 13
1000
1100
1000
1100
,  // measure 14
0010
0000
0100
0100
,  // measure 15
1000
1000
0010
0000
0001
0000
1001
0000
,  // measure 16
1000
0000
0010
0001
,  // measure 17
0100
0000
0001
0000
1000
0001
1000
0000
,  // measure 18
0010
1000
0001
0100
,  // measure 19
0001
0100
1000
0100
,  // measure 20
0001
0100
0010
1000
,  // measure 21
0100
0000
1000
0000
0001
1000
0001
0000
,  // measure 22
0010
0001
1000
0100
,  // measure 23
0100
0000
0010
0000
0001
0001
1000
1000
,  // measure 24
1001
0010
1001
0000
,  // measure 25
0100
0100
0010
0010
,  // measure 26
0001
1000
0001
0100
,  // measure 27
0010
0000
1000
0000
0100
0100
0100
0000
,  // measure 28
0000
0110
1001
0000
,  // measure 29
0100
0010
0010
0100
,  // measure 30
1000
0100
0001
0010
,  // measure 31
1001
0110
1001
0000
,  // measure 32
0000
1000
0000
0010
0000
0100
0000
0001
,  // measure 33
0000
0010
0000
0001
0000
1000
0000
0100
,  // measure 34
0000
0010
0000
1000
0000
0001
0000
0020
,  // measure 35
0000
0000
0100
0130
,  // measure 36
0000
1000
0000
0010
0000
0001
0000
1000
,  // measure 37
0000
0100
0000
0001
0000
0010
0000
0100
,  // measure 38
0000
1000
0000
0100
0000
0001
0000
0100
,  // measure 39
0002
2003
3002
1003
,  // measure 40
0001
0000
0010
1000
,  // measure 41
0100
0000
1000
0000
0001
1000
0001
0000
,  // measure 42
0010
0001
1000
0100
,  // measure 43
1000
0100
0001
0100
,  // measure 44
1000
0100
0010
0001
,  // measure 45
0100
0000
0001
0000
1000
0001
1000
0000
,  // measure 46
0010
1000
0001
0100
,  // measure 47
0100
0000
0010
0000
1000
1000
0001
0001
,  // measure 48
1001
0010
1001
0000
,  // measure 49
0100
0100
0010
0010
,  // measure 50
1000
0001
1000
0100
,  // measure 51
0010
0000
0001
0000
0100
0100
0100
0000
,  // measure 52
0000
0110
1001
0000
,  // measure 53
0100
0010
0010
0100
,  // measure 54
0001
0100
1000
0010
,  // measure 55
1001
0110
1001
0000
,  // measure 56
0010
0000
0000
0010
0000
0000
0100
0000
0000
0100
0000
0000
0001
0000
1000
0000
,  // measure 57
0010
0000
0000
0000
;

//---------------dance-single - KONAMI----------------
#NOTES:
     dance-single:
     KONAMI:
     Easy:
     3:
     0.202,0.233,0.073,0.000,0.000: // measure 1
0000
0000
0000
0000
,  // measure 2
0000
0000
0000
0000
,  // measure 3
1000
0001
0001
1000
,  // measure 4
0001
0000
0010
0000
,  // measure 5
1000
0001
1000
0001
,  // measure 6
0001
0000
1000
0000
,  // measure 7
0100
0000
0000
0000
,  // measure 8
0010
0000
0001
0001
,  // measure 9
1000
0000
0100
0000
,  // measure 10
1000
1000
0010
0000
,  // measure 11
0010
0000
0100
0100
,  // measure 12
0001
0001
0001
0001
,  // measure 13
1000
1000
1000
1000
,  // measure 14
0001
0000
1000
0000
,  // measure 15
0010
0000
0010
0000
,  // measure 16
1000
0000
0010
0000
,  // measure 17
0010
0000
1000
0000
,  // measure 18
0001
0001
0010
0000
,  // measure 19
0100
0000
0000
0000
,  // measure 20
1000
0000
0010
0000
,  // measure 21
0010
0000
1000
0000
,  // measure 22
0001
0001
0010
0000
,  // measure 23
1001
0000
0110
0000
,  // measure 24
1001
0000
0000
0000
,  // measure 25
1000
0001
1000
0000
,  // measure 26
0001
0000
0100
0001
,  // measure 27
0001
0000
0001
0000
,  // measure 28
0000
1000
0001
0000
,  // measure 29
0010
0000
0100
0000
,  // measure 30
1000
0100
1000
0100
,  // measure 31
1000
0000
0010
0000
,  // measure 32
0001
0000
0000
0000
,  // measure 33
1000
0000
0000
0000
,  // measure 34
0010
0000
0000
0000
,  // measure 35
0100
0100
0100
0000
,  // measure 36
1000
0000
1000
0000
,  // measure 37
0001
0000
0001
0000
,  // measure 38
0010
0000
0010
0000
,  // measure 39
1000
1000
1000
1000
,  // measure 40
0001
0000
0010
0000
,  // measure 41
0010
0000
0001
0000
,  // measure 42
1000
1000
0010
0000
,  // measure 43
0100
0000
0000
0000
,  // measure 44
0001
0000
0010
0000
,  // measure 45
0010
0000
0001
0000
,  // measure 46
1000
1000
0010
0000
,  // measure 47
1001
0000
0110
0000
,  // measure 48
1001
0000
0000
0000
,  // measure 49
0001
1000
0001
0000
,  // measure 50
1000
0000
0100
1000
,  // measure 51
1000
0000
1000
0000
,  // measure 52
0000
0001
1000
0000
,  // measure 53
0010
0000
0100
0000
,  // measure 54
0001
0100
0001
0100
,  // measure 55
0001
0000
0010
0000
,  // measure 56
1000
1000
0001
0001
,  // measure 57
1001
0000
0000
0000
;

//---------------dance-single - KONAMI----------------
#NOTES:
     dance-single:
     KONAMI:
     Beginner:
     1:
     0.111,0.175,0.052,0.000,0.000: // measure 1
0000
0000
0000
0000
,  // measure 2
0000
0000
0000
0000
,  // measure 3
1000
0000
0000
0000
,  // measure 4
0001
0000
0000
0000
,  // measure 5
1000
0000
0000
0000
,  // measure 6
0001
0000
0000
0000
,  // measure 7
0010
0000
0000
0000
,  // measure 8
1000
0000
0000
0000
,  // measure 9
1000
0000
0000
0000
,  // measure 10
0001
0000
0000
0000
,  // measure 11
0001
0000
0000
0000
,  // measure 12
1000
0000
0001
0000
,  // measure 13
1000
0000
0001
0000
,  // measure 14
1000
0000
0000
0000
,  // measure 15
0001
0000
0000
0000
,  // measure 16
1000
0000
0000
0000
,  // measure 17
0010
0000
0000
0000
,  // measure 18
0001
0000
0000
0000
,  // measure 19
0010
0000
0000
0000
,  // measure 20
0001
0000
0000
0000
,  // measure 21
1000
0000
0000
0000
,  // measure 22
0010
0000
0000
0000
,  // measure 23
1001
0000
0000
0000
,  // measure 24
1001
0000
0000
0000
,  // measure 25
1000
0000
0000
0000
,  // measure 26
0001
0001
0000
0000
,  // measure 27
0001
0001
0000
0000
,  // measure 28
1000
0000
0000
0000
,  // measure 29
0010
0000
0000
0000
,  // measure 30
1000
0000
1000
0000
,  // measure 31
1000
0000
0000
0000
,  // measure 32
0001
0000
0000
0000
,  // measure 33
0000
0000
0000
0000
,  // measure 34
1000
0000
0000
0000
,  // measure 35
0000
0000
0000
0000
,  // measure 36
0100
0000
0000
0000
,  // measure 37
0100
0000
0000
0000
,  // measure 38
0100
0000
0000
0000
,  // measure 39
0000
0000
0000
0000
,  // measure 40
1000
0000
1000
0000
,  // measure 41
0010
0000
0000
0000
,  // measure 42
0001
0000
0001
0000
,  // measure 43
0010
0000
0000
0000
,  // measure 44
0001
0000
0001
0000
,  // measure 45
1000
0000
1000
0000
,  // measure 46
0010
0000
0000
0000
,  // measure 47
1001
0000
0000
0000
,  // measure 48
1001
0000
0000
0000
,  // measure 49
1000
0000
1000
0000
,  // measure 50
0001
0001
0001
0000
,  // measure 51
0001
0001
0001
0000
,  // measure 52
1000
0000
1000
0000
,  // measure 53
0010
0000
0000
0000
,  // measure 54
1000
1000
1000
0000
,  // measure 55
1000
0000
0000
0000
,  // measure 56
1000
0000
0001
0000
,  // measure 57
1001
0000
0000
0000
;
