#TITLE:DOUBLE TORNADO;
#SUBTITLE:;
#ARTIST:evo-X;
#TITLETRANSLIT:;
#SUBTITLETRANSLIT:;
#ARTISTTRANSLIT:;
#GENRE:;
#CREDIT:Chewi☆;
#MENUCOLOR:#00FFFF;
#METERTYPE:DDR X;
#BANNER:DOUBLE TORNADO.png;
#BACKGROUND:DOUBLE TORNADO-bg.png;
#LYRICSPATH:;
#CDTITLE:;
#MUSIC:DOUBLE TORNADO.mp3;
#OFFSET:2.671;
#SAMPLESTART:19.280;
#SAMPLELENGTH:15.000;
#SELECTABLE:YES;
#LISTSORT:;
#BPMS:0.000=153.000;
#STOPS:;
#BGCHANGES:;
#ATTACKS:;

//---------------dance-single - Chewi----------------
#NOTES:
     dance-single:
     Chewi:
     Hard:
     12:
     0.561,0.557,0.104,0.038,0.141:
0000
0000
0000
0000
,
0000
0000
0000
0000
,
0000
0000
0000
0000
,
0000
0000
0000
0000
,
0000
0000
0000
0000
,
0000
0000
0000
0000
,
1000
0000
1100
0000
1000
1000
1000
0000
,
0001
0010
0100
1000
0100
0000
1000
0000
,
0001
0000
0101
0000
0100
0100
0100
0000
,
0001
0100
0010
1000
0001
0000
1001
0000
,
1000
0100
1000
0100
0001
0100
0001
0100
,
1000
0100
1000
0100
1000
0010
1000
0010
,
0001
0010
0001
0010
1000
0010
1000
0010
,
0100
0010
0100
0010
0001
1000
0001
1000
,
1001
0010
0100
1000
0010
0100
0001
0100
,
0010
0010
0100
0200
0000
0000
0300
0000
,
0011
0100
1000
0001
0100
0010
1000
0001
,
1000
1000
0001
0002
0000
0000
0003
0000
,
1000
0000
0000
0010
0000
0000
0100
0000
0001
0000
0000
0100
0000
0000
0010
0000
,
1000
0000
0000
0001
0000
0000
0010
0000
0100
0000
0000
1000
0000
0000
0010
0000
,
1000
0000
0000
0100
0000
0000
0010
0000
0001
0000
0000
0100
0000
0000
0010
0000
,
0100
0000
0000
0001
0000
0000
0010
0000
0100
0000
0010
0000
0001
0000
0010
0000
,
0001
0010
0100
1000
0001
0100
0010
0000
,
0100
0001
0010
0000
0100
1000
0010
0000
,
1000
0010
0100
0001
1000
0010
0100
0001
,
0010
0100
1000
0000
0010
0100
0001
0000
,
1000
0100
0001
0100
1000
0010
0001
0000
,
1000
0100
0010
0000
1000
0010
0100
0000
,
0010
0100
0010
0001
0100
0010
1000
0001
,
1000
0100
1000
0100
0010
0001
0010
0001
,
0101
0010
0100
0001
0100
0010
0100
0001
,
0010
0010
0100
0200
0000
0000
0300
0000
,
0110
0010
0100
1000
0100
0010
0100
1000
,
0010
0010
0100
0200
0000
0000
0300
0000
,
0001
0000
0000
0100
0000
0000
0010
0000
1000
0000
0000
0001
0000
0000
0010
0000
,
0100
0000
0000
1000
0000
0000
0010
0000
1000
0000
0000
0100
0000
0000
0010
0000
,
0001
0000
0000
1000
0000
0000
0100
0000
0001
0000
0000
0100
0000
0000
0010
0000
,
0100
0000
0000
0001
0000
0000
0100
0000
0010
0000
1000
0000
0010
0000
1000
0000
,
0010
0000
1000
0000
0000
0100
0000
0000
0010
0000
0000
0100
0000
0000
0001
0000
,
0000
0000
0100
0000
0000
0010
0000
0000
1000
0000
0000
0001
0000
0000
0010
0000
,
0000
0000
0100
0000
0000
0010
0000
0000
0001
0000
0000
1000
0000
0000
0010
0000
,
0000
0000
0100
0000
0000
0001
0000
0000
0100
0000
0000
0010
0000
0000
1000
0000
,
0000
0000
0001
0000
0000
1000
0000
0000
0100
0000
0000
0001
0000
0000
0100
0000
,
0000
0000
1000
0000
0000
0010
0000
0000
0001
0000
0000
0010
0000
0000
1000
0000
,
0000
0000
0010
0000
0000
0100
0000
0000
0001
0000
0000
0100
0000
0000
0010
0000
,
0000
0000
1000
0000
0000
0001
0000
0000
0010
0000
0000
0100
0000
0000
1000
0000
,
1000
0100
1000
0010
1000
0100
1000
0010
,
1000
0001
0100
0010
0100
0100
0100
0100
,
0001
0010
0001
0100
0001
0010
0001
0100
,
0001
1000
0010
0100
0010
0010
0010
0010
,
1000
0010
1000
0100
1000
0010
0001
0100
,
0001
0100
0001
0010
0001
0010
1000
0100
,
0010
0010
0100
0100
1000
1000
0100
0100
,
0010
0001
0100
0001
0010
0100
1000
0010
,
0101
0100
0010
1000
0001
0001
1000
1000
,
0001
0010
0100
1000
0001
0010
0100
1000
,
0001
1000
0001
1000
0010
0100
0001
0100
,
0010
0010
0100
0100
0001
0010
0100
1000
,
0010
0010
1000
1000
0100
1000
0010
0001
,
0010
0100
0001
1000
0100
0100
0010
0010
,
0001
0010
0100
1000
0010
0100
0001
1000
,
0100
0100
0010
0010
0001
1000
0100
1000
,
0100
1000
0010
0100
0000
0100
0001
0010
,
0100
1000
0001
1000
0001
0100
0001
0100
,
0001
0100
0010
1000
0000
0001
0010
0100
,
1100
0000
0000
0110
0000
0000
1001
0000
;

//---------------dance-single - Chewi----------------
#NOTES:
     dance-single:
     Chewi:
     Beginner:
     2:
     0.081,0.093,0.000,0.113,0.000:
0000
0000
0000
0000
,
0000
0000
0000
0000
,
0000
0000
0000
0000
,
0000
0000
0000
0000
,
0000
0000
0000
0000
,
0000
0000
0000
0000
,
1000
0000
0000
0000
,
0001
0000
0000
0000
,
0001
0000
0000
0000
,
1000
0000
0000
0000
,
0010
0000
0000
0000
,
0010
0000
0000
0000
,
0001
0000
0000
0000
,
0001
0000
0000
0000
,
0200
0000
0000
0000
,
0000
0000
0300
0000
,
0020
0000
0000
0000
,
0000
0000
0030
0000
,
0002
0000
0000
0000
,
0000
0000
0003
0000
,
2000
0000
0000
0000
,
0000
0000
3000
0000
,
1000
0000
0000
0000
,
0001
0000
0000
0000
,
1000
0000
0000
0000
,
0001
0000
0000
0000
,
1000
0000
0000
0000
,
0001
0000
0000
0000
,
1000
0000
0000
0000
,
0001
0000
0000
0000
,
0002
0000
0000
0000
,
0000
0000
0003
0000
,
2000
0000
0000
0000
,
0000
0000
3000
0000
,
0020
0000
0000
0000
,
0000
0000
0030
0000
,
0200
0000
0000
0000
,
0000
0000
0300
0000
,
0100
0000
0000
0000
,
0100
0000
0000
0000
,
0010
0000
0000
0000
,
0100
0000
0000
0000
,
0100
0000
0000
0000
,
0001
0000
0000
0000
,
0100
0000
0000
0000
,
0100
0000
0000
0000
,
0001
0000
0000
0000
,
1000
0000
0000
0000
,
0010
0000
0000
0000
,
0010
0000
0000
0000
,
1000
0000
0000
0000
,
0001
0000
0000
0000
,
0010
0000
0000
0000
,
0010
0000
0000
0000
,
0200
0000
0000
0000
,
0000
0000
0300
0000
,
1000
0000
0000
0000
,
1000
0000
0000
0000
,
0002
0000
0000
0000
,
0000
0000
0003
0000
,
0010
0000
0000
0000
,
0010
0000
0000
0000
,
0002
0000
0000
0000
,
0000
0000
0000
0003
,
2000
0000
0000
0000
,
0000
0000
0000
3000
;

//---------------dance-single - Chewi----------------
#NOTES:
     dance-single:
     Chewi:
     Easy:
     4:
     0.171,0.278,0.038,0.113,0.000:
0000
0000
0000
0000
,
0000
0000
0000
0000
,
0000
0000
0000
0000
,
0000
0000
0000
0000
,
0000
0000
0000
0000
,
0000
0000
0000
0000
,
1000
0000
0100
0000
,
0001
0000
0010
0000
,
0001
0000
0100
0000
,
1000
0000
0010
0000
,
0010
0100
0010
0100
,
0010
1000
0010
1000
,
0001
1000
0001
1000
,
0001
0010
0001
0010
,
0200
0000
0000
0000
,
0000
0000
0300
0000
,
0020
0000
0000
0000
,
0000
0000
0030
0000
,
0002
0000
0000
0000
,
0000
0000
0003
0000
,
2000
0000
0000
0000
,
0000
0000
3000
0000
,
1000
0000
0010
0000
,
0001
0000
0010
0000
,
1000
0000
0100
0000
,
0001
0000
0100
0000
,
1000
0100
0010
0000
,
0001
0100
0010
0000
,
1000
0001
1000
0000
,
0001
0100
1000
0010
,
0002
0000
0000
0000
,
0000
0000
0003
0000
,
2000
0000
0000
0000
,
0000
0000
3000
0000
,
0020
0000
0000
0000
,
0000
0000
0030
0000
,
0200
0000
0000
0000
,
0000
0000
0300
0000
,
0100
1000
0010
0000
,
0100
0000
0001
0000
,
0010
0000
1000
0000
,
0100
0000
0001
0000
,
0100
1000
0010
0000
,
0001
0000
0010
0000
,
0100
0000
1000
0000
,
0100
0000
0010
0000
,
0001
0000
1000
0000
,
1000
1000
1000
1000
,
0010
0000
0100
0000
,
0010
0010
0010
0010
,
1000
0000
0100
0000
,
0001
0001
0001
0001
,
0010
0000
1000
0000
,
0010
0010
0010
0010
,
0200
0000
0000
0000
,
0000
0000
0300
0000
,
1000
0000
0001
0000
,
1000
0001
1001
1001
,
0002
0000
0000
0000
,
0000
0000
0003
0000
,
0010
0000
0100
0000
,
0010
0100
0110
0110
,
0002
0000
0000
0000
,
0000
0000
0000
0003
,
2000
0000
0000
0000
,
0000
0000
0000
3000
;

//---------------dance-single - Chewi----------------
#NOTES:
     dance-single:
     Chewi:
     Medium:
     8:
     0.389,0.433,0.226,0.094,0.000:
0000
0000
0000
0000
,
0000
0000
0000
0000
,
0000
0000
0000
0000
,
0000
0000
0000
0000
,
0000
0000
0000
0000
,
0000
0000
0000
0000
,
2000
0010
0001
3100
,
0010
0100
0010
0100
,
0002
0100
0010
1003
,
0100
0010
0100
0010
,
1000
0100
0010
0001
,
1000
0100
0001
0100
,
0001
0100
0010
1000
,
0001
0010
1000
0010
,
0100
0010
0100
0000
0100
0000
0100
0000
,
0100
0001
0010
0100
0000
0000
0000
0000
,
0100
0010
0100
0000
0100
0000
0100
0000
,
0100
1000
0010
0100
0000
0000
0000
0000
,
0101
0010
1100
0010
,
1001
0100
1001
0100
,
0010
0010
0010
0000
0100
0100
0100
0000
,
0010
0001
0100
1000
,
0010
1000
0100
0000
0010
0000
0001
0000
,
0100
1000
0100
0001
,
0010
0001
0100
0000
1000
0000
0010
0000
,
0100
0001
0010
1000
,
0100
0010
0100
0000
1000
0000
0010
0000
,
0100
0001
0100
0010
,
1000
0100
0010
0000
0001
0000
0010
0000
,
0100
1000
0001
0100
,
1010
1000
1000
0001
,
0001
0000
1000
0001
0000
0000
0000
0000
,
0110
0010
0101
0100
,
0010
0000
0100
0010
0000
0000
0000
0000
,
0011
0010
0100
0100
,
0010
0000
0100
0010
0000
0000
0000
0000
,
1010
0100
0100
0100
,
0010
0000
0001
0010
0000
0000
0000
0000
,
0002
0010
0100
1003
,
2000
0010
0001
3100
,
0002
0100
0010
0103
,
0020
0001
0100
1030
,
2000
0100
0001
3010
,
0002
0010
1000
0103
,
0200
0000
0000
0000
0001
0000
0000
0000
0010
0000
0000
0000
0001
0300
0000
0000
,
0002
1000
0010
1003
,
1000
0100
1000
0000
0100
0000
0100
0000
,
0001
0100
0001
0000
0100
0000
0100
0000
,
0010
0000
0010
0000
1000
0010
1000
0000
,
0010
0000
0010
0000
0001
0010
0001
0000
,
0001
0011
1000
1100
,
0001
1001
0110
1001
,
1000
1010
0001
0011
,
1000
1001
0110
1001
,
0100
0000
0100
0000
0001
0100
0001
0000
,
0100
0000
0100
0000
1000
0100
1000
0000
,
0001
0000
0001
0000
1000
0001
0010
0000
,
0001
0000
0001
0000
0001
1000
0010
0000
,
1000
0010
0100
0101
,
0001
0100
0010
1010
,
1000
0000
0001
0000
1000
0001
0100
0000
,
0001
0000
1000
0000
0001
1000
0100
0000
,
0010
0010
0100
0100
,
0010
0100
0010
0000
0100
0010
0100
0000
,
0001
0001
1000
1000
,
1001
0000
0000
0110
0000
0000
1001
0000
;

//---------------dance-double - Chewi----------------
#NOTES:
     dance-double:
     Chewi:
     Easy:
     5:
     0.262,0.340,0.094,0.000,0.000: // measure 1
00000000
00000000
00000000
00000000
,  // measure 2
00000000
00000000
00000000
00000000
,  // measure 3
00000000
00000000
00000000
00000000
,  // measure 4
00000000
00000000
00000000
00000000
,  // measure 5
00000000
00000000
00000000
00000000
,  // measure 6
00000000
00000000
00000000
00000000
,  // measure 7
10000000
01000000
00010000
00000000
,  // measure 8
00010000
00100000
00001000
00000000
,  // measure 9
00010000
01000000
00100000
00000000
,  // measure 10
01000000
00100000
00001000
00000000
,  // measure 11
00001000
00000100
00000001
00000100
,  // measure 12
00000100
00000010
00001000
00000001
,  // measure 13
00001000
00000100
00000100
00010000
,  // measure 14
00001000
00000010
00000100
00001000
,  // measure 15
00010000
00001000
00010000
00000000
,  // measure 16
00010000
10000000
00000000
00000000
,  // measure 17
10000000
01000000
00100000
00000000
,  // measure 18
00010000
01000000
00000000
00000000
,  // measure 19
01000000
01000000
00100000
00000000
,  // measure 20
10000000
00010000
00000000
00000000
,  // measure 21
01000000
01000000
00100000
00000000
,  // measure 22
00010000
00010000
00000000
00000000
,  // measure 23
00000100
00010000
00001000
00000000
,  // measure 24
00000100
00010000
00001000
00000000
,  // measure 25
00000100
00000001
00001000
00000000
,  // measure 26
00000010
00000001
00001000
00000000
,  // measure 27
00000100
00001000
00010000
00000000
,  // measure 28
00010000
00001000
00000010
00000000
,  // measure 29
00010000
01000000
00010000
00000000
,  // measure 30
10000000
01000000
00010000
00000000
,  // measure 31
01000000
00100000
01000000
00000000
,  // measure 32
00010000
10000000
00000000
00000000
,  // measure 33
01000000
00100000
00010000
00000000
,  // measure 34
00100000
00001000
00000000
00000000
,  // measure 35
00010000
00010000
00001000
00000000
,  // measure 36
00001000
00001000
00001000
00000000
,  // measure 37
00000001
00000100
00001000
00000010
,  // measure 38
00000110
00001000
00001001
00000010
,  // measure 39
00000001
00000100
00001000
00000000
,  // measure 40
00000100
00001000
00000010
00000000
,  // measure 41
00010000
00001000
00010000
00000000
,  // measure 42
10000000
01000000
00010000
00000000
,  // measure 43
01000000
01000000
00100000
00000000
,  // measure 44
01000000
00100000
00010000
00000000
,  // measure 45
00100000
00010000
00001000
00000000
,  // measure 46
00000010
00001000
00000100
00000000
,  // measure 47
00000001
00001000
00000001
00000000
,  // measure 48
00001000
00000010
00000110
00000001
,  // measure 49
00000001
00001000
00000001
00000000
,  // measure 50
00010000
00001000
00001001
00000010
,  // measure 51
00000100
00001000
00000010
00000000
,  // measure 52
00010000
00001000
00100000
00000000
,  // measure 53
00001000
00010000
01000000
00000000
,  // measure 54
01000000
01000000
00100000
00000000
,  // measure 55
10010000
01000000
00100000
00000000
,  // measure 56
00010000
00100000
00001000
00000000
,  // measure 57
00011000
00001000
00000010
00000000
,  // measure 58
00000100
00000001
00000010
00000000
,  // measure 59
00001010
00001000
00000010
00000000
,  // measure 60
00000010
00001000
00000100
00000000
,  // measure 61
00001000
00100000
00010000
00000000
,  // measure 62
00100000
00010000
01000000
00000000
,  // measure 63
00011000
00010000
00001000
00001000
,  // measure 64
00010000
00100000
00010000
00001000
,  // measure 65
00010000
00000010
00001000
00011000
,  // measure 66
00011000
00000000
00000000
00001000
00000000
00000000
00010000
00000000
;

//---------------dance-double - Chewi----------------
#NOTES:
     dance-double:
     Chewi:
     Medium:
     8:
     0.360,0.371,0.169,0.019,0.000: // measure 1
00000000
00000000
00000000
00000000
,  // measure 2
00000000
00000000
00000000
00000000
,  // measure 3
00000000
00000000
00000000
00000000
,  // measure 4
00000000
00000000
00000000
00000000
,  // measure 5
00000000
00000000
00000000
00000000
,  // measure 6
00000000
00000000
00000000
00000000
,  // measure 7
20000000
01000000
00010000
30100000
,  // measure 8
00010000
00100000
00001000
00010000
,  // measure 9
00020000
01000000
00100000
10030000
,  // measure 10
01000000
00100000
00001000
00010000
,  // measure 11
00000100
00001100
00000001
00000101
,  // measure 12
00000100
00000010
00001000
00000001
,  // measure 13
00001000
00001100
00000100
00010100
,  // measure 14
00001000
00000010
00000100
00001000
,  // measure 15
00010000
00000000
00001000
00000000
00010000
00001000
00010000
00000000
,  // measure 16
00010000
00000000
10000000
01000000
00000000
00000000
00000000
00000000
,  // measure 17
10000000
00000000
01000000
00000000
00100000
00010000
00100000
00000000
,  // measure 18
00010000
00000000
01000000
00010000
00000000
00000000
00000000
00000000
,  // measure 19
01000000
01000000
00100000
00100000
,  // measure 20
10000000
00000000
00010000
00100000
00000000
00000000
00000000
00000000
,  // measure 21
01000000
01000000
00100000
00100000
,  // measure 22
00010000
00000000
00010000
00000100
00000000
00000000
00000000
00000000
,  // measure 23
00000100
00010000
00001000
00000010
,  // measure 24
00000100
00010000
00001000
00000010
,  // measure 25
00000100
00000001
00001000
00000100
,  // measure 26
00000010
00000001
00001000
00000010
,  // measure 27
00000100
00001000
00010000
01000000
,  // measure 28
00010000
00001000
00000010
00001000
,  // measure 29
00010000
01000000
00010000
00100000
,  // measure 30
10000000
01000000
00010000
00100000
,  // measure 31
01000000
00000000
00100000
00000000
01000000
00100000
01000000
00000000
,  // measure 32
00010000
00000000
10000000
00010000
00000000
00000000
00000000
00000000
,  // measure 33
01000000
00000000
00100000
00000000
00010000
00100000
00010000
00000000
,  // measure 34
00100000
00000000
00001000
00010000
00000000
00000000
00000000
00000000
,  // measure 35
00010000
00000000
00010000
00000000
00001000
00010000
00001000
00000000
,  // measure 36
00001000
00000000
00001000
00000000
00001000
00000100
00001000
00000000
,  // measure 37
00000001
00000100
00001000
00000010
,  // measure 38
00000110
00001000
00001001
00000010
,  // measure 39
00000001
00000010
00000100
00000000
00001000
00000000
00000010
00000000
,  // measure 40
00000100
00001000
00000010
00001000
,  // measure 41
00010000
00001000
00010000
01000000
,  // measure 42
10000000
01000000
00010000
00100000
,  // measure 43
01000000
00100000
01000000
00000000
00100000
00000000
00010000
00000000
,  // measure 44
01000000
00100000
00010000
01000000
,  // measure 45
00100000
00010000
00001000
00000100
,  // measure 46
00000010
00001000
00000100
00000010
,  // measure 47
00000001
00000000
00001000
00000000
00000001
00000100
00000010
00000000
,  // measure 48
00001000
00000010
00001010
00000101
,  // measure 49
00000001
00000000
00001000
00000000
00000001
00001000
00000100
00000000
,  // measure 50
00010000
00001000
00001100
00001010
,  // measure 51
00000100
00000000
00001000
00000000
00000010
00001000
00000100
00000000
,  // measure 52
00010000
00000000
00001000
00000000
00100000
00001000
00010000
00000000
,  // measure 53
00001000
00000000
00010000
00000000
01000000
00010000
00100000
00000000
,  // measure 54
01000000
01000000
00100000
00100000
,  // measure 55
10010000
01000000
00100000
01000000
,  // measure 56
00010000
00100000
00001000
00010000
,  // measure 57
00010100
00001000
00000010
00001000
,  // measure 58
00000100
00000001
00000010
00001000
,  // measure 59
00001100
00001000
00000010
00000100
,  // measure 60
00000010
00001000
00000100
00010000
,  // measure 61
00001000
00100000
00010000
01000000
,  // measure 62
00100000
00010000
01000000
00010000
,  // measure 63
00011000
00000000
00010000
00000000
00001000
00010000
00001000
00000000
,  // measure 64
00010000
00100000
00010000
00001000
,  // measure 65
00010000
00001000
00000010
00000000
00001000
00000000
00011000
00000000
,  // measure 66
00011000
00000000
00000000
00101000
00000000
00000000
00110000
00000000
;

//---------------dance-double - Chewi----------------
#NOTES:
     dance-double:
     Chewi:
     Hard:
     11:
     0.524,0.526,0.085,0.000,0.089:
00000000
00000000
00000000
00000000
,
00000000
00000000
00000000
00000000
,
00000000
00000000
00000000
00000000
,
00000000
00000000
00000000
00000000
,
00000000
00000000
00000000
00000000
,
00000000
00000000
00000000
00000000
,
10000000
01000000
00010000
00000000
00100000
00000000
01000000
00000000
,
00100000
00010000
00001000
00000000
00000100
00000000
00000001
00000000
,
00000001
00000010
00001000
00000000
00000010
00000000
00000100
00000000
,
00000001
00000100
00001000
00000000
00000010
00000000
00001000
00000000
,
00000100
00010000
00001000
00000000
00100000
00000000
00010000
00000000
,
00010000
01000000
10000000
00000000
00100000
00000000
10000000
00000000
,
10000000
01000000
00010000
00000000
00100000
00000000
01000000
00000000
,
01000000
00100000
00010000
00000000
00010000
01000000
00100000
00000000
,
01000000
00010000
01000000
00010000
00100000
00010000
00100000
00010000
,
00100000
00001000
00010000
00000100
00000000
00000000
00000000
00000000
,
00000100
00010000
00001000
00000010
00000100
00001000
00000010
00000001
,
00000100
00001000
00000001
00001000
00000000
00000000
00000000
00000000
,
00000001
00000000
00000000
00000100
00000000
00000000
00000010
00000000
00001000
00000000
00000000
00000001
00000000
00000000
00000010
00000000
,
00000100
00000000
00000000
00001000
00000000
00000000
00000010
00000000
00001000
00000000
00000000
00000100
00000000
00000000
00010000
00000000
,
00001000
00000000
00000000
00100000
00000000
00000000
00010000
00000000
01000000
00000000
00000000
00010000
00000000
00000000
00100000
00000000
,
01000000
00000000
00000000
10000000
00000000
00000000
00100000
00000000
01000000
00000000
01000000
00000000
00100000
00000000
00100000
00000000
,
10000000
01000000
00100000
00010000
10000000
01000000
00100000
00010000
,
01000000
01000000
00100000
00100000
10000000
00010000
10000000
00000000
,
00010000
00100000
01000000
10000000
00010000
00100000
01000000
10000000
,
00010000
00010000
10000000
10000000
00100000
00100000
00100000
00000000
,
01000000
00010000
00100000
00001000
00010000
00000100
00001000
00000001
,
00000100
00000100
00000010
00000010
00001000
00000001
00000010
00000000
,
00000001
00000001
00000010
00000010
00000100
00001000
00000010
00000100
,
00000001
00000100
00000010
00001000
00000100
00010000
00001000
00100000
,
00010000
00100000
01000000
10000000
00100000
01000000
00010000
01000000
,
00100000
00100000
01000000
01000000
00000000
00000000
00000000
00000000
,
10000000
01000000
00100000
00010000
10000000
01000000
00100000
00010000
,
00100000
00001000
00010000
00000100
00000000
00000000
00000000
00000000
,
00000100
00000000
00000000
00001000
00000000
00000000
00000100
00000000
00001000
00000000
00000000
00000010
00000000
00000000
00000100
00000000
,
00000001
00000000
00000000
00000010
00000000
00000000
00000100
00000000
00001000
00000000
00000000
00000010
00000000
00000000
00000100
00000000
,
00000010
00000000
00000000
00001000
00000000
00000000
00000100
00000000
00010000
00000000
00000000
00001000
00000000
00000000
00100000
00000000
,
00010000
00000000
00000000
01000000
00000000
00000000
00100000
00000000
00010000
00000000
00000000
01000000
00000000
00000000
10000000
00000000
,
00100000
10000000
01000000
10000000
00100000
00000000
11000000
00000000
,
00100000
00010000
01000000
10000000
,
00100000
00010000
01000000
00010000
00100000
00000000
00101000
00000000
,
00100000
00001000
00010000
00000000
00010000
00000100
00001000
00000000
,
00001000
00000001
00000100
00000001
00001000
00000000
00001100
00000000
,
00000001
00000001
00000001
00000000
00001000
00001000
00001000
00000000
,
00000010
00001000
00000001
00001000
00000010
00000000
00000110
00000000
,
00000010
00001000
00000100
00010000
00001000
00100000
00010000
01000000
,
10000000
00000000
00100000
00000000
10000000
01000000
00000000
00000000
00100000
00000000
00010000
00000000
10000000
01000000
00000000
00000000
,
00100000
00100000
00010000
10000000
01000000
01000000
10000000
10000000
,
00010000
00000000
01000000
00000000
00010000
01000000
00000000
00000000
00100000
00000000
10000000
00000000
00010000
00100000
00000000
00000000
,
01000000
00100000
00010000
00001000
00010000
00000100
00001000
00000001
,
00000100
00000010
00001000
00000001
00000010
00000100
00001000
00000001
,
00000100
00000010
00001000
00000001
00001000
00000100
00001000
00000100
,
00001000
00000001
00000100
00000010
00001000
00000100
00010000
00001000
,
00100000
00010000
01000000
10000000
00100000
10000000
01000000
00010000
,
00100000
00000000
01000000
00000000
00100000
00010000
01000000
00000000
,
00100000
00100000
10000000
10000000
00010000
00100000
01000000
10000000
,
00100000
01000000
00010000
00000000
00100000
00000000
00001000
00000000
,
00010000
00000100
00001000
00000001
00000100
00000100
00000010
00000010
,
00001000
00000001
00000010
00000000
00000100
00000000
00000011
00000000
,
00000001
00001000
00000010
00000000
00000100
00000000
00000011
00000000
,
00000001
00001000
00000010
00001000
00000001
00000010
00000001
00000010
,
00000100
00001000
00000010
00000100
00000001
00001000
00000100
00010000
,
00001000
00000000
00010000
00000000
00001000
00010000
01000000
00000000
,
10000000
00000000
01000000
00000000
00010000
00100000
10000000
00000000
,
10000000
00000000
00100000
00000000
01000000
00010000
00100000
00000000
,
00110000
00000000
00000000
00101000
00000000
00000000
00011000
00000000
;
