#TITLE:DM STAR ~関西 energy style~;
#SUBTITLE:;
#ARTIST:NAOKI;
#TITLETRANSLIT:DM STAR ~KANSAI energy style~;
#SUBTITLETRANSLIT:;
#ARTISTTRANSLIT:;
#GENRE:;
#CREDIT:Chewi☆;
#MENUCOLOR:;
#METERTYPE:DDR X;
#BANNER:DM STAR ~KANSAI energy style~.png;
#BACKGROUND:DM STAR ~KANSAI energy style~-bg.png;
#LYRICSPATH:;
#CDTITLE:;
#MUSIC:DM STAR ~KANSAI energy style~.mp3;
#OFFSET:-1.923;
#SAMPLESTART:39.890;
#SAMPLELENGTH:15.000;
#SELECTABLE:YES;
#LISTSORT:;
#DISPLAYBPM:76.000:155.000;
#BPMS:0.000=155.000,228.000=77.500,244.000=155.000;
#STOPS:;
#BGCHANGES:;
#ATTACKS:;

//---------------dance-single - Chewi----------------
#NOTES:
     dance-single:
     Chewi:
     Hard:
     10:
     0.469,0.576,0.146,0.129,0.000: // measure 1
0000
0000
0000
0000
,  // measure 2
0000
0000
0000
0000
,  // measure 3
0000
0000
0000
0000
,  // measure 4
0000
0000
0000
0000
,  // measure 5
2000
0000
0000
0000
,  // measure 6
3020
0000
0000
0000
,  // measure 7
0230
0000
0000
0000
,  // measure 8
0302
0000
0000
0000
,  // measure 9
1003
0001
0100
0010
1000
0001
1000
0000
,  // measure 10
0001
0010
0100
1100
,  // measure 11
1000
0100
0001
0000
0001
0100
1000
0000
,  // measure 12
1000
0010
0100
0101
,  // measure 13
0001
0100
0010
0000
0010
1000
0100
0000
,  // measure 14
1000
0100
0010
0011
,  // measure 15
0001
0010
0100
0000
1000
0010
0100
0000
,  // measure 16
0001
0100
0010
1010
,  // measure 17
1000
0100
0010
0000
0001
0100
0010
0000
,  // measure 18
2000
0100
0010
3100
,  // measure 19
0001
0010
0100
1000
0001
0010
0100
1000
,  // measure 20
0002
0100
0010
0103
,  // measure 21
1000
0010
0100
0001
1000
0010
0100
0001
,  // measure 22
2000
0100
0010
3100
,  // measure 23
0010
0100
0001
1000
0100
0010
0001
1000
,  // measure 24
0020
0100
1000
0130
,  // measure 25
1000
0010
0100
0001
1000
0000
0000
0000
,  // measure 26
0001
0010
0001
0000
0010
0100
1000
0010
,  // measure 27
0100
0001
0100
0000
0100
0010
0100
0000
,  // measure 28
0010
1000
0010
0000
1000
0100
0010
0001
,  // measure 29
0010
0100
0010
0000
0001
0010
0001
0000
,  // measure 30
0001
0100
0001
0000
0001
0100
0010
1000
,  // measure 31
0001
1000
0010
0000
1000
0100
1000
0000
,  // measure 32
0100
1000
0010
0000
1000
0010
1000
0010
,  // measure 33
0100
0001
0010
0000
0100
1000
0010
1000
,  // measure 34
0002
1000
0100
0013
,  // measure 35
2000
0100
0001
3010
,  // measure 36
0020
0100
0001
0130
,  // measure 37
2000
0010
0001
3001
,  // measure 38
0001
1000
0010
0000
0100
0100
0100
0000
,  // measure 39
0010
1000
0001
0000
0100
0100
0100
0000
,  // measure 40
1000
0100
0010
0000
0001
0100
0010
0000
,  // measure 41
1000
0001
0100
0010
1000
0001
0010
0100
,  // measure 42
1000
0010
1000
0000
0100
0000
0110
0000
,  // measure 43
0010
0001
0100
1000
,  // measure 44
0010
0100
0010
0000
1000
0000
1010
0000
,  // measure 45
1000
0100
0001
0010
,  // measure 46
0001
0010
0100
0000
1000
0000
1100
0000
,  // measure 47
0001
0100
0010
1000
,  // measure 48
0001
1000
0010
0000
0100
0000
0110
0000
,  // measure 49
1000
0100
0010
1000
,  // measure 50
0100
1000
0100
0000
0100
0001
0100
0000
,  // measure 51
0100
1000
0100
0001
0100
1000
0100
0001
,  // measure 52
0010
1000
0010
0000
0010
0001
0010
0000
,  // measure 53
0010
1000
0010
0001
0010
1000
0010
0001
,  // measure 54
0010
1000
0100
0000
0010
0001
0100
0000
,  // measure 55
0010
0100
0010
0100
0001
1000
0001
1000
,  // measure 56
0100
1000
0010
0000
0100
0001
0010
0000
,  // measure 57
0100
0010
0100
0010
0001
0000
1000
0000
,  // measure 58
1010
0000
0100
0000
0001
0100
0010
1000
,  // measure 59
0100
0000
1100
0000
1000
0100
0010
0001
,  // measure 60
1000
0000
1010
0000
1000
0010
0100
0001
,  // measure 61
1000
1000
0001
0001
0002
0023
0230
2300
,  // measure 62
3010
0100
0001
0000
0100
0010
1000
0001
,  // measure 63
1000
1010
0000
0101
0000
1001
0000
0011
,  // measure 64
0100
1000
0010
0000
1000
0100
0010
0001
,  // measure 65
0100
0010
0100
0000
0001
0010
0100
1000
,  // measure 66
0010
1000
0100
0000
0010
0001
0100
0010
,  // measure 67
0100
0001
0010
0000
0100
1000
0010
1000
,  // measure 68
0100
0010
0001
0000
1000
0100
0010
0001
,  // measure 69
0000
1000
0001
0000
1001
0000
0100
0010
,  // measure 70
0000
0010
0100
0000
0110
0000
0010
1000
,  // measure 71
0000
1000
0010
0000
0101
0000
0001
0010
,  // measure 72
0100
1000
0010
0000
0000
0000
0000
0000
;

//---------------dance-single - Chewi----------------
#NOTES:
     dance-single:
     Chewi:
     Medium:
     6:
     0.327,0.432,0.146,0.162,0.000: // measure 1
0000
0000
0000
0000
,  // measure 2
0000
0000
0000
0000
,  // measure 3
0000
0000
0000
0000
,  // measure 4
0000
0000
0000
0000
,  // measure 5
2000
0000
0000
0000
,  // measure 6
3200
0000
0000
0000
,  // measure 7
0320
0000
0000
0000
,  // measure 8
0032
0000
0000
0000
,  // measure 9
1003
0001
0100
0110
,  // measure 10
0010
0000
1000
0000
,  // measure 11
0100
0001
0010
1000
,  // measure 12
0010
0000
0001
0000
,  // measure 13
0100
1000
0010
0001
,  // measure 14
1000
0000
0001
0000
,  // measure 15
0100
0010
1000
0001
,  // measure 16
1000
0000
0001
0000
,  // measure 17
0001
0010
0100
1000
,  // measure 18
0100
0100
0100
0000
0100
0000
0100
0000
,  // measure 19
0010
0001
0100
0010
,  // measure 20
0100
0100
0100
0000
0100
0000
0100
0000
,  // measure 21
0010
1000
0100
0010
,  // measure 22
1000
1000
1000
0000
1000
0000
1000
0000
,  // measure 23
0001
0010
0100
1000
,  // measure 24
0001
0001
0001
0000
0001
0000
0001
0000
,  // measure 25
1010
0101
1001
0000
,  // measure 26
0001
0000
0001
0000
0001
0100
1000
0000
,  // measure 27
0010
0010
1000
1000
,  // measure 28
1000
0000
1000
0000
1000
0100
0001
0000
,  // measure 29
0001
0001
0010
0010
,  // measure 30
0100
0000
0100
0000
0010
0100
0010
0000
,  // measure 31
0010
0001
0100
1000
,  // measure 32
0010
0000
0010
0000
0100
0010
0100
0000
,  // measure 33
1000
0100
0001
0010
,  // measure 34
0012
0000
0000
0000
,  // measure 35
2003
0000
0000
0000
,  // measure 36
3020
0000
0000
0000
,  // measure 37
0230
0000
0000
0000
,  // measure 38
0301
0000
0001
0000
0001
1000
0001
0000
,  // measure 39
1000
0000
1000
0000
0001
1000
0001
0000
,  // measure 40
0100
1000
0010
0001
,  // measure 41
0001
0010
1000
0100
,  // measure 42
0001
0101
1000
1100
,  // measure 43
0001
1000
0010
0100
,  // measure 44
0001
0011
1000
1010
,  // measure 45
0001
1000
0100
0010
,  // measure 46
0001
0101
1000
1100
,  // measure 47
0001
1000
0100
0010
,  // measure 48
0100
1100
0100
0101
,  // measure 49
0100
0100
0010
0010
,  // measure 50
2010
0000
0000
0000
,  // measure 51
3002
0000
0000
0000
,  // measure 52
0203
0000
0000
0000
,  // measure 53
0320
0000
0000
0000
,  // measure 54
1030
1000
0100
0010
,  // measure 55
0100
1000
0010
0001
,  // measure 56
0100
0001
0010
0001
,  // measure 57
0100
1000
0001
1000
,  // measure 58
1001
1000
1000
0000
0010
0000
0100
0000
,  // measure 59
0101
0001
0001
0000
0001
0000
0010
0000
,  // measure 60
0200
2300
3200
0302
,  // measure 61
0023
2030
3020
0230
,  // measure 62
0301
0100
0010
1000
,  // measure 63
0001
1000
0000
1000
0000
0001
0000
0001
,  // measure 64
0001
0010
0100
0010
,  // measure 65
0001
0101
1000
1100
,  // measure 66
0001
1000
0010
0100
,  // measure 67
0001
0100
0010
0000
1000
0100
0010
0000
,  // measure 68
0001
0000
0001
0000
1000
0000
1000
0010
,  // measure 69
0000
0010
1000
0000
1000
0000
1000
0001
,  // measure 70
0000
0001
1000
0000
0010
0000
1000
0100
,  // measure 71
0000
0100
1000
0000
1000
0000
0001
0010
,  // measure 72
0100
1000
0010
0000
0000
0000
0000
0000
;

//---------------dance-single - Chewi----------------
#NOTES:
     dance-single:
     Chewi:
     Easy:
     5:
     0.232,0.259,0.032,0.186,0.000: // measure 1
0000
0000
0000
0000
,  // measure 2
0000
0000
0000
0000
,  // measure 3
0000
0000
0000
0000
,  // measure 4
0000
0000
0000
0000
,  // measure 5
2000
0000
0000
3000
,  // measure 6
0200
0000
0000
0300
,  // measure 7
0002
0000
0000
0003
,  // measure 8
0200
0000
0000
0300
,  // measure 9
0010
0010
0010
0010
,  // measure 10
1000
0000
1000
0000
,  // measure 11
0001
1000
0001
0000
,  // measure 12
0001
0000
0001
0000
,  // measure 13
1000
0001
1000
0000
,  // measure 14
0010
0000
0010
0000
,  // measure 15
0010
0100
0010
0000
,  // measure 16
0100
0000
0100
0000
,  // measure 17
0100
0010
0100
0000
,  // measure 18
2000
0000
0000
3000
,  // measure 19
1000
0001
0010
0100
,  // measure 20
0200
0000
0000
0300
,  // measure 21
0100
0010
0001
1000
,  // measure 22
0020
0000
0000
0030
,  // measure 23
0010
0100
0001
1000
,  // measure 24
0002
0003
2000
3000
,  // measure 25
0010
0100
0110
0000
,  // measure 26
2000
0000
0000
3000
,  // measure 27
0100
0010
0100
1000
,  // measure 28
0020
0000
0000
0030
,  // measure 29
0010
0100
0001
0010
,  // measure 30
0002
0000
0000
0003
,  // measure 31
0001
1000
0010
0100
,  // measure 32
0020
0000
0000
0030
,  // measure 33
0100
0010
1000
0001
,  // measure 34
1002
0000
0000
0000
,  // measure 35
0000
0000
0000
1003
,  // measure 36
2000
0000
0000
0000
,  // measure 37
0000
0000
0000
3001
,  // measure 38
0010
0010
0010
0010
,  // measure 39
0100
0100
0100
0100
,  // measure 40
0001
0100
1000
0100
,  // measure 41
0001
0010
1000
0010
,  // measure 42
0100
0001
0100
0000
,  // measure 43
0001
0010
0001
0000
,  // measure 44
0010
1000
0010
0000
,  // measure 45
1000
0100
1000
0000
,  // measure 46
0100
0010
0100
0000
,  // measure 47
0001
1000
0001
0000
,  // measure 48
0100
0010
0100
0000
,  // measure 49
1000
0001
1000
0000
,  // measure 50
2000
0000
0000
3000
,  // measure 51
0001
1000
0010
0100
,  // measure 52
0020
0000
0000
0030
,  // measure 53
0100
0010
1000
0001
,  // measure 54
0002
0000
0000
0003
,  // measure 55
0010
0100
1000
0010
,  // measure 56
2000
0000
0000
3000
,  // measure 57
0001
1000
1001
0000
,  // measure 58
0200
0000
0000
0300
,  // measure 59
2000
0000
0000
3000
,  // measure 60
0020
0000
0000
0030
,  // measure 61
0002
0000
0000
0003
,  // measure 62
1000
1000
1000
1000
,  // measure 63
0001
0001
0001
0001
,  // measure 64
1000
0001
1000
0001
,  // measure 65
0100
0010
0100
0010
,  // measure 66
0100
0100
0100
0100
,  // measure 67
0010
0010
0010
0010
,  // measure 68
0100
0010
0100
0010
,  // measure 69
1000
0010
0001
0000
,  // measure 70
0001
0100
1000
0000
,  // measure 71
1000
0100
0010
0000
,  // measure 72
0001
1001
0000
0000
;

//---------------dance-single - Chewi----------------
#NOTES:
     dance-single:
     Chewi:
     Beginner:
     1:
     0.077,0.086,0.016,0.000,0.000: // measure 1
0000
0000
0000
0000
,  // measure 2
0000
0000
0000
0000
,  // measure 3
0000
0000
0000
0000
,  // measure 4
0000
0000
0000
0000
,  // measure 5
1000
0000
0000
0000
,  // measure 6
0100
0000
0000
0000
,  // measure 7
0001
0000
0000
0000
,  // measure 8
0100
0000
0000
0000
,  // measure 9
0010
0000
0000
0000
,  // measure 10
1000
0000
0000
0000
,  // measure 11
0001
0000
0000
0000
,  // measure 12
0001
0000
0000
0000
,  // measure 13
1000
0000
0000
0000
,  // measure 14
0010
0000
0000
0000
,  // measure 15
0010
0000
0000
0000
,  // measure 16
0100
0000
0000
0000
,  // measure 17
0100
0000
0000
0000
,  // measure 18
1000
0000
0000
0000
,  // measure 19
1000
0000
0000
0000
,  // measure 20
0100
0000
0000
0000
,  // measure 21
0100
0000
0000
0000
,  // measure 22
0010
0000
0000
0000
,  // measure 23
0010
0000
0000
0000
,  // measure 24
0001
0000
0000
0000
,  // measure 25
0010
0000
0000
0000
,  // measure 26
1000
0000
0000
0000
,  // measure 27
0100
0000
0000
0000
,  // measure 28
0010
0000
0000
0000
,  // measure 29
0010
0000
0000
0000
,  // measure 30
0001
0000
0000
0000
,  // measure 31
0001
0000
0000
0000
,  // measure 32
0010
0000
0000
0000
,  // measure 33
0100
0000
0000
0000
,  // measure 34
1001
0000
0000
0000
,  // measure 35
0000
0000
0000
0000
,  // measure 36
1001
0000
0000
0000
,  // measure 37
0000
0000
0000
0000
,  // measure 38
0010
0000
0000
0000
,  // measure 39
0100
0000
0000
0000
,  // measure 40
0001
0000
0000
0000
,  // measure 41
0001
0000
0000
0000
,  // measure 42
0100
0000
0000
0000
,  // measure 43
0001
0000
0000
0000
,  // measure 44
0010
0000
0000
0000
,  // measure 45
1000
0000
0000
0000
,  // measure 46
0100
0000
0000
0000
,  // measure 47
0001
0000
0000
0000
,  // measure 48
0100
0000
0000
0000
,  // measure 49
1000
0000
0000
0000
,  // measure 50
1000
0000
0000
0000
,  // measure 51
0001
0000
0000
0000
,  // measure 52
0010
0000
0000
0000
,  // measure 53
0100
0000
0000
0000
,  // measure 54
0001
0000
0000
0000
,  // measure 55
0010
0000
0000
0000
,  // measure 56
1000
0000
0000
0000
,  // measure 57
0001
0000
0000
0000
,  // measure 58
0100
0000
0000
0000
,  // measure 59
0000
0000
0000
0000
,  // measure 60
0010
0000
0000
0000
,  // measure 61
0000
0000
0000
0000
,  // measure 62
1000
0000
0000
0000
,  // measure 63
0001
0000
0000
0000
,  // measure 64
1000
0000
0000
0000
,  // measure 65
0100
0000
0000
0000
,  // measure 66
0100
0000
0000
0000
,  // measure 67
0010
0000
0000
0000
,  // measure 68
0100
0000
0000
0000
,  // measure 69
1000
0000
0000
0000
,  // measure 70
0001
0000
0000
0000
,  // measure 71
1000
0000
0000
0000
,  // measure 72
0001
0001
0000
0000
;
