#TITLE:DJ Got Us Fallin' In Love;
#SUBTITLE:;
#ARTIST:Usher feat. Pitbull;
#TITLETRANSLIT:;
#SUBTITLETRANSLIT:;
#ARTISTTRANSLIT:;
#GENRE:;
#CREDIT:yamamoto_;
#MENUCOLOR:;
#METERTYPE:DDR X;
#BANNER:DJ Got Us Fallin' In Love.png;
#BACKGROUND:DJ Got Us Fallin' In Love-bg.png;
#LYRICSPATH:;
#CDTITLE:;
#MUSIC:DJ Got Us Fallin' In Love.mp3;
#OFFSET:-0.793;
#SAMPLESTART:39.542;
#SAMPLELENGTH:15.000;
#SELECTABLE:YES;
#LISTSORT:;
#DISPLAYBPM:120.000;
#BPMS:0.000=120.000;
#STOPS:;
#BGCHANGES:;
#ATTACKS:;

//---------------dance-single - yamamoto_----------------
#NOTES:
     dance-single:
     yamamoto_:
     Hard:
     10:
     0.384,0.353,0.136,0.010,0.029: // measure 1
0000
0000
0000
0000
,  // measure 2
0000
0000
0000
0000
,  // measure 3
0000
0000
0000
0000
,  // measure 4
0000
0000
0000
0000
,  // measure 5
1000
0010
1000
0000
1000
0100
1000
0000
,  // measure 6
1000
0001
0100
0000
0010
0000
0110
0000
,  // measure 7
0101
0000
1001
0000
0101
0000
0000
1100
,  // measure 8
0000
1000
0100
0000
1100
0000
0000
0000
,  // measure 9
0001
1000
0001
0000
1000
0001
1000
0000
,  // measure 10
0010
1000
0010
0000
1000
0010
1000
0000
,  // measure 11
1010
0000
1001
0000
0101
0000
0000
0101
,  // measure 12
0000
0100
0100
0000
0010
0000
0000
0000
,  // measure 13
1000
0001
0100
0000
0001
1000
0100
0000
,  // measure 14
1000
0100
0010
0000
0001
0010
0100
0000
,  // measure 15
1000
0010
1000
0000
0001
0100
0001
0000
,  // measure 16
0100
0010
0100
0000
0001
0100
0001
0000
,  // measure 17
0010
0001
0010
0000
0100
1000
0100
0000
,  // measure 18
1000
0100
1000
0000
0010
1000
0100
0000
,  // measure 19
1100
0000
0101
0000
1100
0000
0000
1001
,  // measure 20
0000
1000
0001
0000
1000
0010
0100
0001
,  // measure 21
0100
0100
0100
0000
0010
0010
0010
0000
,  // measure 22
1000
0100
0010
0001
1000
0100
0010
0001
,  // measure 23
0100
0001
0010
0000
0100
1000
0010
0000
,  // measure 24
1000
0001
0100
0000
0001
1000
0010
0100
,  // measure 25
0010
1000
0100
0000
1000
0010
0100
0000
,  // measure 26
0001
0100
0001
0010
0001
0100
0010
1000
,  // measure 27
0001
1000
0100
0000
1000
0100
1000
0000
,  // measure 28
0010
1000
0100
0000
0010
0001
0100
0010
,  // measure 29
1000
0000
0000
0000
1000
0000
0000
0000
1000
0000
0000
0001
0000
0000
0010
0000
,  // measure 30
0100
0000
0000
0000
0100
0000
0000
0000
0100
0000
0000
0010
0000
0000
0001
0000
,  // measure 31
0100
0000
0000
0000
0010
0000
0000
0000
1000
0000
0000
1000
0000
0000
1000
0000
,  // measure 32
0001
0000
0000
1000
0100
0010
0001
0100
,  // measure 33
0010
1000
1000
0000
0100
0010
0001
0000
,  // measure 34
0001
0010
0100
1000
0010
1000
0100
1000
,  // measure 35
0010
1000
0010
0000
1000
0010
1000
0000
,  // measure 36
0010
0100
0001
0000
0100
0010
1000
0001
,  // measure 37
1000
0100
0010
0000
0001
0010
0100
0000
,  // measure 38
1000
0010
1000
0100
1000
0010
0100
0001
,  // measure 39
1000
0100
0001
0000
0010
1000
0100
0000
,  // measure 40
1000
0100
0010
0000
0001
0100
0010
1000
,  // measure 41
0001
0000
0000
0000
1000
0000
0000
0000
0001
0000
0000
1000
0000
0000
0010
0000
,  // measure 42
0100
0000
0000
0000
0001
0000
0000
0000
0100
0000
0000
0010
0000
0000
1000
0000
,  // measure 43
0001
0000
0000
0000
1000
0000
0000
0000
0100
0000
0000
0010
0000
0000
0001
0000
,  // measure 44
0010
0000
0000
0001
0010
0100
1000
0010
,  // measure 45
1000
0100
1000
0000
0010
0100
0001
0000
,  // measure 46
0010
0100
1000
0001
0100
0010
1000
0001
,  // measure 47
1000
0010
0100
0000
0001
0100
0010
0000
,  // measure 48
1000
0001
0010
0100
1000
0010
1000
0100
,  // measure 49
0020
0000
0030
0000
;

//---------------dance-single - yamamoto_----------------
#NOTES:
     dance-single:
     yamamoto_:
     Beginner:
     1:
     0.078,0.094,0.000,0.107,0.000: // measure 1
0000
0000
0000
0000
,  // measure 2
0000
0000
0000
0000
,  // measure 3
0000
0000
0000
0000
,  // measure 4
0000
0000
0000
0000
,  // measure 5
1000
0000
0000
0000
,  // measure 6
0100
0000
0000
0000
,  // measure 7
0001
0000
0000
0000
,  // measure 8
0010
0000
0000
0000
,  // measure 9
1000
0000
0000
0000
,  // measure 10
0001
0000
0000
0000
,  // measure 11
0010
0000
0000
0000
,  // measure 12
0100
0000
0000
0000
,  // measure 13
1000
0000
0000
0000
,  // measure 14
1000
0000
0000
0000
,  // measure 15
0001
0000
0000
0000
,  // measure 16
0100
0000
0000
0000
,  // measure 17
0010
0000
0000
0000
,  // measure 18
1000
0000
0000
0000
,  // measure 19
0001
0000
0000
0000
,  // measure 20
1000
0000
0000
0000
,  // measure 21
2000
0000
0000
3000
,  // measure 22
1000
0000
0000
0000
,  // measure 23
0002
0000
0000
0003
,  // measure 24
0001
0000
0000
0000
,  // measure 25
2000
0000
0000
3000
,  // measure 26
1000
0000
0000
0000
,  // measure 27
0020
0000
0000
0030
,  // measure 28
0010
0000
0000
0000
,  // measure 29
0010
0000
0000
0000
,  // measure 30
1000
0000
0000
0000
,  // measure 31
0001
0000
0000
0000
,  // measure 32
0001
0000
0000
0000
,  // measure 33
0200
0000
0000
0300
,  // measure 34
0100
0000
0000
0000
,  // measure 35
2000
0000
0000
3000
,  // measure 36
1000
0000
0000
0000
,  // measure 37
0020
0000
0000
0030
,  // measure 38
0010
0000
0000
0000
,  // measure 39
2000
0000
0000
3000
,  // measure 40
1000
0000
0000
0000
,  // measure 41
1000
0000
0000
0000
,  // measure 42
0001
0000
0000
0000
,  // measure 43
0010
0000
0000
0000
,  // measure 44
1000
0000
0000
0000
,  // measure 45
0200
0000
0000
0300
,  // measure 46
0100
0000
0000
0000
,  // measure 47
0002
0000
0000
0003
,  // measure 48
0001
0000
0000
0000
,  // measure 49
0200
0000
0300
0000
;

//---------------dance-single - yamamoto_----------------
#NOTES:
     dance-single:
     yamamoto_:
     Easy:
     4:
     0.166,0.165,0.000,0.107,0.000: // measure 1
0000
0000
0000
0000
,  // measure 2
0000
0000
0000
0000
,  // measure 3
0000
0000
0000
0000
,  // measure 4
0000
0000
0000
0000
,  // measure 5
1000
0100
1000
0000
,  // measure 6
0100
0001
0100
0000
,  // measure 7
0001
0010
0001
0000
,  // measure 8
0010
1000
0010
0000
,  // measure 9
1000
0001
1000
0000
,  // measure 10
0001
1000
0001
0000
,  // measure 11
0010
0100
0010
0000
,  // measure 12
0100
0010
0100
0000
,  // measure 13
0000
1000
0000
1000
,  // measure 14
0000
0001
0000
0001
,  // measure 15
0000
0100
0000
0100
,  // measure 16
0000
0010
0000
0010
,  // measure 17
0000
1000
0000
1000
,  // measure 18
0000
0001
0000
0001
,  // measure 19
0000
1000
0000
1000
,  // measure 20
0000
0000
0000
0000
,  // measure 21
2000
0000
0100
0000
,  // measure 22
3100
0010
0001
0000
,  // measure 23
0002
0000
0100
0000
,  // measure 24
0103
0010
1000
0000
,  // measure 25
2000
0000
0001
0000
,  // measure 26
3001
1000
0001
0000
,  // measure 27
0020
0000
0100
0000
,  // measure 28
0130
0010
0100
0000
,  // measure 29
0010
0000
0100
0000
,  // measure 30
1000
0100
1000
0000
,  // measure 31
0001
0000
0100
0000
,  // measure 32
0001
0100
0001
0000
,  // measure 33
0200
0000
0010
0000
,  // measure 34
0310
1000
0010
0000
,  // measure 35
2000
0000
0001
0000
,  // measure 36
3001
1000
0001
0000
,  // measure 37
0020
0000
0100
0000
,  // measure 38
0130
0010
0100
0000
,  // measure 39
2000
0000
0100
0000
,  // measure 40
3100
1000
0001
0000
,  // measure 41
1000
1000
1000
0000
,  // measure 42
0001
0000
0100
0000
,  // measure 43
0010
0010
0010
0000
,  // measure 44
1000
0000
1000
0000
,  // measure 45
0200
0000
0010
0000
,  // measure 46
0310
0010
0010
0000
,  // measure 47
0002
0000
1000
0000
,  // measure 48
1000
1000
1003
0000
,  // measure 49
0200
0000
0300
0000
;

//---------------dance-single - yamamoto_----------------
#NOTES:
     dance-single:
     yamamoto_:
     Medium:
     7:
     0.295,0.306,0.233,0.039,0.029: // measure 1
0000
0000
0000
0000
,  // measure 2
0000
0000
0000
0000
,  // measure 3
0000
0000
0000
0000
,  // measure 4
0000
0000
0000
0000
,  // measure 5
1000
0010
1000
0100
,  // measure 6
1000
0010
0001
0010
,  // measure 7
0011
0101
0011
0000
,  // measure 8
1100
1010
1100
0000
,  // measure 9
1000
0100
0001
0100
,  // measure 10
1000
0010
0001
0010
,  // measure 11
0110
0110
0110
0000
,  // measure 12
1001
1001
1001
0000
,  // measure 13
2000
0000
3100
0000
1000
0100
1000
0000
,  // measure 14
0001
0100
0010
1000
,  // measure 15
0002
0000
0013
0000
0010
0001
0010
0000
,  // measure 16
0001
0010
0100
1000
,  // measure 17
0002
0000
1003
0000
1000
0001
1000
0000
,  // measure 18
1000
0010
0100
0001
,  // measure 19
0101
1100
0101
0000
,  // measure 20
1001
1001
1001
0000
,  // measure 21
1000
0100
1000
0000
0100
0000
1000
0000
,  // measure 22
0001
0100
0010
1000
,  // measure 23
0001
1001
1000
1001
,  // measure 24
0010
0100
0010
0100
,  // measure 25
0010
0001
0100
0000
0010
0000
1000
0000
,  // measure 26
0100
1000
0010
0100
,  // measure 27
0001
0100
0010
1000
,  // measure 28
0001
1001
0100
0110
,  // measure 29
0010
0000
0000
0000
0010
0000
0000
0000
0010
0000
0000
0010
0000
0000
0010
0000
,  // measure 30
0001
0000
0000
0000
0001
0000
0000
0000
0001
0000
0000
0001
0000
0000
0001
0000
,  // measure 31
1000
0000
0000
0000
1000
0000
0000
0000
1000
0000
0000
1000
0000
0000
1000
0000
,  // measure 32
0001
0000
1000
0010
,  // measure 33
0100
0001
0010
1000
,  // measure 34
0100
1000
0010
0000
0100
0000
0001
0000
,  // measure 35
0100
0010
1000
0001
,  // measure 36
1000
0100
0010
0000
0001
0000
0010
0000
,  // measure 37
0001
0010
0001
0000
0010
0000
0001
0000
,  // measure 38
1000
0010
0100
0001
,  // measure 39
1000
1001
0001
1001
,  // measure 40
0100
0010
0100
0010
,  // measure 41
0100
0000
0000
0000
0100
0000
0000
0000
0100
0000
0000
0100
0000
0000
0100
0000
,  // measure 42
1000
0000
0000
0000
1000
0000
0000
0000
1000
0000
0000
1000
0000
0000
1000
0000
,  // measure 43
0001
0000
0000
0000
0001
0000
0000
0000
0001
0000
0000
0001
0000
0000
0001
0000
,  // measure 44
1000
0000
0001
0100
,  // measure 45
0010
1000
0100
0001
,  // measure 46
0010
0001
0100
0000
0010
0000
1000
0000
,  // measure 47
0010
0100
0001
1000
,  // measure 48
0001
0010
0100
0000
1000
0000
0100
0000
,  // measure 49
0020
0000
0030
0000
;
