#TITLE:DIGITAL ABYSS (Club Mix);
#SUBTITLE:;
#ARTIST:Alex Kidd (USA);
#TITLETRANSLIT:;
#SUBTITLETRANSLIT:;
#ARTISTTRANSLIT:;
#GENRE:;
#CREDIT:Chewi☆;
#MENUCOLOR:;
#METERTYPE:DDR X;
#BANNER:DIGITAL ABYSS (Club Mix).png;
#BACKGROUND:DIGITAL ABYSS (Club Mix)-bg.png;
#LYRICSPATH:;
#CDTITLE:;
#MUSIC:DIGITAL ABYSS (Club Mix).mp3;
#OFFSET:-0.023;
#SAMPLESTART:45.045;
#SAMPLELENGTH:15.000;
#SELECTABLE:YES;
#LISTSORT:;
#DISPLAYBPM:128.000;
#BPMS:0.000=64.005,16.000=128.010;
#STOPS:;
#BGCHANGES:;
#ATTACKS:;

//---------------dance-single - Chewi----------------
#NOTES:
     dance-single:
     Chewi:
     Challenge:
     11:
     0.449,0.418,0.196,0.268,0.278:
0000
0000
0000
0000
,
0000
0000
0000
0000
,
0001
0100
1000
0000
1000
0100
0001
0010
,
1000
0010
0001
0000
0001
0010
1000
0100
,
0002
0000
0000
0000
2003
0000
0000
0000
3020
0000
0000
0100
0030
0000
0000
0010
,
0000
1000
0010
1000
0010
0000
0000
0010
0000
0000
0100
0000
0001
0000
0010
0000
,
0200
0000
0000
0000
2300
0000
0000
0000
3200
0000
0000
0001
0300
0000
0000
0100
,
0000
1000
0100
1000
0100
0000
0000
1000
0000
0000
0010
0000
0100
0000
0001
0000
,
0200
0000
0000
0000
0320
0000
0000
0000
2030
0000
0000
0001
3000
0000
0000
0001
,
0000
0010
0100
1000
0010
0000
0000
0100
0000
0000
0100
0000
0110
0000
0010
0000
,
0100
0000
0001
0000
1000
0000
0100
0000
1001
0000
0000
0110
0000
0000
0000
0010
,
0000
0001
0010
0100
1000
0000
0000
0010
0000
0000
0100
0000
0001
0000
0100
0000
,
2000
0000
0000
0000
3002
0000
0000
0000
0203
0000
0000
0010
0300
0000
0000
0100
,
0000
0001
0100
0001
0100
0000
0000
0100
0000
0000
0010
0000
1000
0000
0100
0000
,
0020
0000
0000
0000
0032
0000
0000
0000
0023
0000
0000
1000
0030
0000
0000
0010
,
0000
0001
0010
0001
0010
0000
0000
0001
0000
0000
0100
0000
0010
0000
1000
0000
,
0020
0000
0000
0000
0230
0000
0000
0000
0302
0000
0000
1000
0003
0000
0000
1000
,
0000
0100
0010
0001
0100
0000
0000
0010
0000
0000
0010
0000
0110
0000
0100
0000
,
0010
0000
1000
0000
0001
0000
0010
0000
1001
0000
0000
0110
0000
0000
0000
0100
,
0000
1000
0100
0010
0001
0000
0000
0100
0000
0000
0010
0000
1000
0000
0010
0000
,
0001
1100
1000
0101
,
0100
0110
1001
0110
,
1000
0101
0001
1100
,
1000
0110
1001
0110
,
0010
0001
0100
0000
0010
1000
0100
0000
,
0010
0001
0100
0000
0010
1000
0100
0000
,
0100
0010
0100
0000
0010
0100
0010
0000
,
0001
1000
0001
0000
1000
0001
1000
0000
,
0020
0001
1000
0001
,
1000
1000
0001
1030
,
0200
0001
1000
0001
,
1000
0001
1000
1300
,
0101
0010
0100
1000
0010
0100
0001
0000
,
1010
0100
0001
0010
0100
1000
0001
0000
,
1000
0001
0100
0010
1000
0001
0010
0000
,
0010
0100
1000
0001
0100
0010
1000
0001
,
2000
0000
0010
0000
0001
0100
0010
0001
,
3020
0000
0100
0000
1000
0100
1000
1000
,
2030
0000
0100
0000
0001
0010
0001
0010
,
3002
0000
0100
0000
0010
1000
0010
1000
,
1003
0000
0000
1000
0001
0000
0000
0001
1000
0000
0000
1000
0001
0000
0000
0001
,
0100
0000
0000
0100
0010
0000
0000
0010
0100
0000
0000
0100
0010
0000
0000
0010
,
1000
0000
0000
1000
0010
0000
0000
0010
1000
0000
0000
1000
0010
0000
0000
0010
,
0000
0000
0000
1000
0000
0000
1000
0000
0000
0000
0000
0001
0000
0000
0001
0000
,
0220
0000
0000
0000
,
0330
0000
0000
0000
;

//---------------dance-double - Chewi----------------
#NOTES:
     dance-double:
     Chewi:
     Challenge:
     10:
     0.404,0.418,0.093,0.361,0.005:
00000000
00000000
00000000
00000000
,
00000000
00000000
00000000
00000000
,
00010000
00001000
00010000
00000000
00001000
00010000
00001000
00000000
,
00010000
00001000
00000010
00000001
00000100
00001000
00000100
00000001
,
00002000
00003020
00000230
00000301
,
00000010
00000001
00000010
00000000
00000010
00000100
00001000
00000010
,
00002000
00003200
00020300
00032000
,
00013000
00001000
00010000
00000000
00001000
00010000
01000000
10000000
,
02000000
00000000
00000000
00000000
23000000
00000000
00000000
00000000
00200000
30000000
00000000
00000000
02300000
00000000
00000000
00000000
,
03010000
01000000
00100000
00000000
00100000
10000000
00010000
00100000
,
01000000
00000000
01000000
00000000
00100000
00000000
00100000
00000000
00110000
00000000
00000000
01010000
00000000
00000000
00100000
00000000
,
00010000
01000000
01000000
00000000
00100000
00100000
01000000
01000000
,
00020000
00230000
00302000
00023000
,
00031000
00010000
00001000
00000000
00001000
00000010
00001000
00000001
,
00002000
00003002
00000203
00000320
,
00001030
00000001
00001000
00000000
00000001
00000100
00000010
00001000
,
00000200
00002300
00003200
00020300
,
00031000
00010000
00001000
00000000
00001000
00010000
01000000
10000000
,
01000000
01000000
00100000
01000000
00100000
00000000
00110000
00000000
,
00010000
01000000
10000000
00100000
00010000
00100000
10000000
00100000
,
21000000
00010000
01000000
00010000
,
00100000
00000000
00010000
00000000
00100000
00000000
30010000
00100000
,
21000000
00010000
00100000
00010000
,
01000000
00000000
00010000
00000000
00100000
00000000
30010000
00100000
,
00002000
00000000
00000000
00000000
00000000
00000000
00013000
00001000
,
00000020
00000000
00000000
00000000
00000000
00000000
00001030
00000001
,
00000020
00000000
00000000
00000000
,
00000031
00000010
00000100
00001000
00000001
00000100
00000010
00001000
,
00002010
00000100
00000001
00000010
,
00000001
00000001
00000010
00003001
,
00000102
00001000
00000010
00001000
,
00000100
00000000
00000010
00000000
00001000
00000000
00001003
00000100
,
00020000
00000000
00000000
00000000
00000000
00000000
00031000
00010000
,
02000000
00000000
00000000
00000000
00000000
00000000
13000000
00100000
,
00020000
00000000
00000000
00000000
,
00130000
01000000
10000000
00010000
01000000
00100000
10000000
00010000
,
00110000
00000000
01000000
00000000
00100000
10000000
01000000
00100000
,
00010000
00000000
01000000
00000000
00010000
00100000
00001000
00010000
,
00000100
00000000
00001000
00000000
00000010
00000100
00000001
00000010
,
00000100
00000000
00001000
00000000
00000001
00000100
00000010
00001000
,
00000100
00001000
00000100
00001000
00000100
00010000
00000100
00010000
,
00001000
00010000
00001000
00010000
00001000
00100000
00001000
00100000
,
00010000
00100000
00010000
00100000
00010000
01000000
00010000
01000000
,
10000000
01000000
10000000
01000000
00010000
01000000
00010000
01000000
,
02200000
00000000
00000000
00000000
,
03300000
00000000
00000000
00000000
;
