#VERSION:0.83;
#TITLE:DESTINY -piano ver.-;
#SUBTITLE:;
#ARTIST:NAOKI feat. PAULA TERRY;
#TITLETRANSLIT:;
#SUBTITLETRANSLIT:;
#ARTISTTRANSLIT:;
#GENRE:Pop;
#ORIGIN:;
#CREDIT:chewi;
#BANNER:DESTINY -piano ver.-.png;
#BACKGROUND:DESTINY -piano ver.--bg.png;
#PREVIEWVID:;
#JACKET:DESTINY -piano ver.--jacket.png;
#CDIMAGE:;
#DISCIMAGE:;
#LYRICSPATH:;
#CDTITLE:cdtitle.png;
#MUSIC:DESTINY -piano ver.-.ogg;
#OFFSET:-0.104000;
#SAMPLESTART:43.230999;
#SAMPLELENGTH:15.000000;
#SELECTABLE:YES;
#DISPLAYBPM:65.000000;
#BPMS:0.000=65.000;
#STOPS:;
#DELAYS:;
#WARPS:;
#TIMESIGNATURES:0.000=4=4;
#TICKCOUNTS:0.000=4;
#COMBOS:0.000=1;
#SPEEDS:0.000=1.000=0.000=0;
#SCROLLS:0.000=1.000;
#FAKES:;
#LABELS:0.000=Song Start;
#BGCHANGES:;
#KEYSOUNDS:;
#ATTACKS:
;

//---------------dance-single - ----------------
#NOTEDATA:;
#CHARTNAME:;
#STEPSTYPE:dance-single;
#DESCRIPTION:;
#CHARTSTYLE:;
#DIFFICULTY:Hard;
#METER:9;
#RADARVALUES:0.241435,0.292362,0.203711,0.000000,0.384787,224.000000,197.000000,27.000000,0.000000,0.000000,0.000000,0.000000,0.000000,0.000000,0.241435,0.292362,0.203711,0.000000,0.384787,224.000000,197.000000,27.000000,0.000000,0.000000,0.000000,0.000000,0.000000,0.000000;
#CREDIT:;
#DISPLAYBPM:65.000000;
#NOTES:
// measure 0
0000
0000
0000
0000
,  // measure 1
0000
0000
0000
0000
,  // measure 2
0000
0000
0000
0000
,  // measure 3
0000
0000
0000
0000
0000
0000
0000
0000
0000
0000
0000
0001
0000
0010
0100
0010
,  // measure 4
0100
0000
0000
1000
0000
0010
0100
0010
0100
0000
0000
0001
0000
0100
0010
1000
,  // measure 5
0001
0000
1000
0001
0000
0101
0000
1100
0000
0000
0000
0100
0000
0010
0001
0010
,  // measure 6
0001
0000
0000
0010
0000
0100
1000
0100
1000
0000
0000
0001
0000
1000
0010
0100
,  // measure 7
0101
1100
0000
0000
0000
0100
0100
0100
,  // measure 8
0100
0000
0000
0000
0000
0010
0001
1000
0010
0000
0000
0000
0000
1000
0010
1000
,  // measure 9
0000
0000
0010
0000
0100
0000
0001
0100
0000
1000
0000
0000
0000
0100
1000
0001
,  // measure 10
0010
0000
0000
0000
0000
0001
0010
0100
1000
0000
0000
0010
0000
0100
0000
0000
,  // measure 11
0000
0000
0001
0000
0001
0000
0000
0000
0000
0000
0000
1000
0100
0010
0001
0010
,  // measure 12
0100
0000
1000
0000
1000
0000
0001
0000
1000
0000
0001
0101
0000
1010
0000
1001
,  // measure 13
0000
0000
0000
0000
0000
0000
1000
0100
0010
0000
0100
1000
0000
0010
0000
1000
,  // measure 14
0000
0001
1001
0000
0000
0000
0000
0000
0000
0000
0000
1000
0000
0001
0010
0100
,  // measure 15
1000
0000
0001
0101
0000
1100
0000
1001
0000
0000
0000
0000
0000
0000
0000
0000
,  // measure 16
1000
0000
0000
0000
,  // measure 17
0001
0000
0000
0000
0000
0000
0000
0000
0000
0000
0000
0001
0000
0010
0100
1000
,  // measure 18
0001
0001
0001
0001
0000
0000
1000
0010
0100
0100
0100
0100
0000
0000
0000
0000
,  // measure 19
0010
0010
0010
0010
0000
1000
0001
1000
0000
0000
1100
0000
0101
0000
1100
0000
,  // measure 20
1000
1000
1000
1000
0000
0000
0010
1000
0001
0001
0001
0001
0000
0000
0000
0000
,  // measure 21
0010
0010
0010
0010
0000
0010
0010
0010
0000
0000
0000
0000
0000
0000
0000
0000
,  // measure 22
0010
0000
0000
0000
0000
0000
0000
0010
0001
0000
1000
1010
0000
0101
0000
1001
,  // measure 23
0000
0000
0000
0000
0000
0000
0001
0010
0100
0000
0010
0001
0000
0100
0000
0001
,  // measure 24
0000
1000
1001
0000
0000
0000
0000
0000
0000
0000
0000
0001
0000
1000
0100
0010
,  // measure 25
0001
0000
1000
1010
0000
0011
0000
1001
0000
0000
0000
0000
0001
0000
0001
0000
,  // measure 26
0001
0000
0000
0000
0000
0000
0000
0001
0100
0000
0010
1010
0000
1100
0000
0110
,  // measure 27
0000
0000
0000
0000
0000
0010
0001
1000
0001
0000
0001
0100
0000
1000
0100
0010
,  // measure 28
0000
0001
1001
0000
0000
0000
0000
1000
0000
0001
1000
0000
0000
0010
1000
0001
,  // measure 29
0100
0000
0010
1010
0000
0000
0100
0000
0010
0011
0000
0000
0000
0000
0000
0000
,  // measure 30
0001
0000
0000
0000
,  // measure 31
1000
0000
0000
0000
;

//---------------dance-single - ----------------
#NOTEDATA:;
#CHARTNAME:;
#STEPSTYPE:dance-single;
#DESCRIPTION:;
#CHARTSTYLE:;
#DIFFICULTY:Beginner;
#METER:1;
#RADARVALUES:0.038802,0.070167,0.060359,0.000000,0.000000,36.000000,28.000000,8.000000,0.000000,0.000000,0.000000,0.000000,0.000000,0.000000,0.038802,0.070167,0.060359,0.000000,0.000000,36.000000,28.000000,8.000000,0.000000,0.000000,0.000000,0.000000,0.000000,0.000000;
#CREDIT:;
#DISPLAYBPM:65.000000;
#NOTES:
0000
0000
0000
0000
,
0000
0000
0000
0000
,
0000
0000
0000
0000
,
0000
0000
0000
0000
,
1000
0000
0000
0000
,
0100
0000
0000
0000
,
0001
0000
0000
0000
,
0010
0000
0000
0000
,
1000
0000
0000
0000
,
1000
0000
0000
0000
,
0001
0000
0000
0000
,
0001
0000
0000
0000
,
1001
0000
0000
0000
,
0100
0000
0000
0000
,
1001
0000
0000
0000
,
0100
0000
0000
0000
,
0010
0000
0000
0000
,
0001
0000
0000
0000
,
0010
0000
0000
0000
,
1000
0000
0000
0000
,
0100
0000
0000
0000
,
0001
0000
0000
0000
,
1001
0000
0000
0000
,
1000
0000
0000
0000
,
1001
0000
0000
0000
,
0001
0000
0000
0000
,
0110
0000
0000
0000
,
0100
0000
0000
0000
,
0010
0000
0000
0000
,
1001
0000
0000
0000
,
1001
0000
0000
0000
,
0110
0000
0000
0000
;

//---------------dance-single - ----------------
#NOTEDATA:;
#CHARTNAME:;
#STEPSTYPE:dance-single;
#DESCRIPTION:;
#CHARTSTYLE:;
#DIFFICULTY:Easy;
#METER:3;
#RADARVALUES:0.079760,0.105250,0.037724,0.030179,0.000000,74.000000,69.000000,5.000000,4.000000,0.000000,0.000000,0.000000,0.000000,0.000000,0.079760,0.105250,0.037724,0.030179,0.000000,74.000000,69.000000,5.000000,4.000000,0.000000,0.000000,0.000000,0.000000,0.000000;
#CREDIT:;
#DISPLAYBPM:65.000000;
#NOTES:
// measure 0
0000
0000
0000
0000
,  // measure 1
0000
0000
0000
0000
,  // measure 2
0000
0000
0000
0000
,  // measure 3
0000
0000
0000
0000
,  // measure 4
1000
0000
1000
0000
,  // measure 5
0010
0000
0010
0000
,  // measure 6
0100
0000
0100
0000
,  // measure 7
0001
0000
0001
0000
,  // measure 8
1001
0000
1000
0000
,  // measure 9
1001
0000
0001
0000
,  // measure 10
1000
0000
0100
0000
,  // measure 11
0001
0000
0100
0000
,  // measure 12
0200
0300
0100
0100
,  // measure 13
0020
0030
0010
0010
,  // measure 14
1000
0000
0001
0000
,  // measure 15
1000
0000
0100
0000
,  // measure 16
0200
0000
0000
0300
,  // measure 17
0020
0000
0000
0030
,  // measure 18
0001
0001
0001
0001
,  // measure 19
1000
1000
1000
1000
,  // measure 20
0001
0001
0001
0001
,  // measure 21
1000
1000
1000
0000
,  // measure 22
1001
0000
1000
0001
,  // measure 23
1000
0000
0001
1000
,  // measure 24
0001
0000
1000
0000
,  // measure 25
0100
0100
0100
0100
,  // measure 26
0100
0000
0100
0010
,  // measure 27
0001
0000
0001
1000
,  // measure 28
0001
0000
1000
0000
,  // measure 29
1000
0001
1000
0000
,  // measure 30
1001
0000
0100
0000
,  // measure 31
0110
0000
0000
0000
;

//---------------dance-single - ----------------
#NOTEDATA:;
#CHARTNAME:;
#STEPSTYPE:dance-single;
#DESCRIPTION:;
#CHARTSTYLE:;
#DIFFICULTY:Medium;
#METER:6;
#RADARVALUES:0.144430,0.163723,0.067904,0.000000,0.000000,134.000000,125.000000,9.000000,0.000000,0.000000,0.000000,0.000000,0.000000,0.000000,0.144430,0.163723,0.067904,0.000000,0.000000,134.000000,125.000000,9.000000,0.000000,0.000000,0.000000,0.000000,0.000000,0.000000;
#CREDIT:;
#DISPLAYBPM:65.000000;
#NOTES:
// measure 0
0000
0000
0000
0000
,  // measure 1
0000
0000
0000
0000
,  // measure 2
0000
0000
0000
0000
,  // measure 3
0000
0000
0000
0000
,  // measure 4
1000
1000
0001
0001
,  // measure 5
0100
0100
0010
0010
,  // measure 6
1000
1000
0001
0001
,  // measure 7
0010
0010
0100
0100
,  // measure 8
0100
0100
0100
0000
0100
0000
0100
0000
,  // measure 9
0010
0010
0010
0000
0010
0000
0010
0000
,  // measure 10
0001
1000
0001
0000
1000
0001
1000
0000
,  // measure 11
0001
1000
0100
0000
1000
0001
0100
0010
,  // measure 12
0100
0100
0010
0010
,  // measure 13
1000
1000
0001
0001
,  // measure 14
1000
0100
0010
0000
0100
0010
0001
0000
,  // measure 15
0001
0100
0010
0000
0100
0010
1000
0000
,  // measure 16
0001
0001
0001
0001
0001
0000
0000
0000
,  // measure 17
1000
1000
1000
1000
1000
0000
0000
0000
,  // measure 18
1100
0000
0101
0000
,  // measure 19
1100
0000
0101
0000
,  // measure 20
1010
0000
0011
0000
,  // measure 21
1010
0000
0011
0000
,  // measure 22
1000
0000
0010
0000
1000
0001
1000
0000
,  // measure 23
0001
0000
0010
0000
0001
1000
0001
0000
,  // measure 24
1000
0000
0001
0000
0100
0100
0100
0000
,  // measure 25
0010
0000
1000
0000
0001
0001
0001
0000
,  // measure 26
1000
0000
0100
0000
0010
0100
1000
0000
,  // measure 27
0001
0000
0100
0100
0010
0100
0001
0000
,  // measure 28
1000
1000
1000
0000
0001
0001
0001
0000
,  // measure 29
1001
1000
0001
0100
,  // measure 30
0100
0100
0100
0000
0100
0010
1000
0000
,  // measure 31
0010
0000
0000
0000
;
