#TITLE:電話で抱きしめて;
#SUBTITLE:;
#ARTIST:TEE;
#TITLETRANSLIT:DENWA DE DAKISHIMETE;
#SUBTITLETRANSLIT:;
#ARTISTTRANSLIT:;
#GENRE:;
#CREDIT:Chewi☆;
#MENUCOLOR:;
#METERTYPE:DDR X;
#BANNER:DENWA DE DAKISHIMETE.png;
#BACKGROUND:DENWA DE DAKISHIMETE-bg.png;
#LYRICSPATH:;
#CDTITLE:;
#MUSIC:DENWA DE DAKISHIMETE.mp3;
#OFFSET:-0.872;
#SAMPLESTART:66.587;
#SAMPLELENGTH:15.000;
#SELECTABLE:YES;
#LISTSORT:;
#DISPLAYBPM:87.000;
#BPMS:0.000=87.000;
#STOPS:;
#BGCHANGES:;
#ATTACKS:;

//---------------dance-single - Chewi----------------
#NOTES:
     dance-single:
     Chewi:
     Hard:
     8:
     0.272,0.313,0.102,0.229,0.000: // measure 1
0000
0000
0000
0000
,  // measure 2
0000
0000
0000
0000
,  // measure 3
0000
0000
0000
0000
,  // measure 4
0000
0000
0000
0000
,  // measure 5
1000
0100
0010
0000
0001
0100
0010
0000
,  // measure 6
1000
0001
1000
0001
0010
0100
0010
0000
,  // measure 7
0100
0010
0001
0000
1000
0100
0010
0000
,  // measure 8
0001
1000
0001
1000
0010
0100
0010
0000
,  // measure 9
2010
0000
0001
0000
,  // measure 10
3100
0010
0001
0100
,  // measure 11
0102
0000
0100
0000
,  // measure 12
0103
0010
1000
0001
,  // measure 13
2001
0000
0010
0000
,  // measure 14
3001
0010
1000
0100
,  // measure 15
1200
0000
1000
0000
,  // measure 16
1300
0010
0100
1000
,  // measure 17
0001
0001
0001
0000
1000
0010
0110
0000
,  // measure 18
0020
2030
3200
0302
,  // measure 19
0013
0010
0010
0000
0100
0010
0011
0000
,  // measure 20
0002
2003
3020
0230
,  // measure 21
0301
0100
0010
0100
0001
0000
1001
0000
,  // measure 22
1000
0100
0010
0100
1000
0000
1001
0000
,  // measure 23
0100
0010
0100
0001
0100
0000
0110
0000
,  // measure 24
0010
0100
0010
1000
0010
0000
0110
0000
,  // measure 25
1000
0100
0010
1000
0100
0001
0100
0000
,  // measure 26
0001
0010
0100
0001
0010
1000
0010
0000
,  // measure 27
0100
0100
0200
0000
0000
0000
0300
0000
,  // measure 28
0010
0010
0020
0000
0000
0000
0030
0000
,  // measure 29
0001
0010
0100
0001
0010
1000
0010
0000
,  // measure 30
1000
0100
0010
1000
0100
0001
0100
0000
,  // measure 31
0010
0010
0020
0000
0000
0000
0030
0000
,  // measure 32
0100
0100
0200
0000
0000
0000
0300
0000
,  // measure 33
2100
0010
0100
3010
,  // measure 34
1000
0010
0100
0001
1000
0010
0100
0001
,  // measure 35
0102
0010
0100
0013
,  // measure 36
0001
0010
0100
1000
0001
0010
0100
1000
,  // measure 37
0001
0000
1000
0000
0010
0100
0001
0000
,  // measure 38
1000
2000
3100
0200
0310
0020
0031
0002
,  // measure 39
0013
0000
0001
0000
0100
1000
0010
0000
,  // measure 40
1000
2000
3010
0020
0130
0200
0301
0002
,  // measure 41
2003
0000
0000
0000
,  // measure 42
3000
0000
0000
0000
;

//---------------dance-single - Chewi----------------
#NOTES:
     dance-single:
     Chewi:
     Medium:
     5:
     0.232,0.296,0.085,0.314,0.000: // measure 1
0000
0000
0000
0000
,  // measure 2
0000
0000
0000
0000
,  // measure 3
0000
0000
0000
0000
,  // measure 4
0000
0000
0000
0000
,  // measure 5
1000
1000
1000
0000
0001
0000
1000
0000
,  // measure 6
0001
0001
0001
0000
1000
0000
0001
0000
,  // measure 7
0100
1000
0010
0001
,  // measure 8
0001
0010
1000
0100
,  // measure 9
2002
0000
0000
3003
,  // measure 10
1000
0010
0100
0001
,  // measure 11
1000
0100
1000
0000
0001
0000
0010
0000
,  // measure 12
1000
0010
1000
0000
0001
0000
0100
0000
,  // measure 13
0220
0000
0000
0330
,  // measure 14
0100
1000
0010
0001
,  // measure 15
0001
0000
0010
0000
1000
0100
1000
0000
,  // measure 16
0001
0000
1000
0000
0100
0010
0100
0000
,  // measure 17
2002
0000
0000
3003
,  // measure 18
1000
0000
0100
0000
0001
0100
1000
0000
,  // measure 19
0020
0000
0000
0030
,  // measure 20
1000
0000
0100
0000
0010
0001
0100
0000
,  // measure 21
2000
0000
0000
3000
,  // measure 22
1000
0100
1000
0000
0010
0000
1000
0000
,  // measure 23
2000
3020
0230
0302
,  // measure 24
1003
1000
0001
0001
1001
0000
0000
0000
,  // measure 25
0002
0000
0203
0000
0310
0010
0010
0000
,  // measure 26
2000
0000
3200
0000
1300
1000
1000
0000
,  // measure 27
2000
3200
0320
0032
,  // measure 28
0203
0320
0032
0203
,  // measure 29
2300
0000
3020
0000
0130
0100
0100
0000
,  // measure 30
0200
0000
0302
0000
0103
0100
0100
0000
,  // measure 31
0002
0023
0230
0302
,  // measure 32
0023
0230
2300
3200
,  // measure 33
1300
0100
1000
0000
0100
0000
0001
0000
,  // measure 34
0010
0000
0010
0010
,  // measure 35
0010
0001
0010
0000
0001
0000
0100
0000
,  // measure 36
1000
0000
0010
0010
,  // measure 37
1000
1010
0001
0011
,  // measure 38
0110
0000
0000
0000
0100
0100
0100
0000
,  // measure 39
0100
0011
0100
1010
,  // measure 40
1001
0000
0000
0000
1000
1000
1000
0000
,  // measure 41
0002
0000
0000
0000
,  // measure 42
0003
0000
0000
0000
;

//---------------dance-single - Chewi----------------
#NOTES:
     dance-single:
     Chewi:
     Easy:
     3:
     0.099,0.139,0.034,0.144,0.000: // measure 1
0000
0000
0000
0000
,  // measure 2
0000
0000
0000
0000
,  // measure 3
0000
0000
0000
0000
,  // measure 4
0000
0000
0000
0000
,  // measure 5
2000
0000
0000
3000
,  // measure 6
0002
0000
0000
0003
,  // measure 7
0200
0000
0000
0300
,  // measure 8
0020
0000
0000
0030
,  // measure 9
1000
0100
0000
0000
,  // measure 10
0001
0010
0000
0000
,  // measure 11
1000
0100
0000
0000
,  // measure 12
0001
0010
0000
0000
,  // measure 13
0001
0100
0000
0000
,  // measure 14
1000
0010
0000
0000
,  // measure 15
0001
0100
0000
0000
,  // measure 16
1000
0010
0000
0000
,  // measure 17
0120
0000
0000
0030
,  // measure 18
0010
0010
0010
0000
,  // measure 19
1002
0000
0000
0003
,  // measure 20
0001
0001
0001
0000
,  // measure 21
0210
0000
0000
0300
,  // measure 22
0100
0100
0100
0000
,  // measure 23
2001
0000
0000
3000
,  // measure 24
1000
1000
1000
0000
,  // measure 25
2000
0000
0000
3000
,  // measure 26
0200
0000
0000
0300
,  // measure 27
0020
0000
0000
0030
,  // measure 28
0002
0000
0000
0003
,  // measure 29
0002
0000
0000
0003
,  // measure 30
0200
0000
0000
0300
,  // measure 31
0020
0000
0000
0030
,  // measure 32
2000
0000
0000
3000
,  // measure 33
0010
0001
0000
0000
,  // measure 34
0100
1000
0000
0000
,  // measure 35
0100
0001
0000
0000
,  // measure 36
0001
0010
0000
0000
,  // measure 37
1000
0100
0000
0000
,  // measure 38
0001
0100
0000
0000
,  // measure 39
0001
0010
0000
0000
,  // measure 40
1000
0010
0000
0000
,  // measure 41
0200
0000
0000
0000
,  // measure 42
0300
0000
0000
0000
;

//---------------dance-single - Chewi----------------
#NOTES:
     dance-single:
     Chewi:
     Beginner:
     1:
     0.050,0.085,0.034,0.000,0.000: // measure 1
0000
0000
0000
0000
,  // measure 2
0000
0000
0000
0000
,  // measure 3
0000
0000
0000
0000
,  // measure 4
0000
0000
0000
0000
,  // measure 5
1000
0000
0000
0000
,  // measure 6
0001
0000
0000
0000
,  // measure 7
0100
0000
0000
0000
,  // measure 8
0010
0000
0000
0000
,  // measure 9
1000
0000
0000
0000
,  // measure 10
0001
0000
0000
0000
,  // measure 11
1000
0000
0000
0000
,  // measure 12
0001
0000
0000
0000
,  // measure 13
0001
0000
0000
0000
,  // measure 14
1000
0000
0000
0000
,  // measure 15
0001
0000
0000
0000
,  // measure 16
1000
0000
0000
0000
,  // measure 17
0110
0000
0000
0000
,  // measure 18
0010
0000
0000
0000
,  // measure 19
1001
0000
0000
0000
,  // measure 20
0001
0000
0000
0000
,  // measure 21
0110
0000
0000
0000
,  // measure 22
0100
0000
0000
0000
,  // measure 23
1001
0000
0000
0000
,  // measure 24
1000
0000
0000
0000
,  // measure 25
1000
0000
0000
0000
,  // measure 26
0100
0000
0000
0000
,  // measure 27
0010
0000
0000
0000
,  // measure 28
0001
0000
0000
0000
,  // measure 29
0001
0000
0000
0000
,  // measure 30
0100
0000
0000
0000
,  // measure 31
0010
0000
0000
0000
,  // measure 32
1000
0000
0000
0000
,  // measure 33
0010
0000
0000
0000
,  // measure 34
0100
0000
0000
0000
,  // measure 35
0100
0000
0000
0000
,  // measure 36
0001
0000
0000
0000
,  // measure 37
1000
0000
0000
0000
,  // measure 38
0001
0000
0000
0000
,  // measure 39
0001
0000
0000
0000
,  // measure 40
1000
0000
0000
0000
,  // measure 41
0100
0000
0000
0000
;
