#TITLE:男女 (EXIT TRANCE Remix);
#SUBTITLE:;
#ARTIST:先生;
#TITLETRANSLIT:DANJO (EXIT TRANCE Remix);
#SUBTITLETRANSLIT:;
#ARTISTTRANSLIT:SENSEI;
#GENRE:;
#CREDIT:Chewi☆;
#MENUCOLOR:#FFFF00;
#METERTYPE:DDR X;
#BANNER:DANJO (EXIT TRANCE Remix).png;
#BACKGROUND:DANJO (EXIT TRANCE Remix)-bg.png;
#LYRICSPATH:;
#CDTITLE:./CDTITLES/DanceDanceRevolution skyMIX2 -FREEDOM-.png;
#MUSIC:DANJO (EXIT TRANCE Remix).mp3;
#OFFSET:-0.029;
#SAMPLESTART:49.535;
#SAMPLELENGTH:15.000;
#SELECTABLE:YES;
#LISTSORT:;
#DISPLAYBPM:160.000;
#BPMS:0.000=160.060;
#STOPS:;
#BGCHANGES:-12.000=X2_Baby-lon.avi=1.000=0=0=1,
99999=-nosongbg-=1.000=0=0=0 // don't automatically add -songbackground-
;
#ATTACKS:;

//---------------dance-single - Chewi----------------
#NOTES:
     dance-single:
     Chewi:
     Beginner:
     2:
     0.125,0.165,0.070,0.000,0.000:
0000
0000
0000
0000
,
0000
0000
0000
0000
,
0000
0000
0000
0000
,
0000
0000
0000
0000
,
1000
0000
0000
0000
,
0000
0000
0000
0000
,
0001
0000
0000
0000
,
0000
0000
0000
0000
,
0010
0000
0000
0000
,
0100
0000
0000
0000
,
0100
0000
0000
0000
,
0010
0000
0000
0000
,
1000
0000
0000
0000
,
0010
0000
0000
0000
,
0001
0000
0001
0000
,
0001
0000
0000
0000
,
0001
0000
0000
0000
,
0100
0100
0100
0000
,
1000
0000
0000
0000
,
0010
0010
0010
0000
,
0001
0000
0000
0000
,
0010
0010
0010
0000
,
1000
0000
0000
0000
,
0100
0100
0100
0000
,
0010
0000
0000
0000
,
0100
0000
0000
0000
,
0001
0000
0000
0000
,
1000
0000
0000
0000
,
1001
0000
0000
0000
,
0001
0000
0000
0000
,
1001
0000
0000
0000
,
0100
0000
0100
0000
,
0100
0000
0000
0000
,
0010
0000
0000
0000
,
0010
0010
0000
0000
,
0100
0000
0000
0000
,
0100
0100
0000
0000
,
0001
0000
0000
0000
,
0001
0001
0000
0000
,
1000
0000
1000
0000
,
1000
1000
1000
0000
,
0010
0000
0000
0000
,
0100
0000
0000
0000
,
1000
0000
0000
0000
,
0001
0000
0000
0000
,
0010
0000
0000
0000
,
0100
0000
0000
0000
,
0001
0000
0000
0000
,
1000
0000
0000
0000
,
1001
0000
0000
0000
,
0100
0000
0000
0000
,
1001
0000
0000
0000
,
0010
0000
0000
0000
,
0110
0000
0000
0000
,
1000
0000
1000
0000
,
0110
0000
0000
0000
,
0001
0000
0001
0000
;

//---------------dance-single - Chewi----------------
#NOTES:
     dance-single:
     Chewi:
     Easy:
     5:
     0.271,0.297,0.187,0.047,0.000: // measure 1
0000
0000
0000
0000
,  // measure 2
0000
0000
0000
0000
,  // measure 3
0000
0000
0000
0000
,  // measure 4
0000
0000
0000
0000
,  // measure 5
1001
0000
0100
0000
,  // measure 6
0100
0010
0100
0000
,  // measure 7
0110
0000
0010
0000
,  // measure 8
0100
0010
0100
0000
,  // measure 9
1001
0000
1000
0000
,  // measure 10
1000
0100
0001
0100
,  // measure 11
1000
0000
1001
0000
,  // measure 12
0001
0010
1000
0010
,  // measure 13
0001
0000
0001
0000
,  // measure 14
1000
1000
1000
0000
,  // measure 15
1000
0001
1000
0001
,  // measure 16
1000
0001
1001
0000
,  // measure 17
0001
0010
0100
1000
,  // measure 18
0100
0100
0100
0000
,  // measure 19
1000
0100
0010
0001
,  // measure 20
0010
0010
0010
0000
,  // measure 21
0001
1000
0001
1000
,  // measure 22
0010
0010
0010
0010
,  // measure 23
0100
0001
0100
0001
,  // measure 24
1001
0000
1001
0000
,  // measure 25
1000
0000
0001
0000
,  // measure 26
0001
0010
1000
0010
,  // measure 27
0001
0000
1000
0000
,  // measure 28
0100
0010
0100
0100
,  // measure 29
0010
0100
0110
0000
,  // measure 30
0010
0100
0010
0100
,  // measure 31
0010
0010
0100
0010
,  // measure 32
0110
0000
1001
0000
,  // measure 33
1000
0100
0001
0010
,  // measure 34
1000
0000
0100
0000
,  // measure 35
0101
0000
0000
0000
,  // measure 36
0001
0000
0100
0000
,  // measure 37
1100
0000
0000
0000
,  // measure 38
1000
0000
0001
0000
,  // measure 39
1000
0001
1000
0001
,  // measure 40
0100
0000
0010
0000
,  // measure 41
0100
0010
0100
0010
,  // measure 42
0020
0000
1000
0000
,  // measure 43
0001
0000
1000
0000
,  // measure 44
0230
0000
0001
0000
,  // measure 45
1000
0000
0001
0000
,  // measure 46
0320
0000
0001
0000
,  // measure 47
0001
0000
0001
0000
,  // measure 48
0032
0000
0100
0000
,  // measure 49
0100
0000
0100
0003
,  // measure 50
1000
0000
1000
0000
,  // measure 51
0101
0000
0000
0000
,  // measure 52
0001
0000
0001
0000
,  // measure 53
0011
0000
0000
0000
,  // measure 54
0001
0000
1001
0000
,  // measure 55
1000
0000
0110
0000
,  // measure 56
0100
0100
0100
0100
,  // measure 57
0100
0001
0100
0000
;

//---------------dance-single - Chewi----------------
#NOTES:
     dance-single:
     Chewi:
     Medium:
     8:
     0.402,0.528,0.456,0.012,0.000:
0000
0000
0000
0000
,
0000
0000
0000
0000
,
0000
0000
0000
0000
,
0000
0000
0000
0000
,
1000
0000
0000
0100
0100
0000
0000
1000
,
0000
0001
0000
0000
1000
0000
0000
0000
,
0010
0000
0000
0100
0100
0000
0000
0100
,
0000
0001
0000
0000
0100
0000
0000
0000
,
1010
0000
0101
0000
,
1000
0100
0001
0010
,
1100
0000
0011
0000
,
1000
0010
0001
0100
,
1000
0010
1000
0000
0001
0010
0001
0000
,
0010
0100
1000
0001
,
0101
0100
1100
1000
,
0100
0001
0100
1000
0100
0000
0000
0000
,
1000
0001
0100
0010
,
0100
0100
0100
0000
0100
0000
0000
0000
,
1000
0001
0010
0100
,
0010
0010
0010
0000
0010
0000
0000
0000
,
0001
0100
0010
1000
,
0001
1000
0001
0000
1000
0001
1000
0000
,
0012
0100
1000
0013
,
1000
1100
0001
0101
,
1010
0010
0000
0000
0100
0000
0000
0000
,
0010
1000
0100
0010
,
0001
0001
0000
0000
0010
0000
0100
0000
,
0011
0101
0011
0011
,
1001
1100
1010
0000
,
1100
1010
1100
1010
,
1100
1100
1001
1100
,
1001
1000
0000
1000
0000
1000
0001
0000
,
0010
0010
0100
1000
,
1010
0000
0000
0010
0000
0010
0000
0000
,
0101
1000
0000
0000
,
0010
0000
0000
0001
0000
1000
0000
0000
,
0001
1001
0000
0000
,
0010
0000
0000
0100
0000
0001
0000
0100
,
0010
1000
0000
0010
1000
0000
0010
0000
,
0000
0000
1000
0000
0000
1001
0000
0000
,
0001
0010
0100
1000
,
0100
0001
0010
0100
,
0001
0010
0100
1000
,
0010
0100
1000
0010
,
0100
1000
0001
0100
,
0010
1000
0001
0010
,
0100
1000
0001
0010
,
0100
0001
0010
1000
,
1000
0001
0010
0000
0100
0000
1100
0000
,
1001
0000
0010
0100
0000
0010
0000
0001
,
0100
0010
1000
0001
,
1000
0000
0100
0010
0000
0000
0001
0000
,
0010
0100
1100
0101
,
0100
0010
1000
0001
,
0011
0000
0100
1100
,
0100
0001
0100
0010
,
1001
0110
1001
0000
;

//---------------dance-single - Chewi----------------
#NOTES:
     dance-single:
     Chewi:
     Hard:
     10:
     0.661,0.627,0.900,0.023,0.000:
0000
0000
0000
0000
,
0000
0000
0000
0000
,
0000
0000
0000
0000
,
0000
0000
0000
0000
,
1001
0000
0000
0010
0011
0000
0000
0011
,
0000
1100
0000
0101
1000
0000
0000
0000
,
1010
0000
0000
0100
0001
0010
0000
0100
,
1000
0010
1000
0100
0010
0001
0100
0000
,
1001
0010
0100
1000
0010
0100
0001
0000
,
1001
1100
1001
0101
,
1000
0100
0001
0100
1000
0010
0001
0010
,
1000
0010
0100
0001
0010
0100
1000
0000
,
0001
1000
0010
0000
1000
0001
0010
0000
,
0011
1100
0101
1010
,
1010
1100
1010
1010
,
0100
0001
0010
0001
0100
0010
0010
0000
,
0010
1000
0001
0010
0100
1000
0001
1000
,
0010
0100
0001
0100
0020
0000
0030
0000
,
1000
0010
0100
0001
0010
0100
1000
0100
,
0010
0001
0100
0010
0200
0000
0300
0000
,
0001
0010
0100
1000
0100
0010
0001
0100
,
0010
0100
0001
0010
0100
1000
0001
1000
,
0010
0010
1000
1000
0001
0001
0100
0100
,
0101
1100
1010
0011
,
0001
0010
0100
0000
1000
0100
0010
0000
,
1000
0100
0010
0001
0100
0010
0100
0000
,
0001
0010
0100
0000
1000
0010
0100
0000
,
0101
1001
0011
0011
,
1001
0000
1100
0000
1000
0100
0010
0000
,
0011
0101
0011
1010
,
1100
0000
1100
0000
1000
0100
0001
0100
,
1000
0010
0000
0010
0100
0001
0100
0000
,
0010
1000
0001
0010
0100
1000
0001
1000
,
0010
0000
1000
1001
0000
1100
0000
0011
,
0100
1000
1001
0000
1010
0000
0000
0000
,
1010
0000
0100
0101
0000
0011
0000
0001
,
0010
0100
1000
0000
1100
0000
0101
0000
,
1010
0000
0001
0101
0000
1000
0100
0001
,
0100
1000
0000
0010
0001
0010
1010
0000
,
0000
0011
1010
0000
0101
1100
0000
0101
,
1001
0000
1010
0000
1001
0001
0010
0100
,
1000
0010
0100
0001
0100
0010
0100
0001
,
0010
0100
1000
0001
0010
0100
1000
0001
,
1000
0010
1000
0100
1000
0010
1000
0100
,
1000
0010
0100
0001
0010
0100
0010
0001
,
0010
0001
0100
0001
0010
0001
0100
0010
,
1000
0001
0010
0100
1000
0001
1000
0010
,
0100
0001
0100
0010
1000
0001
0010
0100
,
0010
0010
0010
0010
0100
0010
0100
0010
,
0010
0000
1000
1001
0000
1100
0000
0011
,
0100
1000
1001
0000
1010
0000
0000
0000
,
1010
0000
0100
0101
0000
0011
0000
0001
,
0010
0100
1000
0000
1100
0000
0101
0000
,
1010
0000
0001
0101
0000
1000
0100
0001
,
0100
1000
0000
0010
0001
0010
1010
0000
,
0000
0011
1010
0000
0101
1100
0000
0101
,
1001
0110
1010
0000
;
