#VERSION:0.83;
#TITLE:DANCE INTO FANTASY;
#SUBTITLE:;
#ARTIST:EXILE;
#TITLETRANSLIT:;
#SUBTITLETRANSLIT:;
#ARTISTTRANSLIT:;
#GENRE:Pop;
#ORIGIN:;
#CREDIT:chewi;
#BANNER:DANCE INTO FANTASY.png;
#BACKGROUND:DANCE INTO FANTASY-bg.png;
#PREVIEWVID:;
#JACKET:DANCE INTO FANTASY-jacket.png;
#CDIMAGE:;
#DISCIMAGE:;
#LYRICSPATH:;
#CDTITLE:cdtitle.png;
#MUSIC:DANCE INTO FANTASY.ogg;
#OFFSET:-1.766000;
#SAMPLESTART:56.705002;
#SAMPLELENGTH:15.000000;
#SELECTABLE:YES;
#BPMS:0.000=125.000;
#STOPS:;
#DELAYS:;
#WARPS:;
#TIMESIGNATURES:0.000=4=4;
#TICKCOUNTS:0.000=4;
#COMBOS:0.000=1;
#SPEEDS:0.000=1.000=0.000=0;
#SCROLLS:0.000=1.000;
#FAKES:;
#LABELS:0.000=Song Start;
#BGCHANGES:0.000=DANCE INTO FANTASY.avi=1.000=1=0=1===CrossFade==,
99999=-nosongbg-=1.000=0=0=0 // don't automatically add -songbackground-
;
#KEYSOUNDS:;
#ATTACKS:
;

//---------------dance-single - ----------------
#NOTEDATA:;
#CHARTNAME:;
#STEPSTYPE:dance-single;
#DESCRIPTION:;
#CHARTSTYLE:;
#DIFFICULTY:Beginner;
#METER:1;
#RADARVALUES:0.078277,0.123728,0.000000,0.035351,0.000000,62.000000,62.000000,0.000000,4.000000,0.000000,0.000000,0.000000,0.000000,0.000000,0.078277,0.123728,0.000000,0.035351,0.000000,62.000000,62.000000,0.000000,4.000000,0.000000,0.000000,0.000000,0.000000,0.000000;
#CREDIT:;
#NOTES:
// measure 0
0000
0000
0000
0000
,  // measure 1
0000
0000
0000
0000
,  // measure 2
0000
0000
0000
0000
,  // measure 3
0000
0000
0000
0000
,  // measure 4
0000
0000
0000
0000
,  // measure 5
0000
0000
0000
0000
,  // measure 6
1000
0000
0000
0000
,  // measure 7
0001
0000
0000
0000
,  // measure 8
0100
0000
0000
0000
,  // measure 9
0010
0000
0000
0000
,  // measure 10
0010
0000
0000
0000
,  // measure 11
0010
0000
0000
0000
,  // measure 12
0100
0000
0000
0000
,  // measure 13
0001
0000
0001
0000
,  // measure 14
1000
0000
1000
0000
,  // measure 15
0010
0000
0000
0000
,  // measure 16
0100
0000
0000
0000
,  // measure 17
0010
0000
0010
0000
,  // measure 18
0001
0000
0001
0000
,  // measure 19
0001
0000
0000
0000
,  // measure 20
1000
0000
0000
0000
,  // measure 21
0001
0000
0000
0000
,  // measure 22
0100
0000
0000
0000
,  // measure 23
0001
0000
0000
0000
,  // measure 24
1000
0000
0000
0000
,  // measure 25
0001
0000
0000
0000
,  // measure 26
0010
0000
0000
0000
,  // measure 27
0010
0000
0000
0000
,  // measure 28
0010
0000
0000
0000
,  // measure 29
0010
0000
0010
0000
,  // measure 30
0010
0000
0000
0000
,  // measure 31
0100
0000
0100
0000
,  // measure 32
0100
0000
0000
0000
,  // measure 33
1000
0000
0001
0000
,  // measure 34
1000
0000
0000
0000
,  // measure 35
0001
0000
1000
0000
,  // measure 36
0001
0000
0000
0000
,  // measure 37
0001
0000
0100
0000
,  // measure 38
0010
0000
0000
0000
,  // measure 39
0100
0000
0100
0000
,  // measure 40
0100
0000
0000
0000
,  // measure 41
1000
0000
0100
0000
,  // measure 42
0010
0000
0000
0000
,  // measure 43
0100
0000
0100
0000
,  // measure 44
0100
0000
0000
0000
,  // measure 45
0000
0000
0000
0000
,  // measure 46
0100
0000
0000
0000
,  // measure 47
0100
0000
0000
0000
,  // measure 48
0200
0000
0000
0300
,  // measure 49
0100
0000
0000
0000
,  // measure 50
0020
0000
0000
0030
,  // measure 51
0010
0000
0000
0000
,  // measure 52
2000
0000
0000
3000
,  // measure 53
1000
0000
0000
0000
,  // measure 54
0002
0000
0000
0003
,  // measure 55
0001
0000
0000
0000
,  // measure 56
0001
0000
0000
0000
;

//---------------dance-single - ----------------
#NOTEDATA:;
#CHARTNAME:;
#STEPSTYPE:dance-single;
#DESCRIPTION:;
#CHARTSTYLE:;
#DIFFICULTY:Easy;
#METER:4;
#RADARVALUES:0.175492,0.247457,0.008838,0.017675,0.000000,139.000000,138.000000,1.000000,2.000000,0.000000,0.000000,0.000000,0.000000,0.000000,0.175492,0.247457,0.008838,0.017675,0.000000,139.000000,138.000000,1.000000,2.000000,0.000000,0.000000,0.000000,0.000000,0.000000;
#CREDIT:;
#NOTES:
// measure 0
0000
0000
0000
0000
,  // measure 1
0000
0000
0000
0000
,  // measure 2
0000
0000
0000
0000
,  // measure 3
0000
0000
0000
0000
,  // measure 4
0000
0000
0000
0000
,  // measure 5
0000
0000
0000
0000
,  // measure 6
1000
0001
0100
0000
,  // measure 7
0010
0010
0010
0000
,  // measure 8
1000
0001
0010
0000
,  // measure 9
0100
0100
0100
0100
,  // measure 10
0200
0000
0000
0300
,  // measure 11
0100
0000
0100
0000
,  // measure 12
0010
0000
0010
0000
,  // measure 13
0001
0001
0001
0000
,  // measure 14
1000
1000
1000
0000
,  // measure 15
0001
0000
0001
0000
,  // measure 16
0100
0000
0100
0000
,  // measure 17
0010
0010
0010
0000
,  // measure 18
1000
1000
1000
0000
,  // measure 19
1000
0010
1000
0000
,  // measure 20
0010
1000
0010
0000
,  // measure 21
1000
0000
0001
0000
,  // measure 22
0010
0000
0100
0000
,  // measure 23
0010
0100
0010
0000
,  // measure 24
0100
0010
0100
0000
,  // measure 25
0010
0000
0100
0000
,  // measure 26
1000
0000
0001
0000
,  // measure 27
1000
0000
1000
0000
,  // measure 28
1000
1000
1000
1000
,  // measure 29
1000
0000
0001
0000
,  // measure 30
1000
0001
0100
0000
,  // measure 31
0001
0000
1000
0000
,  // measure 32
0100
0100
0100
0100
,  // measure 33
0010
0000
0100
0000
,  // measure 34
0010
0100
0010
0000
,  // measure 35
0001
0000
1000
0000
,  // measure 36
0010
0010
0010
0010
,  // measure 37
0001
0000
1000
0000
,  // measure 38
0001
1000
0010
0000
,  // measure 39
1000
0000
0001
0000
,  // measure 40
0010
0010
0010
0010
,  // measure 41
0100
0000
0010
0000
,  // measure 42
0100
0010
0100
0000
,  // measure 43
1000
0000
0001
0000
,  // measure 44
0100
0100
0100
0100
,  // measure 45
0200
0000
0000
0000
,  // measure 46
0300
0000
0000
0000
,  // measure 47
0000
0000
0000
0000
,  // measure 48
0001
0001
1000
1000
,  // measure 49
0001
1000
0001
1000
,  // measure 50
1000
1000
0001
0001
,  // measure 51
1000
0001
1000
0001
,  // measure 52
0010
0010
0100
0100
,  // measure 53
0010
0100
0010
0100
,  // measure 54
0100
0100
0010
0010
,  // measure 55
0100
0010
0100
0010
,  // measure 56
0110
0000
0000
0000
;

//---------------dance-single - ----------------
#NOTEDATA:;
#CHARTNAME:;
#STEPSTYPE:dance-single;
#DESCRIPTION:;
#CHARTSTYLE:;
#DIFFICULTY:Hard;
#METER:10;
#RADARVALUES:0.393911,0.420677,0.088377,0.017675,0.017675,312.000000,302.000000,10.000000,2.000000,0.000000,0.000000,0.000000,0.000000,0.000000,0.393911,0.420677,0.088377,0.017675,0.017675,312.000000,302.000000,10.000000,2.000000,0.000000,0.000000,0.000000,0.000000,0.000000;
#CREDIT:;
#NOTES:
// measure 0
0000
0000
0000
0000
,  // measure 1
0000
0000
0000
0000
,  // measure 2
0000
0000
0000
0000
,  // measure 3
0000
0000
0000
0000
,  // measure 4
0000
0000
0000
0000
,  // measure 5
0000
0000
0000
0000
,  // measure 6
0010
0000
1000
0000
0100
0010
0001
0000
,  // measure 7
0100
0001
0010
0001
0100
0100
0100
0000
,  // measure 8
0100
0000
0001
0000
0010
0100
1000
0000
,  // measure 9
0010
1000
0100
1000
0010
1000
0100
0100
,  // measure 10
0200
0000
0000
0300
,  // measure 11
1001
0000
0100
0010
0100
0100
0001
0000
,  // measure 12
0001
0010
0100
1000
0100
1000
1000
0000
,  // measure 13
0100
1000
0010
0000
1000
0001
0010
0000
,  // measure 14
0100
1000
0010
0000
0100
0001
0100
0001
,  // measure 15
1000
0000
0010
0100
0010
0010
1000
0000
,  // measure 16
1000
0100
0010
0001
0010
0001
0001
0000
,  // measure 17
0100
0001
0010
0000
0001
0010
0100
0000
,  // measure 18
0100
1000
0010
0000
1000
0010
0100
0001
,  // measure 19
1000
1000
0001
0000
0001
0010
0100
1000
,  // measure 20
0001
0001
1000
0000
0001
0100
0010
1000
,  // measure 21
0010
0100
0001
0000
0100
0001
1000
0000
,  // measure 22
0100
1000
0001
0000
0010
0001
1000
0000
,  // measure 23
0001
0001
1000
0000
1000
0100
0010
0001
,  // measure 24
1000
1000
0001
0000
1000
0010
0100
0001
,  // measure 25
0100
0100
0010
0010
,  // measure 26
1000
1000
0001
0001
1000
1000
0001
0001
,  // measure 27
0001
0100
1000
0010
,  // measure 28
0001
0100
1000
0010
,  // measure 29
0001
0000
0010
0100
1000
0010
0001
0000
,  // measure 30
0010
0000
0100
0000
0001
1000
1001
0000
,  // measure 31
0100
0001
0010
0000
0100
1000
0010
0000
,  // measure 32
0010
1000
0001
0100
0001
1000
1001
0000
,  // measure 33
1000
0000
0100
0010
0001
0100
1000
0000
,  // measure 34
0100
0000
0010
0000
1000
0001
1001
0000
,  // measure 35
0001
0010
0100
0000
0010
0001
0100
0000
,  // measure 36
0100
0001
1000
0010
1000
0001
1000
0000
,  // measure 37
0010
0000
1000
0001
0100
0001
0010
0000
,  // measure 38
0001
0000
1000
0000
0010
0100
0110
0000
,  // measure 39
0001
0010
0001
0000
1000
0100
1000
0000
,  // measure 40
1000
0100
0010
0001
0010
0100
1001
0000
,  // measure 41
0100
0000
0001
1000
0010
1000
0001
0000
,  // measure 42
0001
0000
1000
0000
0100
0010
0110
0000
,  // measure 43
0010
0001
1000
0000
1000
0010
0100
0000
,  // measure 44
0001
0010
0100
1000
0100
0010
0001
0001
,  // measure 45
0002
0000
0000
0003
,  // measure 46
0001
0100
1000
0010
,  // measure 47
0001
0001
1000
0000
1000
1000
0001
0000
,  // measure 48
1000
0000
0100
0000
1000
0000
0100
0000
0010
0000
0000
0010
0001
0000
0000
0000
,  // measure 49
0001
0001
1000
1000
0001
0000
1001
0000
,  // measure 50
0100
0000
0010
0000
0100
0000
0010
0000
1000
0000
0000
1000
0001
0000
0000
0000
,  // measure 51
0001
0001
0010
0010
0100
1000
0100
0000
,  // measure 52
0010
0000
0001
0000
0010
0000
0001
0000
0100
0000
0000
0100
0001
0000
0000
0000
,  // measure 53
0100
0100
0010
0010
1000
0000
1001
0000
,  // measure 54
1000
0000
0010
0000
1000
0000
0010
0000
1000
0000
0000
1000
0001
0000
0000
0000
,  // measure 55
0010
0010
0010
0010
0100
0100
0100
0100
,  // measure 56
0110
0000
0000
0000
;

//---------------dance-single - ----------------
#NOTEDATA:;
#CHARTNAME:;
#STEPSTYPE:dance-single;
#DESCRIPTION:;
#CHARTSTYLE:;
#DIFFICULTY:Medium;
#METER:7;
#RADARVALUES:0.299221,0.420677,0.150242,0.035351,0.000000,237.000000,220.000000,17.000000,4.000000,0.000000,0.000000,0.000000,0.000000,0.000000,0.299221,0.420677,0.150242,0.035351,0.000000,237.000000,220.000000,17.000000,4.000000,0.000000,0.000000,0.000000,0.000000,0.000000;
#CREDIT:;
#NOTES:
// measure 0
0000
0000
0000
0000
,  // measure 1
0000
0000
0000
0000
,  // measure 2
0000
0000
0000
0000
,  // measure 3
0000
0000
0000
0000
,  // measure 4
0000
0000
0000
0000
,  // measure 5
0000
0000
0000
0000
,  // measure 6
1000
0000
0001
0000
1000
0001
1000
0000
,  // measure 7
0001
0000
1000
0000
0001
1000
0001
0000
,  // measure 8
1000
0010
0100
0001
,  // measure 9
1000
0010
0100
0002
,  // measure 10
2000
0000
0000
3003
,  // measure 11
1000
0000
0001
0000
1000
0001
1000
0000
,  // measure 12
0001
0000
1000
0000
0001
1000
0001
0000
,  // measure 13
1000
0000
0100
0000
0010
0001
0100
0000
,  // measure 14
0001
0000
0100
0000
0010
1000
0100
0000
,  // measure 15
1000
0000
0001
0000
1000
0001
1000
0000
,  // measure 16
0001
0000
1000
0000
0001
1000
0001
0000
,  // measure 17
1000
0000
0010
0000
0100
0001
0100
0000
,  // measure 18
0001
0000
0100
0000
0010
1000
0010
0000
,  // measure 19
1000
0000
0100
0000
1000
0010
1000
0000
,  // measure 20
0100
0010
0001
0100
,  // measure 21
0001
0000
0010
0000
0001
0100
0001
0000
,  // measure 22
0100
0010
1000
0001
,  // measure 23
1000
0000
0001
0000
0010
0100
1000
0000
,  // measure 24
0001
0000
1000
0000
0010
0100
0001
0000
,  // measure 25
0100
0100
0010
0010
,  // measure 26
1000
0001
1000
0000
0001
1000
0001
0000
,  // measure 27
1001
1001
0011
0011
,  // measure 28
1001
1001
1010
0000
,  // measure 29
1000
0010
1000
0000
0010
0000
0010
0000
,  // measure 30
0100
0001
0100
0000
0001
0000
0001
0000
,  // measure 31
0100
0000
0010
0000
1000
0001
1000
0000
,  // measure 32
0100
0000
0010
0000
0001
1000
0001
0000
,  // measure 33
0001
0100
0001
0000
0100
0000
0100
0000
,  // measure 34
0010
1000
0010
0000
1000
0000
1000
0000
,  // measure 35
0010
0000
0100
0000
0001
1000
0001
0000
,  // measure 36
0010
0000
0100
0000
1000
0001
1000
0000
,  // measure 37
0001
0000
1000
0000
0001
1000
0001
0000
,  // measure 38
0100
0000
0010
0000
0100
0010
0100
0000
,  // measure 39
0010
0000
1000
0000
0010
1000
0010
0000
,  // measure 40
1100
1010
1100
1001
,  // measure 41
1000
0000
0100
0000
1000
0100
1000
0000
,  // measure 42
0100
0000
0010
0000
0100
0010
0100
0000
,  // measure 43
0010
0000
0001
0000
0010
0001
0010
0000
,  // measure 44
0011
0101
0011
0101
,  // measure 45
2002
0000
0000
0000
,  // measure 46
3003
0000
0000
0000
,  // measure 47
0001
0001
0001
0001
,  // measure 48
0001
0100
0010
0001
,  // measure 49
0100
0010
0001
0100
,  // measure 50
0001
0010
0100
1000
,  // measure 51
1000
0010
0100
0001
,  // measure 52
0100
0010
1000
0100
,  // measure 53
0010
1000
0100
0010
,  // measure 54
0100
1000
0001
0100
,  // measure 55
0010
1000
0001
1000
,  // measure 56
1001
0000
0000
0000
;
