#TITLE:D.A.N.C.E. (MSTRKRFT Remix);
#SUBTITLE:;
#ARTIST:Justice;
#TITLETRANSLIT:;
#SUBTITLETRANSLIT:;
#ARTISTTRANSLIT:;
#GENRE:;
#CREDIT:Chewi☆;
#MENUCOLOR:;
#METERTYPE:DDR X;
#BANNER:DANCE (MSTRKRFT Remix).png;
#BACKGROUND:DANCE (MSTRKRFT Remix)-bg.png;
#LYRICSPATH:;
#CDTITLE:;
#MUSIC:DANCE (MSTRKRFT Remix).mp3;
#OFFSET:-0.024;
#SAMPLESTART:0.024;
#SAMPLELENGTH:15.000;
#SELECTABLE:YES;
#LISTSORT:;
#DISPLAYBPM:126.000;
#BPMS:0.000=125.990;
#STOPS:;
#BGCHANGES:;
#ATTACKS:;

//---------------dance-single - Chewi----------------
#NOTES:
     dance-single:
     Chewi:
     Beginner:
     1:
     0.112,0.165,0.066,0.044,0.000: // measure 1
0000
0000
0000
0000
,  // measure 2
0000
0000
0000
0000
,  // measure 3
0000
0000
0000
0000
,  // measure 4
0000
0000
0000
0000
,  // measure 5
1000
0000
1000
0000
,  // measure 6
0100
0000
0100
0000
,  // measure 7
0010
0000
0010
0000
,  // measure 8
0001
0000
0001
0000
,  // measure 9
1001
0000
0000
0000
,  // measure 10
0100
0000
1000
0000
,  // measure 11
0010
0000
0000
0000
,  // measure 12
0010
0000
1000
0000
,  // measure 13
1001
0000
0000
0000
,  // measure 14
0100
0000
0001
0000
,  // measure 15
0010
0000
0000
0000
,  // measure 16
0010
0000
0001
0000
,  // measure 17
1001
0000
0000
0000
,  // measure 18
1000
1000
1000
0000
,  // measure 19
1001
0000
0000
0000
,  // measure 20
0001
0001
0001
0000
,  // measure 21
0110
0000
0000
0000
,  // measure 22
0100
0100
0100
0000
,  // measure 23
0110
0000
0000
0000
,  // measure 24
0010
0010
0010
0000
,  // measure 25
2000
0000
0000
0000
,  // measure 26
0000
0000
0000
3000
,  // measure 27
1000
0000
0000
0000
,  // measure 28
0000
0000
0000
0000
,  // measure 29
0002
0000
0000
0000
,  // measure 30
0000
0000
0000
0000
,  // measure 31
0000
0000
0000
0003
,  // measure 32
0001
0000
0001
0000
,  // measure 33
0001
0000
0001
0000
,  // measure 34
0010
0000
0010
0000
,  // measure 35
0100
0000
0100
0000
,  // measure 36
1000
0000
1000
0000
,  // measure 37
1000
0000
1000
0000
,  // measure 38
0010
0000
0010
0000
,  // measure 39
0100
0000
0100
0000
,  // measure 40
0002
0000
0000
0003
,  // measure 41
0001
0000
0001
0001
,  // measure 42
0001
0000
0000
0000
,  // measure 43
2000
0000
0000
3000
,  // measure 44
1000
0000
0000
0000
;

//---------------dance-single - Chewi----------------
#NOTES:
     dance-single:
     Chewi:
     Easy:
     3:
     0.183,0.235,0.066,0.120,0.000:
0000
0000
0000
0000
,
0000
0000
0000
0000
,
0000
0000
0000
0000
,
0000
0000
0000
0000
,
1000
0000
0010
0000
,
0001
0000
0010
0000
,
1000
0000
0100
0000
,
0001
0000
0100
0000
,
0120
0100
0100
0130
,
0100
0000
0100
0000
,
0210
0010
0010
0310
,
0010
0000
0010
0000
,
1000
0000
0100
0000
,
0001
0000
0100
0000
,
0001
0000
0010
0000
,
1000
0000
0010
0000
,
2002
0000
0000
3003
,
1000
0000
0001
0000
,
2002
0000
0000
3003
,
0001
0000
1000
0000
,
0220
0000
0000
0330
,
0010
0000
0100
0000
,
0220
0000
0000
0330
,
0100
0000
0010
0000
,
1000
1000
1000
0000
,
0001
0000
1000
0000
,
0001
0001
0001
0000
,
1000
0000
0001
0000
,
0010
0010
0010
0000
,
0010
0000
0100
0000
,
0100
0100
0100
0000
,
0010
0010
0010
0010
,
1000
1000
1000
1000
,
0001
0001
0001
0001
,
0010
0010
0010
0010
,
0001
0001
0001
0001
,
0001
0001
0001
0001
,
1000
1000
1000
1000
,
0010
0010
0010
0010
,
0200
0000
0000
0000
,
0310
1000
0100
0000
,
0001
0000
0010
0000
,
0010
1000
0100
0000
,
0001
0000
0000
0000
;

//---------------dance-single - Chewi----------------
#NOTES:
     dance-single:
     Chewi:
     Medium:
     6:
     0.225,0.282,0.098,0.197,0.000:
0000
0000
0000
0000
,
0000
0000
0000
0000
,
0000
0000
0000
0000
,
0000
0000
0000
0000
,
1000
0100
0001
0010
,
0020
0000
0000
0030
,
0001
0100
1000
0010
,
0020
0000
0000
0030
,
0010
0000
0101
0000
1000
0100
1000
0000
,
0001
0001
0001
0001
0000
0000
0000
0000
,
0010
0000
1100
0000
0010
0100
0010
0000
,
0100
0100
0100
0100
0000
0000
0000
0000
,
1000
0001
0010
0001
,
2000
0000
0000
3000
,
1000
0001
0100
0001
,
0002
0000
0000
0003
,
1000
0100
0001
0101
,
0002
1000
1000
1003
,
0001
0100
1000
1100
,
2000
0001
0001
3001
,
0020
0100
1000
1030
,
1000
0010
0001
1001
,
0002
0100
1000
0103
,
0001
0100
1000
1001
,
0220
0000
0000
0300
,
2000
0000
0000
0030
,
0002
0000
0000
0000
,
3003
0000
0000
0000
,
2002
0000
0000
3000
,
0020
0000
0000
0003
,
0200
0000
0000
0330
,
0100
0100
0100
0100
,
0001
0100
0001
0100
,
0001
0010
0001
0010
,
1000
0010
1000
0010
,
0020
0000
0000
0030
,
1000
0100
1000
0100
,
1000
0010
1000
0010
,
0001
0010
0001
0010
,
0020
0000
0000
0030
,
0010
0000
0100
0000
0010
0010
0010
0000
,
0001
0000
0000
0000
,
0001
1000
0010
0100
,
0110
0000
0000
0000
;

//---------------dance-single - Chewi----------------
#NOTES:
     dance-single:
     Chewi:
     Hard:
     9:
     0.283,0.282,0.055,0.087,0.066:
0000
0000
0000
0000
,
0000
0000
0000
0000
,
0000
0000
0000
0000
,
0000
0000
0000
0000
,
1000
0000
0100
0000
0001
0100
1000
0000
,
0010
0100
0010
0100
0010
0000
0000
0000
,
1000
0000
0010
0000
0001
0010
1000
0000
,
0100
0010
0100
0010
0100
0000
0000
0000
,
1000
0000
1100
0000
0001
1000
0001
0000
,
0010
0010
0010
0010
0010
0000
0000
0000
,
0001
0000
0101
0000
1000
0100
1000
0000
,
0100
0100
0100
0100
0100
0000
0000
0000
,
0002
0000
0103
0000
0010
1000
0010
0000
,
1000
0001
1000
0001
1000
0000
0000
0000
,
2000
0000
3100
0000
1000
0100
1000
0000
,
0001
1000
0001
1000
0001
0000
0000
0000
,
1000
0000
0010
0000
0001
0100
1000
0000
,
0010
0000
0010
0000
,
0010
0000
1000
0000
0100
0001
0010
0000
,
0010
0000
0010
0000
,
1000
0000
0100
0000
0010
1000
0100
0000
,
0001
0000
0001
0000
,
0001
0000
0010
0000
0100
0001
0010
0000
,
0010
0000
0010
0000
,
0000
0000
1000
0000
0000
1000
0000
0000
0001
0000
0000
0001
0000
0000
0010
0000
,
0000
0000
0010
0000
0000
0010
0000
0000
0100
0000
0000
0100
0000
0000
1000
0000
,
0000
0000
1000
0000
0000
1000
0000
0000
0001
0000
0000
0001
0000
0000
0100
0000
,
0000
0000
0000
0000
,
0000
0000
0010
0000
0000
0010
0000
0000
0100
0000
0000
0100
0000
0000
1001
0000
,
0000
0000
1000
0000
0000
1000
0000
0000
0001
0000
0000
0001
0000
0000
0010
0000
,
0000
0000
0100
0000
0000
0100
0000
0000
0010
0000
0000
0010
0000
0000
0001
0000
,
1001
1000
0001
1000
,
0002
0010
1000
0103
,
2000
0100
0001
3010
,
0020
0100
1000
1030
,
0200
0010
0001
0301
,
0001
1000
0001
0000
1000
0000
1000
0000
,
1000
0001
1000
0000
0001
0000
0001
0000
,
0010
0100
0010
0000
0100
0000
0100
0000
,
0220
0000
0000
0330
,
1000
0000
0100
0000
0001
0100
1000
0010
,
0001
0000
0000
0000
,
1000
0000
0010
0000
0001
0010
1000
0100
,
0001
0000
0000
0000
;

//---------------dance-double - Chewi----------------
#NOTES:
     dance-double:
     Chewi:
     Hard:
     9:
     0.287,0.282,0.109,0.153,0.066:
00000000
00000000
00000000
00000000
,
00000000
00000000
00000000
00000000
,
00000000
00000000
00000000
00000000
,
00000000
00000000
00000000
00000000
,
00001000
00000000
00000100
00000000
00000001
00000100
00001000
00000000
,
00001000
00010000
00001000
00010000
00001000
00000000
00000000
00000000
,
00001000
00000000
00010000
00000000
01000000
10000000
00100000
00000000
,
00010000
10000000
00010000
10000000
00010000
00000000
00000000
00000000
,
10000000
00000000
11000000
00000000
00010000
00100000
00010000
00000000
,
00100000
00100000
00100000
00100000
00100000
00000000
00000000
00000000
,
00100000
00000000
00101000
00000000
00001000
00010000
00001000
00000000
,
00010000
00010000
00001000
00001000
00010000
00000000
00000000
00000000
,
00002000
00000000
00003010
00000000
00000001
00000100
00000001
00000000
,
00001000
00001000
00001000
00000000
00000010
00000000
00000000
00000000
,
00002000
00000000
00003100
00000000
00000001
00000010
00000001
00000000
,
00001000
00001000
00001000
00000000
00001000
00000000
00000000
00000000
,
00001000
00000000
00000100
00000000
00010000
00001000
00010000
00000000
,
00022000
00000000
00000000
00033000
,
00001000
00000000
00010000
00000000
01000000
10000000
01000000
00000000
,
20020000
00000000
00000000
30030000
,
10000000
00000000
00100000
00000000
00010000
00100000
00010000
00000000
,
00220000
00000000
00000000
00330000
,
00100000
00000000
00010000
00000000
00001000
00010000
00001000
00000000
,
00022000
00000000
00000000
00033000
,
00000000
00000000
00001000
00000000
00000000
00001000
00000000
00000000
00000010
00000000
00000000
00000010
00000000
00000000
00001000
00000000
,
00000000
00000000
00000001
00000000
00000000
00000001
00000000
00000000
00000100
00000000
00000000
00000100
00000000
00000000
00001000
00000000
,
00000000
00000000
00001000
00000000
00000000
00001000
00000000
00000000
00000100
00000000
00000000
00000100
00000000
00000000
00010000
00000000
,
00000000
00000000
00000000
00000000
,
00000000
00000000
00001000
00000000
00000000
00001000
00000000
00000000
00010000
00000000
00000000
00010000
00000000
00000000
00001000
00000000
,
00000000
00000000
00001000
00000000
00000000
00010000
00000000
00000000
01000000
00000000
00000000
00010000
00000000
00000000
01000000
00000000
,
00000000
00000000
00100000
00000000
00000000
00100000
00000000
00000000
10000000
00000000
00000000
00010000
00000000
00000000
10010000
00000000
,
00100000
00100000
00010000
00010000
,
00100000
00000000
00010000
00000000
00001000
00010000
00001000
00000000
,
00010000
00000000
00001000
00000000
00000010
00001000
00000010
00000000
,
00001000
00000000
00000001
00000000
00001000
00000001
00001000
00000000
,
00002002
00000000
00000000
00003003
,
00000001
00000000
00000100
00000000
00000001
00000100
00000001
00000000
,
00001000
00000000
00000100
00000000
00001000
00000100
00001000
00000000
,
00000100
00000000
00010000
00000000
00001000
00010000
00001000
00000000
,
00022000
00000000
00000000
00033000
,
00001000
00010000
00001000
00000000
00010000
00000000
10000000
00000000
,
10010000
00000000
10000000
00000000
,
10000000
01000000
00010000
00100000
,
00001000
00000000
00000000
00000000
;

//---------------dance-double - Chewi----------------
#NOTES:
     dance-double:
     Chewi:
     Medium:
     6:
     0.230,0.260,0.077,0.241,0.000:
00000000
00000000
00000000
00000000
,
00000000
00000000
00000000
00000000
,
00000000
00000000
00000000
00000000
,
00000000
00000000
00000000
00000000
,
00000000
00010000
00001000
00010000
,
00001000
00002000
00000000
00000000
,
00003000
00010000
00001000
00000010
,
00001000
00000020
00000000
00000000
,
00000030
00000000
00000010
00000000
00000101
00000000
00001000
00000100
,
00001000
00000000
00000100
00001000
00000100
00001000
00000100
00000000
,
00000000
00000000
00000100
00000000
00010100
00000000
00010000
00001000
,
00010000
00000000
00001000
00010000
00001000
00010000
00001000
00000000
,
00000000
00001000
00010000
01000000
,
10000000
02000000
00000000
00000000
,
03000000
00100000
00010000
10000000
,
00100000
00200000
00000000
00000000
,
00300000
00010000
00100000
00001000
,
00011000
00020000
00001000
00001000
,
00031000
00010000
00001000
00000010
,
00000110
00000200
00000010
00000010
,
00000310
00002000
00000001
00000001
,
00003001
00000002
00000100
00001000
,
00000100
00000003
00002000
00000000
00000100
00000000
00000100
00000000
,
00003100
00000200
00010000
00001000
,
00010300
00022000
00000000
00000000
,
00033000
00002000
00000000
00000000
,
00003000
00020000
00000000
00000000
,
00030000
02000000
00000000
00000000
,
03000000
02200000
00000000
00000000
,
03000000
20000000
00000000
00000000
,
00300000
00020000
00000000
00000000
,
30000000
00200000
00000000
00000000
,
00330000
00100000
00010000
00001000
,
00000010
00000010
00000001
00000100
,
00001000
00000100
00001000
00010000
,
01000000
10000000
00100000
00010000
,
01000000
00100000
00010000
00001000
,
00010000
00000010
00001000
00010000
,
00001000
00010000
01000000
00010000
,
00001000
00022000
00000000
00000000
,
00033000
00000010
00001000
00000100
,
00000001
00000010
00000000
00000000
,
00000000
00000010
00001000
00000010
,
00000000
00000001
00000000
00000000
;

//---------------dance-double - Chewi----------------
#NOTES:
     dance-double:
     Chewi:
     Easy:
     4:
     0.161,0.188,0.033,0.044,0.000:
00000000
00000000
00000000
00000000
,
00000000
00000000
00000000
00000000
,
00000000
00000000
00000000
00000000
,
00000000
00000000
00000000
00000000
,
00001000
00000000
00000010
00000000
,
00001000
00000000
00000010
00000000
,
00001000
00000000
00010000
00000000
,
00001000
00000000
00010000
00000000
,
00010000
00000000
01000000
00000000
,
00010000
00000000
01000000
00000000
,
00010000
00000000
00001000
00000000
,
00010000
00000000
00001000
00000000
,
00001000
00000000
00000010
00000000
,
00001000
00000000
00000010
00000000
,
00002002
00000000
00000000
00003003
,
00001000
00000001
00001000
00000000
,
00000001
00000100
00000010
00001000
,
00000000
00000000
00000000
00000000
,
00000010
00001000
00010000
01000000
,
00000000
00000000
00000000
00000000
,
01000000
10000000
00100000
00010000
,
00000000
00000000
00000000
00000000
,
00010000
00001000
00010000
00001000
,
00000000
00000000
00000000
00000000
,
00001000
00000010
00000010
00000000
,
00000001
00000100
00000100
00000000
,
00001000
00000100
00000100
00000000
,
00000001
00001000
00001001
00000000
,
00001000
00010000
00010000
00000000
,
00010000
00001000
00001000
00000000
,
00001000
00010000
01000000
00000000
,
01000000
01000000
01000000
00000000
,
00100000
10000000
00100000
00000000
,
01000000
00010000
01000000
00000000
,
00100000
00010000
00100000
00000000
,
00010000
00001000
00010000
00000000
,
00001000
00010000
00001000
00000000
,
00001000
00000010
00001000
00000000
,
00000001
00000010
00000001
00000000
,
00002002
00000000
00000000
00003003
,
00000001
00000100
00001000
00000100
,
00000001
00000000
00000000
00000000
,
00000001
00001000
00000100
00010000
,
00001000
00000000
00000000
00000000
;
