#TITLE:DANCE (ASS);
#SUBTITLE:;
#ARTIST:BIG SEAN;
#TITLETRANSLIT:;
#SUBTITLETRANSLIT:;
#ARTISTTRANSLIT:;
#CREDIT:Chewi☆;
#BANNER:DANCE (ASS).png;
#BACKGROUND:DANCE (ASS)-bg.png;
#LYRICSPATH:;
#CDTITLE:;
#MUSIC:DANCE (ASS).mp3;
#OFFSET:-0.155;
#SAMPLESTART:9.155;
#SAMPLELENGTH:15.000;
#SELECTABLE:YES;
#DISPLAYBPM:80.000:320.000;
#BPMS:0.000=320.000,27.000=160.000,124.000=80.000,141.500=320.000,162.500=160.000;
#STOPS:6.000=0.188
,7.000=0.188
,8.000=0.188
,9.000=0.188
,10.000=0.188
,11.000=0.188
,12.000=0.188
,13.000=0.188
,14.000=0.188
,15.000=0.188
,16.000=0.188
,17.000=0.188
,18.000=0.188
,19.000=0.188
,20.000=0.188
,21.000=0.188
,22.000=0.188
,23.000=0.188
,24.000=0.188
,25.000=0.188
,26.000=0.188
,27.000=2.613
,141.500=0.188
,142.500=0.188
,143.500=0.188
,144.500=0.188
,145.500=0.188
,146.500=0.188
,147.500=0.188
,148.500=0.188
,149.500=0.188
,150.500=0.188
,151.500=0.188
,152.500=0.188
,153.500=0.188
,154.500=0.188
,155.500=0.188
,156.500=0.188
,157.500=0.188
,158.500=0.188
,159.500=0.188
,160.500=0.188
,161.500=0.188
,162.500=2.793
,195.000=2.500
;
#BGCHANGES:;

//---------------dance-single - Chewi----------------
#NOTES:
     dance-single:
     Chewi:
     Easy:
     5:
     0.311,0.572,0.070,0.316,0.000: // measure 1
0000
0000
0000
0000
,  // measure 2
0000
0000
1000
1000
,  // measure 3
1000
1000
1000
1000
,  // measure 4
1000
1000
1000
1000
,  // measure 5
0001
0001
0001
0001
,  // measure 6
0001
0001
0001
0001
,  // measure 7
0001
0001
0001
1001
,  // measure 8
0000
0000
0000
0001
,  // measure 9
0001
0001
0000
1000
,  // measure 10
1000
1000
0000
0001
,  // measure 11
0001
0001
0000
2000
,  // measure 12
0000
3002
0000
2003
,  // measure 13
0000
3002
0000
2003
,  // measure 14
0000
3002
0000
2003
,  // measure 15
0000
3002
0000
1003
,  // measure 16
1000
0000
0010
0000
,  // measure 17
0001
0000
0001
0000
,  // measure 18
0001
0000
0100
0000
,  // measure 19
0010
0000
0010
0000
,  // measure 20
1000
0000
0001
0000
,  // measure 21
0001
0000
1000
0000
,  // measure 22
0001
0000
1000
0000
,  // measure 23
1000
0000
0001
0000
,  // measure 24
0001
0001
0001
0001
,  // measure 25
0001
0001
0001
0001
,  // measure 26
1000
1000
1000
1000
,  // measure 27
1000
1000
1000
1000
,  // measure 28
1000
0100
0010
0001
,  // measure 29
1000
0100
0010
0001
,  // measure 30
0001
0001
1000
1000
,  // measure 31
0000
0000
0000
0000
2000
3000
0002
0003
,  // measure 32
1000
0100
0100
0010
0010
0001
0001
1000
,  // measure 33
1000
0001
0001
1000
1000
0001
0001
1000
,  // measure 34
2002
3003
0010
0000
0220
0330
0100
0000
,  // measure 35
0202
0303
1000
0000
2200
3300
0001
1000
,  // measure 36
0001
1000
0001
1000
0000
0001
0000
0001
,  // measure 37
0000
0001
0000
0001
0000
0001
0000
0001
,  // measure 38
0000
0001
0000
0001
0000
0001
0000
1000
,  // measure 39
0000
1000
0000
1000
0000
1000
0000
1000
,  // measure 40
0000
1000
0000
1000
0000
1000
0000
1000
,  // measure 41
0000
1000
0000
1000
0000
1001
0000
0000
,  // measure 42
0000
0000
1000
1000
,  // measure 43
1000
0000
0001
0001
,  // measure 44
0001
0000
1000
1000
,  // measure 45
2000
0000
3002
0000
,  // measure 46
2003
0000
3002
0000
,  // measure 47
2003
0000
3002
0000
,  // measure 48
2003
0000
3002
0000
,  // measure 49
2003
0000
0000
0000
0000
0000
0000
0000
0000
0000
0000
0000
0000
0000
0000
0000
0000
0000
0000
0000
0000
0000
0000
0000
0000
0000
0000
0000
0000
0000
0000
0000
0000
0000
0000
0000
0000
0000
0000
0000
0000
0000
0000
0000
0000
0000
0000
0000
0000
3000
0000
0000
0000
0000
0000
0000
0000
0000
0000
0000
0000
0000
0000
0000
;

//---------------dance-single - Chewi----------------
#NOTES:
     dance-single:
     Chewi:
     Medium:
     9:
     0.429,0.857,0.281,0.422,0.100: // measure 1
0000
0000
0000
0000
,  // measure 2
0000
0000
1000
1000
,  // measure 3
1000
1000
1000
0001
,  // measure 4
0001
0001
0001
0001
,  // measure 5
0010
0010
0010
0010
,  // measure 6
0010
0100
0100
0100
,  // measure 7
0100
0100
0100
0110
,  // measure 8
0000
0000
0000
0001
,  // measure 9
0001
0001
0000
1000
,  // measure 10
1000
1000
0000
0001
,  // measure 11
0001
0001
0000
1001
,  // measure 12
0000
1000
0000
1001
,  // measure 13
0000
0001
0000
1001
,  // measure 14
0000
0010
0000
1001
,  // measure 15
0000
0100
0000
1001
,  // measure 16
2000
3200
0320
0032
,  // measure 17
0013
0001
0000
0001
0010
0000
1001
0000
,  // measure 18
0002
0203
0320
2030
,  // measure 19
3010
1000
0000
1000
0010
0000
1001
0000
,  // measure 20
1000
0100
1000
0000
1001
0000
1000
0000
,  // measure 21
0001
0100
0001
0000
1001
0000
0001
0000
,  // measure 22
0001
0010
0100
0000
1000
0000
1000
0000
,  // measure 23
1000
0100
0010
0000
0001
0000
0001
0000
,  // measure 24
0002
0023
0230
2300
,  // measure 25
3002
0023
0230
2300
,  // measure 26
3002
2003
3002
2003
,  // measure 27
3020
0230
0320
0230
,  // measure 28
0310
0110
0100
0110
,  // measure 29
0010
1010
1000
1010
,  // measure 30
1000
0100
0010
0001
,  // measure 31
0000
0000
0000
0000
2000
3000
0002
0003
,  // measure 32
1000
0100
1000
0100
0000
0000
0100
0010
0100
0010
0000
0000
0010
0001
0010
0001
0000
0000
0001
1000
0001
1000
0000
0000
,  // measure 33
1000
0100
0010
0001
0000
0000
0001
0010
0100
1000
0000
0000
1000
0001
1000
0001
0000
0000
0001
1000
0001
1000
0000
0000
,  // measure 34
2002
3003
0010
0010
0220
0330
0100
0100
,  // measure 35
0202
0303
1000
1000
2200
3300
0001
0001
,  // measure 36
0001
0000
0001
1000
0001
0000
0001
0000
0000
0000
0001
0000
0000
0000
0001
0000
,  // measure 37
0000
0001
0000
0001
0000
1000
0000
1000
,  // measure 38
0000
1000
0000
1000
0000
1000
0000
0100
,  // measure 39
0000
0100
0000
0100
0000
0100
0000
0100
,  // measure 40
0000
0010
0000
0010
0000
0010
0000
0010
,  // measure 41
0000
0010
0000
0010
0000
0110
0000
0000
,  // measure 42
0000
0000
1000
1000
,  // measure 43
1000
0000
0001
0001
,  // measure 44
0001
0000
1000
1000
,  // measure 45
1000
0000
1001
0000
,  // measure 46
0001
0000
1001
0000
,  // measure 47
1000
0000
1001
0000
,  // measure 48
0100
0000
1001
0000
,  // measure 49
0010
0000
0000
0000
0000
0000
0000
0000
0000
0000
0000
0000
0000
0000
0000
0000
0000
0000
0000
0000
0000
0000
0000
0000
0000
0000
0000
0000
0000
0000
0000
0000
2002
0000
0000
0000
0000
0000
0000
0000
0000
0000
0000
0000
0000
0000
0000
0000
0000
3003
0000
0000
0000
0000
0000
0000
0000
0000
0000
0000
0000
0000
0000
0000
;

//---------------dance-single - Chewi----------------
#NOTES:
     dance-single:
     Chewi:
     Hard:
     12:
     0.558,0.915,0.809,0.188,0.135:
0000
0000
0000
0000
,
0000
0000
1100
1100
,
1100
1100
1100
0011
,
0011
0011
0011
0011
,
1001
1001
1001
1001
,
1001
1001
0110
0110
,
0110
0000
0000
0000
0000
0000
0000
0000
0000
0000
0000
0000
0000
0000
0000
0000
0110
0000
0000
0000
0000
0000
0000
0000
0000
0000
0000
0000
0000
0000
0000
0000
0110
0000
0000
0000
0000
0000
0000
0000
0000
0000
0000
0000
0000
0000
0000
0000
2020
3030
0000
0000
0000
0000
0000
0000
0000
0000
0000
0000
0000
0000
0000
0000
,
MMMM
MMMM
MMMM
1MMM
,
1MMM
1MMM
MMMM
MMM1
,
MMM1
MMM1
MMMM
1MMM
,
1MMM
1MMM
MMMM
1001
,
MMMM
0110
MMMM
1001
,
MMMM
0110
MMMM
1001
,
MMMM
0110
MMMM
1001
,
MMMM
0110
MMMM
1001
,
0001
0010
0001
0010
0001
0010
0001
0000
,
0001
1000
0000
1000
0001
0000
0101
0000
,
1000
0010
1000
0010
1000
0010
1000
0100
,
1000
0100
1000
0100
1000
0000
1100
0000
,
0001
0010
0001
0010
0001
0000
0001
1000
,
0001
1000
0001
1000
0001
0000
1000
0010
,
0100
0001
1000
0010
0100
0001
0100
0001
,
0010
0100
1000
0001
0010
0100
1000
0000
,
1000
0010
1000
0100
1000
0010
1000
0100
,
1000
0010
0100
0001
1000
0010
0100
0001
,
0010
0001
0100
0001
0010
0001
0100
0001
,
0010
0100
1000
0001
0010
0100
1000
0010
,
0100
0100
0010
0010
1000
1000
0001
0001
,
1000
1000
0100
0100
0010
0010
0001
0001
,
0001
0010
0100
1000
0001
0010
0100
1000
,
0000
0000
0000
0000
2000
3000
0002
0003
,
1000
0100
0010
0001
1000
0100
1000
0010
0100
0001
0000
0000
0100
0010
0100
0010
0000
0000
1000
0001
1000
0001
0000
0000
,
1000
0100
0010
0001
0000
0000
0001
0010
0100
1000
0000
0000
1000
0001
0100
0001
0000
0000
0001
1000
0100
1000
0000
0000
,
2002
0000
3003
0000
0010
0010
0010
0000
0220
0000
0330
0000
0100
0100
0100
0000
,
0202
0000
0303
0000
1000
1000
1000
0000
2200
0000
3300
0000
0001
0001
0001
0000
,
0001
0000
0001
1000
0001
0000
0011
0000
0000
0000
0011
0000
0000
0000
0011
0000
,
0000
0011
0000
0011
0000
1100
0000
1100
,
0000
1100
0000
1100
0000
1100
0000
1001
,
0000
1001
0000
1001
0000
1001
0000
1001
,
0000
1001
0000
0110
0000
0110
0000
0110
,
0000
0000
0000
0000
0000
0000
0000
0000
0110
0000
0000
0000
0000
0000
0000
0000
0000
0000
0000
0000
0000
0000
0000
0000
0110
0000
0000
0000
0000
0000
0000
0000
0000
0000
0000
0000
0000
0000
0000
0000
0202
0303
0000
0000
0000
0000
0000
0000
MMMM
0000
0000
0000
0000
0000
0000
0000
0000
0000
0000
0000
0000
0000
0000
0000
,
MMMM
MMMM
MMM1
MMM1
,
MMM1
MMMM
1MMM
1MMM
,
1MMM
MMMM
MMM1
MMM1
,
MMM1
MMMM
1001
MMMM
,
0110
MMMM
1001
MMMM
,
0110
MMMM
1001
MMMM
,
0110
MMMM
1001
MMMM
,
0110
0000
0000
0000
0000
0000
0000
0000
0000
0000
0000
0000
0000
0000
0000
0000
MMMM
0000
0000
0000
0000
0000
0000
0000
0000
0000
0000
0000
0000
0000
0000
0000
1001
0000
0000
0000
0000
0000
0000
0000
0000
0000
0000
0000
0000
0000
0000
0000
2002
3003
0000
0000
0000
0000
0000
0000
0000
0000
0000
0000
0000
0000
0000
0000
;
