#TITLE:Cutie pie;
#SUBTITLE:;
#ARTIST:桜井敏郎;
#TITLETRANSLIT:;
#SUBTITLETRANSLIT:;
#ARTISTTRANSLIT:TOSHIO SAKURAI;
#GENRE:;
#CREDIT:Chewi☆;
#BANNER:Cutie pie.png;
#BACKGROUND:Cutie pie-bg.png;
#LYRICSPATH:;
#CDTITLE:./CDTITLES/DanceDanceRevolution skyMIX2 -FREEDOM-.png;
#MUSIC:Cutie pie.ogg;
#OFFSET:-0.397000;
#SAMPLESTART:4.950000;
#SAMPLELENGTH:15.000000;
#SELECTABLE:YES;
#DISPLAYBPM:105.000000;
#BPMS:0.000000=105.000000
;
#STOPS:
;
#BGCHANGES:;
#KEYSOUNDS:;
#ATTACKS:;

//---------------dance-single - Chewi----------------
#NOTES:
     dance-single:
     Chewi:
     Hard:
     8:
     0.280039,0.337117,0.037457,0.224744,0.000000,136.000000,3.000000,18.000000,0.000000,0.000000,0.000000,0.280039,0.337117,0.037457,0.224744,0.000000,136.000000,3.000000,18.000000,0.000000,0.000000,0.000000:
// measure 0
0000
0000
0000
0000
,  // measure 1
0000
0000
0000
0000
,  // measure 2
0000
1000
1000
0000
0002
0000
0000
0000
,  // measure 3
0000
0013
0010
0000
0020
0000
0000
0000
,  // measure 4
0000
0031
0001
0000
0002
0000
0003
0000
,  // measure 5
0000
1000
1000
0000
2000
0000
3000
0000
,  // measure 6
0001
0000
0000
0001
0100
0010
1000
0001
,  // measure 7
0200
0000
0320
0000
,  // measure 8
1030
0100
0010
0001
0010
0100
2000
0000
,  // measure 9
3001
0101
0200
0000
,  // measure 10
0310
1000
0010
1000
0010
1000
0010
1000
,  // measure 11
0001
1000
0200
0000
0000
0000
0000
0000
,  // measure 12
0301
0001
0100
0100
,  // measure 13
0001
0100
0010
0000
1000
0000
1001
0000
,  // measure 14
0000
1000
1000
0000
2000
0000
3000
0000
,  // measure 15
0000
0001
0001
0000
0002
0000
0003
0000
,  // measure 16
0000
1000
1000
0000
2000
0000
3000
0000
,  // measure 17
0000
0010
0010
0000
0020
0000
0030
0000
,  // measure 18
0100
0100
0100
0001
0100
0010
1000
0001
,  // measure 19
0100
0010
1000
1001
,  // measure 20
1000
0100
0010
0001
0010
0000
0010
0000
,  // measure 21
0001
0010
0100
1000
0001
0000
0000
0000
,  // measure 22
1000
1000
0001
0001
,  // measure 23
0001
0100
0010
0010
0020
0000
0000
0000
,  // measure 24
1030
1000
0001
0001
,  // measure 25
1000
0100
0010
0001
0010
0100
1000
0001
,  // measure 26
0100
0010
0010
0000
0020
0000
0030
0000
,  // measure 27
0000
1000
1000
0000
2000
0000
3000
0000
,  // measure 28
0000
0001
0001
0000
0002
0000
0003
0000
,  // measure 29
0000
1000
1000
0000
2000
0000
3000
0000
,  // measure 30
0000
0010
0001
0001
,  // measure 31
0000
0100
1000
1000
,  // measure 32
1000
0100
0001
0000
0001
0000
0001
0000
,  // measure 33
0001
0010
1000
0000
0001
1000
0001
0000
;

//---------------dance-single - Chewi----------------
#NOTES:
     dance-single:
     Chewi:
     Easy:
     3:
     0.130209,0.168584,0.000000,0.137344,0.000000,62.000000,0.000000,11.000000,0.000000,0.000000,0.000000,0.130209,0.168584,0.000000,0.137344,0.000000,62.000000,0.000000,11.000000,0.000000,0.000000,0.000000:
// measure 0
0000
0000
0000
0000
,  // measure 1
0000
0000
0000
0000
,  // measure 2
1000
2000
0000
3000
,  // measure 3
0001
0002
0000
0003
,  // measure 4
0100
0200
0000
0300
,  // measure 5
0010
0020
0000
0030
,  // measure 6
1000
0000
1000
0000
,  // measure 7
0100
0000
0100
0000
,  // measure 8
0001
0000
0001
0000
,  // measure 9
0010
0000
0010
0000
,  // measure 10
2000
0000
0000
0000
,  // measure 11
0000
3001
0000
0000
,  // measure 12
0001
0000
0010
0000
,  // measure 13
1000
0000
0100
0000
,  // measure 14
0001
0002
0000
0003
,  // measure 15
1000
2000
0000
3000
,  // measure 16
0010
0020
0000
0030
,  // measure 17
0100
0200
0000
0300
,  // measure 18
0001
0000
1000
0000
,  // measure 19
0100
0000
0010
0000
,  // measure 20
1000
0000
0100
0000
,  // measure 21
0010
0000
0001
0000
,  // measure 22
1000
0000
0001
0000
,  // measure 23
1000
2000
0000
3000
,  // measure 24
1000
0000
0000
0000
,  // measure 25
0001
0000
0000
0000
,  // measure 26
0100
0000
0100
0000
,  // measure 27
0000
0010
0000
0010
,  // measure 28
0010
0000
1000
0000
,  // measure 29
0100
0000
0001
0000
,  // measure 30
0010
0000
0010
0000
,  // measure 31
0100
0000
0100
0000
,  // measure 32
0010
0010
0010
0000
,  // measure 33
1000
0000
0000
0000
0000
0000
0000
0000
0000
0000
0000
0000
0000
0000
0000
0000
0000
0000
0000
0000
0000
0000
0000
0000
0000
0000
0000
0000
0000
0000
0000
0000
0000
0000
0000
0000
0000
0000
0000
0000
0000
0000
0000
0000
0000
0000
0000
0000
0100
0000
0000
0000
0000
0000
0000
0000
0000
0000
0000
0000
0000
0000
0000
0000
0000
0000
0000
0000
0000
0000
0000
0000
0000
0000
0000
0000
0000
0000
0000
0000
0000
0000
0000
0000
0000
0000
0000
0000
0000
0000
0000
0000
0000
0000
0000
0000
0002
0000
0000
0000
0000
0000
0000
0000
0000
0000
0000
0000
0000
0000
0000
0000
0000
0000
0000
0000
0000
0000
0000
0000
0000
0000
0000
0000
0000
0000
0000
0000
0000
0000
0000
0000
0000
0000
0000
0000
0000
0000
0000
0000
0000
0000
0000
0000
0000
0003
0000
0000
0000
0000
0000
0000
0000
0000
0000
0000
0000
0000
0000
0000
0000
0000
0000
0000
0000
0000
0000
0000
0000
0000
0000
0000
0000
0000
0000
0000
0000
0000
0000
0000
0000
0000
0000
0000
0000
0000
0000
0000
0000
0000
0000
0000
;

//---------------dance-single - Chewi----------------
#NOTES:
     dance-single:
     Chewi:
     Medium:
     6:
     0.231879,0.252837,0.049943,0.199773,0.000000,110.000000,4.000000,16.000000,0.000000,0.000000,0.000000,0.231879,0.252837,0.049943,0.199773,0.000000,110.000000,4.000000,16.000000,0.000000,0.000000,0.000000:
// measure 0
0000
0000
0000
0000
,  // measure 1
0000
0000
0000
0000
,  // measure 2
0000
1000
0000
0000
0002
0000
0000
0000
,  // measure 3
0000
1003
0000
0000
0020
0000
0000
0000
,  // measure 4
0000
0130
0000
0000
0200
0000
0000
0000
,  // measure 5
0000
0310
0000
0000
0020
0000
0000
0000
,  // measure 6
1030
0000
1000
0100
,  // measure 7
0001
0010
2000
0000
,  // measure 8
3001
0000
0001
0000
0002
0000
0000
0003
,  // measure 9
0100
0000
0010
0100
0020
0000
0000
0000
,  // measure 10
1030
1010
0010
0010
,  // measure 11
0100
0002
0000
0000
,  // measure 12
1003
0100
1000
0000
0100
0000
0001
0000
,  // measure 13
0010
1000
0001
0000
,  // measure 14
1000
0001
0000
0000
0020
0000
0030
0000
,  // measure 15
1000
0010
0000
0000
0020
0000
0030
0000
,  // measure 16
0010
1000
0000
0000
2000
0000
3000
0000
,  // measure 17
1000
0001
0000
0000
0002
0000
0003
0000
,  // measure 18
0100
0100
0100
0000
0010
0000
1000
0000
,  // measure 19
0100
0001
0001
0000
,  // measure 20
0010
0010
0010
0000
0010
0000
1010
0000
,  // measure 21
1000
1000
1000
0000
1000
0000
0000
0000
,  // measure 22
0001
0001
1000
1000
,  // measure 23
1000
0100
0001
0000
0000
0000
0000
0000
,  // measure 24
0010
0010
1000
1000
,  // measure 25
0001
1000
0001
1001
,  // measure 26
0000
1000
1000
0000
2000
0000
3000
0000
,  // measure 27
0000
0010
0010
0000
0020
0000
0030
0000
,  // measure 28
0000
0100
0100
0000
0200
0000
0300
0000
,  // measure 29
0000
0010
0010
0000
0020
0000
0030
0000
,  // measure 30
1000
1000
1000
0000
0001
0000
1000
0000
,  // measure 31
0100
0001
0010
1000
,  // measure 32
0001
1000
0001
1001
,  // measure 33
1000
0000
1000
1000
0001
1000
0001
0000
;

//---------------dance-single - Chewi----------------
#NOTES:
     dance-single:
     Chewi:
     Beginner:
     1:
     0.083833,0.104569,0.000000,0.000000,0.000000,47.000000,0.000000,0.000000,0.000000,0.000000,0.000000,0.083833,0.104569,0.000000,0.000000,0.000000,47.000000,0.000000,0.000000,0.000000,0.000000,0.000000:
// measure 0
0000
0000
0000
0000
,  // measure 1
0000
0000
0000
0000
,  // measure 2
1000
0000
0000
0000
,  // measure 3
0001
0000
0000
0000
,  // measure 4
0001
0000
0000
0000
,  // measure 5
1000
0000
0000
0000
,  // measure 6
1000
0000
0000
0000
,  // measure 7
0100
0000
0000
0000
,  // measure 8
1000
0000
1000
0000
,  // measure 9
1000
0000
0000
0000
,  // measure 10
0001
0000
0100
0000
,  // measure 11
0010
0000
1000
0000
,  // measure 12
1000
0000
0000
0000
,  // measure 13
0001
0000
0000
0000
,  // measure 14
1000
0000
0000
0000
,  // measure 15
0100
0000
0000
0000
,  // measure 16
0010
0000
0000
0000
,  // measure 17
0001
0000
0100
0000
,  // measure 18
0010
0000
1000
0000
,  // measure 19
1000
0000
0001
0000
,  // measure 20
0001
0000
1000
0000
,  // measure 21
0010
0000
0010
0000
,  // measure 22
0010
0000
0100
0000
,  // measure 23
0001
0000
0000
0000
,  // measure 24
1000
0000
1000
0000
,  // measure 25
1000
0000
0000
0000
,  // measure 26
0010
0000
0001
0000
,  // measure 27
0000
1000
0000
0010
,  // measure 28
0000
0100
0000
0100
,  // measure 29
0000
0001
0000
0001
,  // measure 30
0000
1000
0000
0000
,  // measure 31
0000
1000
0000
0000
,  // measure 32
0000
0001
0000
0000
,  // measure 33
0000
0001
0001
0000
;
