#VERSION:0.83;
#TITLE:キューティーハニー;
#SUBTITLE:;
#ARTIST:倖田來未;
#TITLETRANSLIT:Cutie Honey;
#SUBTITLETRANSLIT:;
#ARTISTTRANSLIT:Kumi Koda;
#GENRE:Pop;
#ORIGIN:;
#CREDIT:chewi;
#BANNER:Cutie Honey.png;
#BACKGROUND:Cutie Honey-bg.png;
#PREVIEWVID:;
#JACKET:Cutie Honey-jacket.png;
#CDIMAGE:;
#DISCIMAGE:;
#LYRICSPATH:;
#CDTITLE:cdtitle.png;
#MUSIC:Cutie Honey.ogg;
#OFFSET:-0.003626;
#SAMPLESTART:24.391001;
#SAMPLELENGTH:15.000000;
#SELECTABLE:YES;
#BPMS:0.000=155.000;
#STOPS:96.000=0.387,
97.000=0.387,
98.000=0.387,
106.000=0.774,
211.000=0.387,
212.000=0.387,
213.000=0.387,
221.000=0.774,
230.000=1.161;
#DELAYS:;
#WARPS:;
#TIMESIGNATURES:0.000=4=4;
#TICKCOUNTS:0.000=4;
#COMBOS:0.000=1;
#SPEEDS:0.000=1.000=0.000=0;
#SCROLLS:0.000=1.000;
#FAKES:;
#LABELS:0.000=Song Start;
#BGCHANGES:0.000=Cutie Honey.avi=1.000=1=0=1===CrossFade==,
99999=-nosongbg-=1.000=0=0=0 // don't automatically add -songbackground-
;
#KEYSOUNDS:;
#ATTACKS:
;

//---------------dance-single - chewi----------------
#NOTEDATA:;
#CHARTNAME:chewi;
#STEPSTYPE:dance-single;
#DESCRIPTION:chewi;
#CHARTSTYLE:;
#DIFFICULTY:Hard;
#METER:11;
#RADARVALUES:0.488331,0.524501,0.342811,0.656239,0.048973,349.000000,314.000000,35.000000,67.000000,0.000000,0.000000,0.000000,0.000000,0.000000,0.488331,0.524501,0.342811,0.656239,0.048973,349.000000,314.000000,35.000000,67.000000,0.000000,0.000000,0.000000,0.000000,0.000000;
#CREDIT:chewi;
#NOTES:
// measure 0
0000
0000
0000
0000
,  // measure 1
0000
0000
0000
0000
,  // measure 2
0000
0000
0000
0000
,  // measure 3
0000
0000
0000
0000
,  // measure 4
0010
0000
0001
0000
1000
0000
0100
0000
0000
1000
0000
0100
1000
0000
0100
0000
,  // measure 5
0010
0010
0002
2000
0000
0000
0000
3003
,  // measure 6
0010
0010
0001
0010
0001
1000
0100
0000
,  // measure 7
0020
0000
0031
0000
1000
1100
0000
0000
,  // measure 8
0100
0100
0001
0100
0001
1000
0010
0000
,  // measure 9
0200
0000
0301
0000
1000
1010
0000
0000
,  // measure 10
0010
0001
0010
0001
0100
0001
0100
0001
,  // measure 11
1000
0010
1000
0010
1000
0100
1000
0100
,  // measure 12
0010
0001
1000
0001
0010
0000
1001
0000
,  // measure 13
0010
1000
0001
1000
0010
0000
1001
0000
,  // measure 14
0100
0010
1000
0001
1000
0010
0100
0001
,  // measure 15
1000
0100
0000
1001
0000
0101
1000
1000
,  // measure 16
1020
0000
2030
0010
0001
0000
3100
0000
,  // measure 17
0021
0000
0031
0010
0002
1000
0103
0000
,  // measure 18
1200
0000
2300
0100
0001
0000
3010
0000
,  // measure 19
0201
0000
0301
0100
0002
1000
0013
0000
,  // measure 20
0020
0032
2003
3200
,  // measure 21
2300
3002
0203
0310
,  // measure 22
2010
0010
3001
0000
1002
1000
0103
0000
,  // measure 23
0012
0010
1003
0000
2001
0001
3100
0000
,  // measure 24
0020
0030
0000
0000
0000
0000
0000
0000
0000
0000
0000
0000
0000
0000
0000
0000
0000
0000
0000
0000
0000
0000
0000
0000
0000
0000
0000
0000
0000
0000
0000
0000
0000
0000
0000
0000
0000
0000
0000
0000
0000
0000
0000
0000
0000
0000
0000
0000
0002
0003
0000
0000
0000
0000
0000
0000
0000
0000
0000
0000
0000
0000
0000
0000
0000
0000
0000
0000
0000
0000
0000
0000
0000
0000
0000
0000
0000
0000
0000
0000
0000
0000
0000
0000
0000
0000
0000
0000
0000
0000
0000
0000
0000
0000
0000
0000
2000
3000
0000
0000
0000
0000
0000
0000
0000
0000
0000
0000
0000
0000
0000
0000
0000
0000
0000
0000
0000
0000
0000
0000
0000
0000
0000
0000
0000
0000
0000
0000
0000
0000
0000
0000
0000
0000
0000
0000
0000
0000
0000
0000
0000
0000
0000
0000
0100
0000
0000
0000
0000
0000
0000
0000
0000
0000
0000
0000
0000
0000
0000
0000
1000
0000
0000
0000
0000
0000
0000
0000
0000
0000
0000
0000
0000
0000
0000
0000
0100
0000
0000
0000
0000
0000
0000
0000
0000
0000
0000
0000
0000
0000
0000
0000
,  // measure 25
1000
0002
0013
2000
,  // measure 26
3100
0000
0000
0000
0000
0000
0000
0000
0000
0000
0000
0000
0000
0000
0000
0000
0000
0000
0000
0000
0000
0000
0000
0000
0000
0000
0000
0000
0000
0000
0000
0000
0000
0000
0000
0000
0000
0000
0000
0000
0000
0000
0000
0000
0000
0000
0000
0000
1001
0000
0000
0000
0000
0000
0000
0000
0000
0000
0000
0000
0000
0000
0000
0000
0000
0000
0000
0000
0000
0000
0000
0000
1001
0000
0000
0000
0000
0000
0000
0000
0000
0000
0000
0000
0000
0000
0000
0000
0000
0000
0000
0000
0000
0000
0000
0000
2002
3003
0000
0000
0000
0000
0000
0000
0000
0000
0000
0000
0000
0000
0000
0000
0000
0000
0000
0000
0000
0000
0000
0000
0000
0000
0000
0000
0000
0000
0000
0000
0000
0000
0000
0000
0000
0000
0000
0000
0000
0000
0000
0000
0000
0000
0000
0000
0010
0000
0000
0000
0000
0000
0000
0000
0000
0000
0000
0000
0000
0000
0000
0000
0000
0000
0000
0000
0000
0000
0000
0000
0002
0000
0000
0000
0000
0000
0000
0000
0000
0000
0000
0000
0000
0000
0000
0000
0000
0000
0000
0000
0000
0000
0000
0000
,  // measure 27
0000
2003
0000
3001
1000
0100
0010
0100
,  // measure 28
0010
0001
1000
0001
1000
0100
0010
0100
,  // measure 29
0010
0000
0000
0000
0010
0000
0000
0010
0000
0000
0010
0000
0001
0000
1000
0000
,  // measure 30
0100
1000
0001
0100
0001
0001
1000
0100
,  // measure 31
1000
0000
0000
0000
1000
0000
0000
1000
0000
0000
1000
0000
0001
0000
0010
0000
,  // measure 32
0100
1000
0001
0010
0100
1000
0010
1000
,  // measure 33
0001
0000
0100
0000
0000
0001
0000
0100
0001
0000
0100
0000
0010
0000
0010
0000
,  // measure 34
2000
0002
0000
0000
3003
0000
0010
0010
,  // measure 35
1000
0010
1000
0001
0100
0000
0020
0000
,  // measure 36
1030
0000
0001
0101
0000
0000
0100
0100
,  // measure 37
1000
0100
1000
0001
0010
0000
0200
0000
,  // measure 38
1300
0000
0001
0011
0000
0000
0010
1000
,  // measure 39
0010
1000
0100
1000
0100
1000
0001
0010
,  // measure 40
0001
0010
0001
0100
0001
0100
0010
1000
,  // measure 41
0001
1000
0010
0000
1001
0000
0010
0001
,  // measure 42
1000
0001
0010
0000
1001
0000
0010
0100
,  // measure 43
0001
1000
0001
0100
0010
1000
0001
0010
,  // measure 44
0000
1001
0000
1100
0001
0001
0021
0000
,  // measure 45
0032
0010
1000
0000
0103
0000
1020
0000
,  // measure 46
1030
0010
2000
0001
3100
0000
0201
0000
,  // measure 47
0302
0100
1000
0000
0013
0000
1200
0000
,  // measure 48
1300
0100
2000
0001
3010
0000
0020
0000
,  // measure 49
2030
3002
0203
0302
,  // measure 50
2003
0000
3200
0000
0310
0000
0012
0010
,  // measure 51
1003
0000
2001
0001
3100
0000
2010
0010
,  // measure 52
3001
0000
0000
0000
0000
0000
0000
0000
0000
0000
0000
0000
0000
0000
0000
0000
0000
0000
0000
0000
0000
0000
0000
0000
0000
0000
0000
0000
0000
0000
0000
0000
0000
0000
0000
0000
0000
0000
0000
0000
0000
0000
0000
0000
0000
0000
0000
0000
1002
0000
0000
0000
0000
0000
0000
0000
0000
0000
0000
0000
0000
0000
0000
0000
0000
0000
0000
0000
0000
0000
0000
0000
1000
0000
0000
0000
0000
0000
0000
0000
0000
0000
0000
0000
0000
0000
0000
0000
0000
0000
0000
0000
0000
0000
0000
0000
0103
0000
0000
0000
0000
0000
0000
0000
0000
0000
0000
0000
0000
0000
0000
0000
0000
0000
0000
0000
0000
0000
0000
0000
0000
0000
0000
0000
0000
0000
0000
0000
0000
0000
0000
0000
0000
0000
0000
0000
0000
0000
0000
0000
0000
0000
0000
0000
0020
0030
0000
0000
0000
0000
0000
0000
0000
0000
0000
0000
0000
0000
0000
0000
0000
0000
0000
0000
0000
0000
0000
0000
0000
0000
0000
0000
0000
0000
0000
0000
0000
0000
0000
0000
0000
0000
0000
0000
0000
0000
0000
0000
0000
0000
0000
0000
,  // measure 53
2000
3000
0000
0000
0000
0000
0000
0000
0000
0000
0000
0000
0000
0000
0000
0000
0000
0000
0000
0000
0000
0000
0000
0000
0000
0000
0000
0000
0000
0000
0000
0000
0000
0000
0000
0000
0000
0000
0000
0000
0000
0000
0000
0000
0000
0000
0000
0000
0002
0003
0000
0000
0000
0000
0000
0000
0000
0000
0000
0000
0000
0000
0000
0000
0000
0000
0000
0000
0000
0000
0000
0000
0000
0000
0000
0000
0000
0000
0000
0000
0000
0000
0000
0000
0000
0000
0000
0000
0000
0000
0000
0000
0000
0000
0000
0000
0100
0000
0000
0000
0000
0000
0000
0000
0000
0000
0000
0000
0000
0000
0000
0000
0001
0000
0000
0000
0000
0000
0000
0000
0000
0000
0000
0000
0000
0000
0000
0000
0100
0000
0000
0000
0000
0000
0000
0000
0000
0000
0000
0000
0000
0000
0000
0000
0001
0000
0000
0000
0000
0000
0000
0000
0000
0000
0000
0000
0000
0000
0000
0000
0000
0000
0000
0000
0000
0000
0000
0000
0000
0000
0000
0000
0000
0000
0000
0000
0000
0000
0000
0000
0000
0000
0000
0000
0000
0000
0000
0000
0000
0000
0000
0000
,  // measure 54
2000
3010
0002
0013
,  // measure 55
1001
0000
0000
0000
0000
0000
0000
0000
0000
0000
0000
0000
0000
0000
0000
0000
0000
0000
0000
0000
0000
0000
0000
0000
1001
0000
0000
0000
0000
0000
0000
0000
0000
0000
0000
0000
0000
0000
0000
0000
0000
0000
0000
0000
0000
0000
0000
0000
2002
3003
0000
0000
0000
0000
0000
0000
0000
0000
0000
0000
0000
0000
0000
0000
0000
0000
0000
0000
0000
0000
0000
0000
0000
0000
0000
0000
0000
0000
0000
0000
0000
0000
0000
0000
0000
0000
0000
0000
0000
0000
0000
0000
0000
0000
0000
0000
0010
0000
0000
0000
0000
0000
0000
0000
0000
0000
0000
0000
0000
0000
0000
0000
0000
0000
0000
0000
0000
0000
0000
0000
2000
0000
0000
0000
0000
0000
0000
0000
0000
0000
0000
0000
0000
0000
0000
0000
0000
0000
0000
0000
0000
0000
0000
0000
0000
0000
0000
0000
0000
0000
0000
0000
0000
0000
0000
0000
0000
0000
0000
0000
0000
0000
0000
0000
0000
0000
0000
0000
3002
0000
0000
0000
0000
0000
0000
0000
0000
0000
0000
0000
0000
0000
0000
0000
0000
0000
0000
0000
0000
0000
0000
0000
,  // measure 56
0000
1003
0001
0100
0020
0000
0000
0000
,  // measure 57
0000
0030
0000
2002
,  // measure 58
0000
0000
0000
0000
,  // measure 59
0000
0000
3003
0000
;

//---------------dance-single - ----------------
#NOTEDATA:;
#CHARTNAME:;
#STEPSTYPE:dance-single;
#DESCRIPTION:;
#CHARTSTYLE:;
#DIFFICULTY:Medium;
#METER:8;
#RADARVALUES:0.386187,0.466223,0.430963,0.626855,0.039178,276.000000,232.000000,44.000000,64.000000,0.000000,0.000000,0.000000,0.000000,0.000000,0.386187,0.466223,0.430963,0.626855,0.039178,276.000000,232.000000,44.000000,64.000000,0.000000,0.000000,0.000000,0.000000,0.000000;
#CREDIT:;
#NOTES:
0000
0000
0000
0000
,
0000
0000
0000
0000
,
0000
0000
0000
0000
,
0000
0000
0000
0000
,
0010
0000
0001
0000
1000
0000
0100
0000
0000
1000
0000
0000
0001
0000
0100
0000
,
0010
0000
2000
0002
0000
0000
3003
0000
,
0010
0001
1000
0101
,
0010
0000
1000
0000
0001
1000
0100
0000
,
0100
1000
0001
1010
,
0100
0000
0001
0000
1000
0001
0010
0000
,
0010
0010
0100
0100
,
1000
1000
0001
0001
,
0010
0001
1000
0000
0010
0000
1001
0000
,
0010
1000
0001
0000
0010
0000
1001
0000
,
0110
1001
0110
1001
,
0100
0010
0000
1000
0000
1001
0000
0000
,
2020
0030
0001
3100
,
0022
0000
0030
0010
1000
0000
0103
0000
,
2200
0300
0001
3010
,
0202
0000
0300
0100
1000
0000
0013
0000
,
0020
0030
0002
0003
2000
3000
0200
0300
,
2000
3000
0002
0003
0020
0030
0200
0300
,
0012
1003
2001
3100
,
2010
3001
1002
0103
,
0020
0030
0000
0000
0000
0000
0000
0000
0000
0000
0000
0000
0000
0000
0000
0000
0000
0000
0000
0000
0000
0000
0000
0000
0000
0000
0000
0000
0000
0000
0000
0000
0000
0000
0000
0000
0000
0000
0000
0000
0000
0000
0000
0000
0000
0000
0000
0000
0002
0003
0000
0000
0000
0000
0000
0000
0000
0000
0000
0000
0000
0000
0000
0000
0000
0000
0000
0000
0000
0000
0000
0000
0000
0000
0000
0000
0000
0000
0000
0000
0000
0000
0000
0000
0000
0000
0000
0000
0000
0000
0000
0000
0000
0000
0000
0000
2000
3000
0000
0000
0000
0000
0000
0000
0000
0000
0000
0000
0000
0000
0000
0000
0000
0000
0000
0000
0000
0000
0000
0000
0000
0000
0000
0000
0000
0000
0000
0000
0000
0000
0000
0000
0000
0000
0000
0000
0000
0000
0000
0000
0000
0000
0000
0000
0001
0000
0000
0000
0000
0000
0000
0000
0000
0000
0000
0000
0000
0000
0000
0000
1000
0000
0000
0000
0000
0000
0000
0000
0000
0000
0000
0000
0000
0000
0000
0000
0001
0000
0000
0000
0000
0000
0000
0000
0000
0000
0000
0000
0000
0000
0000
0000
,
1000
0012
0103
2010
,
3100
0000
0000
0000
0000
0000
0000
0000
0000
0000
0000
0000
0000
0000
0000
0000
0000
0000
0000
0000
0000
0000
0000
0000
0000
0000
0000
0000
0000
0000
0000
0000
0000
0000
0000
0000
0000
0000
0000
0000
0000
0000
0000
0000
0000
0000
0000
0000
1001
0000
0000
0000
0000
0000
0000
0000
0000
0000
0000
0000
0000
0000
0000
0000
0000
0000
0000
0000
0000
0000
0000
0000
0000
0000
0000
0000
0000
0000
0000
0000
0000
0000
0000
0000
0000
0000
0000
0000
0000
0000
0000
0000
0000
0000
0000
0000
2002
3003
0000
0000
0000
0000
0000
0000
0000
0000
0000
0000
0000
0000
0000
0000
0000
0000
0000
0000
0000
0000
0000
0000
0000
0000
0000
0000
0000
0000
0000
0000
0000
0000
0000
0000
0000
0000
0000
0000
0000
0000
0000
0000
0000
0000
0000
0000
0010
0000
0000
0000
0000
0000
0000
0000
0000
0000
0000
0000
0000
0000
0000
0000
0000
0000
0000
0000
0000
0000
0000
0000
0002
0000
0000
0000
0000
0000
0000
0000
0000
0000
0000
0000
0000
0000
0000
0000
0000
0000
0000
0000
0000
0000
0000
0000
,
0000
2003
0000
3001
1000
0100
0010
0000
,
0001
0100
1000
0010
,
0100
0000
0000
0000
0010
0000
0000
0010
0000
0000
0010
0000
0000
0000
0000
0000
,
1000
1100
0001
0101
,
1000
0000
0000
0000
0001
0000
0000
0001
0000
0000
0001
0000
1000
0000
0000
0000
,
0010
0000
0001
0000
0100
0000
0010
1000
,
0001
0000
0010
0000
0000
0100
0000
0000
1000
0000
0100
0000
0010
0000
0000
0000
,
0002
2000
0000
0000
3003
0000
0010
0000
,
1000
0001
1100
0010
,
0001
0000
1000
0001
0100
0000
0100
0000
,
0001
1000
0011
0100
,
1000
0000
0001
1000
0010
0000
0010
0000
,
0010
0100
0100
0001
,
0001
0000
1000
0000
1000
0000
0010
1000
,
0001
0000
0010
0000
1001
0000
0010
0001
,
1000
0010
1001
0110
,
1001
0000
0110
0000
1001
0000
0100
0010
,
0000
1000
0000
0001
0000
0000
0022
0000
,
0030
1000
0103
2020
,
0030
0010
0001
0000
3100
0000
0202
0000
,
0300
1000
0013
2200
,
0300
0100
0001
3000
0010
0000
0020
0030
,
2000
3000
0002
0003
0200
0300
0002
0003
,
2000
3000
0020
0030
0200
0300
2010
0000
,
3001
1002
0103
0012
,
1003
0000
0000
0000
0000
0000
0000
0000
0000
0000
0000
0000
0000
0000
0000
0000
0000
0000
0000
0000
0000
0000
0000
0000
0000
0000
0000
0000
0000
0000
0000
0000
0000
0000
0000
0000
0000
0000
0000
0000
0000
0000
0000
0000
0000
0000
0000
0000
2001
0000
0000
0000
0000
0000
0000
0000
0000
0000
0000
0000
0000
0000
0000
0000
0000
0000
0000
0000
0000
0000
0000
0000
0000
0000
0000
0000
0000
0000
0000
0000
0000
0000
0000
0000
0000
0000
0000
0000
0000
0000
0000
0000
0000
0000
0000
0000
3100
0000
0000
0000
0000
0000
0000
0000
0000
0000
0000
0000
0000
0000
0000
0000
0000
0000
0000
0000
0000
0000
0000
0000
0000
0000
0000
0000
0000
0000
0000
0000
0000
0000
0000
0000
0000
0000
0000
0000
0000
0000
0000
0000
0000
0000
0000
0000
0020
0030
0000
0000
0000
0000
0000
0000
0000
0000
0000
0000
0000
0000
0000
0000
0000
0000
0000
0000
0000
0000
0000
0000
0000
0000
0000
0000
0000
0000
0000
0000
0000
0000
0000
0000
0000
0000
0000
0000
0000
0000
0000
0000
0000
0000
0000
0000
,
2000
3000
0000
0000
0000
0000
0000
0000
0000
0000
0000
0000
0000
0000
0000
0000
0000
0000
0000
0000
0000
0000
0000
0000
0000
0000
0000
0000
0000
0000
0000
0000
0000
0000
0000
0000
0000
0000
0000
0000
0000
0000
0000
0000
0000
0000
0000
0000
0002
0003
0000
0000
0000
0000
0000
0000
0000
0000
0000
0000
0000
0000
0000
0000
0000
0000
0000
0000
0000
0000
0000
0000
0000
0000
0000
0000
0000
0000
0000
0000
0000
0000
0000
0000
0000
0000
0000
0000
0000
0000
0000
0000
0000
0000
0000
0000
1000
0000
0000
0000
0000
0000
0000
0000
0000
0000
0000
0000
0000
0000
0000
0000
0001
0000
0000
0000
0000
0000
0000
0000
0000
0000
0000
0000
0000
0000
0000
0000
1000
0000
0000
0000
0000
0000
0000
0000
0000
0000
0000
0000
0000
0000
0000
0000
0001
0000
0000
0000
0000
0000
0000
0000
0000
0000
0000
0000
0000
0000
0000
0000
0000
0000
0000
0000
0000
0000
0000
0000
0000
0000
0000
0000
0000
0000
0000
0000
0000
0000
0000
0000
0000
0000
0000
0000
0000
0000
0000
0000
0000
0000
0000
0000
,
2010
3100
0012
0103
,
1001
0000
0000
0000
0000
0000
0000
0000
0000
0000
0000
0000
0000
0000
0000
0000
0000
0000
0000
0000
0000
0000
0000
0000
0000
0000
0000
0000
0000
0000
0000
0000
0000
0000
0000
0000
0000
0000
0000
0000
0000
0000
0000
0000
0000
0000
0000
0000
2002
3003
0000
0000
0000
0000
0000
0000
0000
0000
0000
0000
0000
0000
0000
0000
0000
0000
0000
0000
0000
0000
0000
0000
0000
0000
0000
0000
0000
0000
0000
0000
0000
0000
0000
0000
0000
0000
0000
0000
0000
0000
0000
0000
0000
0000
0000
0000
0010
0000
0000
0000
0000
0000
0000
0000
0000
0000
0000
0000
0000
0000
0000
0000
0000
0000
0000
0000
0000
0000
0000
0000
0002
0000
0000
0000
0000
0000
0000
0000
0000
0000
0000
0000
0000
0000
0000
0000
0000
0000
0000
0000
0000
0000
0000
0000
0000
0000
0000
0000
0000
0000
0000
0000
0000
0000
0000
0000
0000
0000
0000
0000
0000
0000
0000
0000
0000
0000
0000
0000
2003
0000
0000
0000
0000
0000
0000
0000
0000
0000
0000
0000
0000
0000
0000
0000
0000
0000
0000
0000
0000
0000
0000
0000
,
0000
3001
1000
0100
0010
0000
0001
0000
,
0100
1000
0000
0220
,
0000
0000
0000
0000
,
0000
0000
0330
0000
;

//---------------dance-single - ----------------
#NOTEDATA:;
#CHARTNAME:;
#STEPSTYPE:dance-single;
#DESCRIPTION:;
#CHARTSTYLE:;
#DIFFICULTY:Easy;
#METER:5;
#RADARVALUES:0.221078,0.262251,0.039178,0.127330,0.000000,158.000000,154.000000,4.000000,13.000000,0.000000,0.000000,0.000000,0.000000,0.000000,0.221078,0.262251,0.039178,0.127330,0.000000,158.000000,154.000000,4.000000,13.000000,0.000000,0.000000,0.000000,0.000000,0.000000;
#CREDIT:;
#NOTES:
0000
0000
0000
0000
,
0000
0000
0000
0000
,
0000
0000
0000
0000
,
0000
0000
0000
0000
,
0001
0100
0000
1000
,
0010
0001
0000
0000
,
0010
0001
1000
0000
,
0010
1000
0001
1000
,
0100
1000
0001
0000
,
0100
0001
1000
0010
,
0010
0010
0100
0100
,
0001
0001
1000
1000
,
0010
0000
0010
0000
,
0100
0000
0100
0000
,
0010
1000
0001
0000
,
1000
0000
1001
0000
,
2000
3000
0001
1000
,
0002
0003
1000
0001
,
2000
3000
0001
1000
,
0002
0003
1000
0001
,
0010
0000
0001
0100
,
0001
0000
1000
0100
,
1000
0000
0001
0000
,
1000
0001
1000
0001
,
0010
0001
1000
0200
,
0300
0020
0000
0000
,
0030
0001
1001
0010
,
0000
0001
0000
0100
,
0000
1000
0000
0010
,
0000
0100
0000
0001
,
1000
0100
0000
0100
,
0000
0010
0000
0010
,
0001
1000
0000
1000
,
0100
0000
0001
0010
,
1000
0000
0000
0100
,
1000
0001
0000
0100
,
0001
1000
0001
0010
,
0001
1000
0000
0010
,
1000
0001
0100
0100
,
0100
0010
0010
1000
,
1000
0001
0001
0100
,
0000
0100
0000
0010
,
0000
0010
0000
0100
,
0001
1000
0000
0001
,
0000
1001
0000
0002
,
0003
1000
0001
2000
,
3000
0001
1000
0002
,
0003
1000
0001
2000
,
3000
0001
1000
0100
,
0000
1000
0010
1000
,
0000
0001
0010
0001
,
0000
1000
0000
0001
,
1000
0001
1000
0100
,
1000
0001
0020
0030
,
0200
0000
0000
0300
,
1000
1001
1000
0010
,
0000
0001
0100
1000
,
0000
0000
0000
0020
,
0000
0000
0000
0000
,
0000
0000
0030
0000
;

//---------------dance-single - ----------------
#NOTEDATA:;
#CHARTNAME:;
#STEPSTYPE:dance-single;
#DESCRIPTION:;
#CHARTSTYLE:;
#DIFFICULTY:Beginner;
#METER:2;
#RADARVALUES:0.095148,0.145695,0.009795,0.097946,0.000000,68.000000,67.000000,1.000000,10.000000,0.000000,0.000000,0.000000,0.000000,0.000000,0.095148,0.145695,0.009795,0.097946,0.000000,68.000000,67.000000,1.000000,10.000000,0.000000,0.000000,0.000000,0.000000,0.000000;
#CREDIT:;
#NOTES:
0000
0000
0000
0000
,
0000
0000
0000
0000
,
0000
0000
0000
0000
,
0000
0000
0000
0000
,
0001
0000
0000
0000
,
1000
0000
0000
0000
,
0010
0000
0000
0000
,
0010
0000
0000
0000
,
0100
0000
0000
0000
,
0100
0000
0000
0000
,
0010
0000
0000
0000
,
0001
0000
0000
0000
,
0010
0000
0000
0000
,
1000
0000
0000
0000
,
0010
0000
0000
0000
,
0100
0000
0000
0000
,
0002
0000
0000
0003
,
0002
0000
0000
0003
,
0001
0000
0001
0000
,
0001
0000
0000
0000
,
2000
0000
0000
3000
,
2000
0000
0000
3000
,
1000
0000
1000
0000
,
1000
0000
0000
0000
,
1000
0001
1000
0001
,
0000
1000
0000
0000
,
0000
0001
0001
0010
,
0000
0000
0000
0100
,
0000
0000
0000
0010
,
0000
0000
0000
0001
,
0000
0000
0000
0100
,
0000
0000
0000
0010
,
0000
0000
0000
1000
,
0000
0000
0000
0001
,
0000
0000
0000
0100
,
0000
0000
0000
0100
,
0000
0000
0000
0010
,
0000
0000
0000
0010
,
0000
0000
0000
0100
,
0000
0000
0000
1000
,
0000
0000
0000
0100
,
0000
0000
0000
0001
,
0000
0000
0000
0100
,
0000
0000
0000
0010
,
0000
0000
0000
2000
,
0000
0000
3000
2000
,
0000
0000
3000
1000
,
0000
1000
0000
1000
,
0000
0000
0000
0002
,
0000
0000
0003
0002
,
0000
0000
0003
0001
,
0000
0001
0000
0001
,
0000
0000
0000
0001
,
1000
0001
1000
0000
,
0001
0000
0000
0000
,
1000
1000
0100
0000
,
0000
0000
0010
0000
,
0000
0000
0000
0220
,
0000
0000
0000
0000
,
0000
0000
0330
0000
;
