#TITLE:Crazy in Love;
#SUBTITLE:;
#ARTIST:wg feat. Indra J;
#TITLETRANSLIT:;
#SUBTITLETRANSLIT:;
#ARTISTTRANSLIT:;
#CREDIT:Chewi☆;
#BANNER:Crazy in Love.png;
#BACKGROUND:Crazy in Love-bg.png;
#LYRICSPATH:;
#CDTITLE:;
#MUSIC:Crazy in Love.mp3;
#OFFSET:-0.082;
#SAMPLESTART:24.263;
#SAMPLELENGTH:15.000;
#SELECTABLE:YES;
#DISPLAYBPM:99.000;
#BPMS:0.000=99.260;
#STOPS:;
#BGCHANGES:0.000=Crazy in Love.avi=1.000=1=0=0,
164.000=Crazy in Love-bg.png=1.000=0=0=1,
99999=-nosongbg-=1.000=0=0=0 // don't automatically add -songbackground-
;

//---------------dance-single - Chewi----------------
#NOTES:
     dance-single:
     Chewi:
     Beginner:
     1:
     0.080,0.099,0.000,0.079,0.000: // measure 1
0000
0000
0000
0000
,  // measure 2
0000
0000
0000
0000
,  // measure 3
1000
0000
0000
0000
,  // measure 4
1000
0000
0000
0000
,  // measure 5
0010
0000
0000
0000
,  // measure 6
0010
0000
0000
0000
,  // measure 7
1000
0000
0000
0000
,  // measure 8
0010
0000
0000
0000
,  // measure 9
0010
0000
0000
0000
,  // measure 10
0001
0000
0000
0000
,  // measure 11
2000
0000
0000
3000
,  // measure 12
0002
0000
0000
0003
,  // measure 13
2000
0000
0000
3000
,  // measure 14
0002
0000
0000
0003
,  // measure 15
0100
0000
0100
0000
,  // measure 16
0010
0000
0010
0000
,  // measure 17
1000
0000
1000
0000
,  // measure 18
0001
0000
0001
0000
,  // measure 19
0001
0000
0000
0000
,  // measure 20
0100
0000
0000
0000
,  // measure 21
0100
0000
0000
0000
,  // measure 22
1000
0000
0000
0000
,  // measure 23
0010
0000
0000
0000
,  // measure 24
0001
0000
0000
0000
,  // measure 25
0010
0000
0000
0000
,  // measure 26
1000
0000
0000
0000
,  // measure 27
0001
0000
0000
0000
,  // measure 28
0010
0000
0000
0000
,  // measure 29
0010
0000
0000
0000
,  // measure 30
1000
0000
0000
0000
,  // measure 31
0020
0000
0000
0030
,  // measure 32
0200
0000
0000
0300
,  // measure 33
0020
0000
0000
0030
,  // measure 34
0200
0000
0000
0300
,  // measure 35
1000
0000
1000
0000
,  // measure 36
0100
0000
0100
0000
,  // measure 37
0001
0000
0001
0000
,  // measure 38
0010
0000
0010
0000
,  // measure 39
1000
0000
0001
0000
,  // measure 40
1000
0000
0001
0000
,  // measure 41
1000
0000
0000
0000
;

//---------------dance-single - Chewi----------------
#NOTES:
     dance-single:
     Chewi:
     Easy:
     3:
     0.169,0.198,0.079,0.158,0.000: // measure 1
0000
0000
0000
0000
,  // measure 2
0000
0000
0000
0000
,  // measure 3
1000
0000
0001
0000
,  // measure 4
1000
0001
1000
0000
,  // measure 5
0010
0000
0100
0000
,  // measure 6
0010
0100
0010
0000
,  // measure 7
1000
0000
0100
0000
,  // measure 8
0010
0100
1000
0000
,  // measure 9
0010
0000
0100
0000
,  // measure 10
0001
0100
0010
0000
,  // measure 11
2002
0000
0000
3003
,  // measure 12
0220
0000
0000
0330
,  // measure 13
2002
0000
0000
3003
,  // measure 14
0220
0000
0000
0330
,  // measure 15
0100
0100
0100
0100
,  // measure 16
0010
0010
0010
0010
,  // measure 17
1000
1000
1000
1000
,  // measure 18
0001
0001
0001
0001
,  // measure 19
0001
0000
0010
0000
,  // measure 20
0100
0010
0001
0000
,  // measure 21
0100
0000
0010
0000
,  // measure 22
1000
0010
0100
0000
,  // measure 23
0010
0000
0100
0000
,  // measure 24
0001
1000
0100
0000
,  // measure 25
0010
0000
0100
0000
,  // measure 26
1000
0100
0010
0000
,  // measure 27
0001
0000
1000
0000
,  // measure 28
0010
0100
0001
0000
,  // measure 29
0010
0000
0100
0000
,  // measure 30
1000
0100
0010
0000
,  // measure 31
0220
0000
0000
0330
,  // measure 32
2002
0000
0000
3003
,  // measure 33
0220
0000
0000
0330
,  // measure 34
2002
0000
0000
3003
,  // measure 35
1000
1000
1000
1000
,  // measure 36
0100
0100
0100
0100
,  // measure 37
0001
0001
0001
0001
,  // measure 38
0010
0010
0010
0010
,  // measure 39
1000
0000
0100
0000
,  // measure 40
0010
0100
1000
0000
,  // measure 41
0001
0000
0000
0000
;

//---------------dance-single - Chewi----------------
#NOTES:
     dance-single:
     Chewi:
     Medium:
     7:
     0.299,0.316,0.128,0.178,0.000: // measure 1
0000
0000
0000
0000
,  // measure 2
0000
0000
0000
0000
,  // measure 3
1000
0100
0001
1000
,  // measure 4
0100
0001
0010
0001
,  // measure 5
0101
1000
0010
0001
,  // measure 6
1000
0100
0001
0010
,  // measure 7
0011
0010
0100
1000
,  // measure 8
0010
0001
0010
1000
,  // measure 9
1010
1000
0100
0010
,  // measure 10
0001
1000
0100
1000
,  // measure 11
0002
0000
2003
0000
3001
1000
0001
0000
,  // measure 12
2000
3002
0023
0230
,  // measure 13
2300
0000
3020
0000
1030
0010
1000
0000
,  // measure 14
0020
0230
0302
0023
,  // measure 15
0032
0000
0023
0000
0031
0010
0001
0000
,  // measure 16
0020
0230
2300
3002
,  // measure 17
1003
0100
1000
0000
0001
0100
0001
0000
,  // measure 18
0100
0010
0100
0000
0010
0100
0010
0000
,  // measure 19
0110
0000
0010
0000
0010
0000
0010
1000
,  // measure 20
0010
0000
0010
0000
0010
0000
0010
1000
,  // measure 21
1001
0000
0001
0000
0001
0000
0001
0010
,  // measure 22
0001
0001
0001
0001
,  // measure 23
0101
0100
0100
0000
0010
0000
1000
0000
,  // measure 24
0001
1000
0100
0000
0010
0000
0100
0000
,  // measure 25
1100
0100
0100
0000
0010
0000
0100
0000
,  // measure 26
1000
0001
0100
0000
0010
0000
0100
0000
,  // measure 27
0101
0100
0100
0000
0001
0000
0010
0000
,  // measure 28
0100
0010
0001
0000
0010
0000
0100
0000
,  // measure 29
0110
0100
0100
0000
0100
0000
1000
0000
,  // measure 30
1000
0010
1000
0000
0010
0000
0100
0000
,  // measure 31
0110
0000
0100
0000
0100
0000
0100
0001
,  // measure 32
0100
0000
0100
0000
0100
0000
0100
0001
,  // measure 33
1001
0000
1000
0000
1000
0000
1000
0100
,  // measure 34
1000
0000
1000
0000
1000
0000
1000
0100
,  // measure 35
0011
0000
0001
0000
0001
0000
0001
0010
,  // measure 36
0001
0000
0001
0000
0001
0000
0001
1000
,  // measure 37
0100
0000
0100
0000
0010
0100
1000
0000
,  // measure 38
0010
0000
0010
0000
0100
0001
0010
0000
,  // measure 39
0001
0000
0001
0000
1000
0001
0100
0000
,  // measure 40
0001
0000
0001
0000
1000
0001
0010
0000
,  // measure 41
0110
0000
0000
0000
;

//---------------dance-single - Chewi----------------
#NOTES:
     dance-single:
     Chewi:
     Hard:
     10:
     0.426,0.356,0.346,0.000,0.000: // measure 1
0000
0000
0000
0000
,  // measure 2
0000
0000
0000
0000
,  // measure 3
1001
1000
0100
0010
0001
1000
0100
1000
,  // measure 4
0000
0001
0010
0100
1000
0001
0010
0001
,  // measure 5
0011
0001
1000
0010
0100
0001
1000
0001
,  // measure 6
0000
1000
0001
0010
0100
1000
0001
1000
,  // measure 7
1010
1000
0010
0001
0100
1000
0010
1000
,  // measure 8
0000
1000
0100
0001
0010
1000
0100
1000
,  // measure 9
1100
0000
0000
0100
0010
0001
0100
0010
,  // measure 10
0000
0100
0001
0010
0100
1000
0010
0100
,  // measure 11
0110
0000
0110
0000
0010
0100
0001
1000
,  // measure 12
1100
0000
1100
0000
1000
0100
0010
0100
,  // measure 13
1100
0000
1100
0000
1000
0010
0001
0010
,  // measure 14
0011
0000
0011
0000
0010
0100
0001
0010
,  // measure 15
1100
0000
0101
0000
1000
0001
0100
0010
,  // measure 16
1010
0000
0011
0000
0010
0100
1000
0010
,  // measure 17
1000
0001
0100
0010
1000
0100
0001
0100
,  // measure 18
0010
0100
1000
0010
1000
0001
0100
0010
,  // measure 19
0110
0100
0010
0100
0010
0100
0010
0100
,  // measure 20
0000
0001
1000
0100
0010
0001
1000
0100
,  // measure 21
1100
1000
0100
1000
0100
1000
0100
1000
,  // measure 22
0000
0010
0100
0001
1000
0100
0010
0001
,  // measure 23
1001
0001
0010
0100
1000
0001
1000
0001
,  // measure 24
0000
0100
0100
0100
0100
0010
0100
0001
,  // measure 25
0011
0001
0010
0100
1000
0010
1000
0100
,  // measure 26
0000
0010
0100
1000
0001
0100
0010
1000
,  // measure 27
1100
0010
0001
0010
0100
0001
0010
0100
,  // measure 28
0000
0001
0010
0100
1000
0100
1000
0001
,  // measure 29
0101
0000
0000
0010
0100
1000
0001
0100
,  // measure 30
0000
0010
0100
0001
1000
0010
1000
0001
,  // measure 31
0110
0000
0110
0000
0100
0010
1000
0001
,  // measure 32
0011
0000
0011
0000
0001
0010
0100
0010
,  // measure 33
0011
0000
0011
0000
0001
0100
1000
0010
,  // measure 34
1010
0000
1010
0000
0100
0010
1000
0100
,  // measure 35
0011
0000
1010
0000
0001
1000
0010
0100
,  // measure 36
0101
0000
1100
0000
0100
0010
0001
0100
,  // measure 37
0001
0010
0001
0100
0001
1000
0100
1000
,  // measure 38
0010
1000
0100
1000
0010
0100
0010
1000
,  // measure 39
0001
0010
0100
0010
0001
0100
0010
1000
,  // measure 40
0010
1000
0100
1000
0010
0100
0001
0010
,  // measure 41
1001
0000
0000
0000
;
