#VERSION:0.82;
#TITLE:전원일기 (田園日記) (Feat. 이단옆차기 & 태운);
#SUBTITLE:;
#ARTIST:티아라 N4;
#TITLETRANSLIT:Countryside Life (Feat. Duble Sidekick & Taewoon);
#SUBTITLETRANSLIT:;
#ARTISTTRANSLIT:T-ARA N4;
#GENRE:K-Pop;
#ORIGIN:;
#CREDIT:chewi;
#BANNER:Countryside Life (Feat. Duble Sidekick & Taewoon).png;
#BACKGROUND:Countryside Life (Feat. Duble Sidekick & Taewoon)-bg.png;
#PREVIEWVID:;
#JACKET:Countryside Life (Feat. Duble Sidekick & Taewoon)-jacket.png;
#CDIMAGE:;
#DISCIMAGE:;
#LYRICSPATH:;
#CDTITLE:cdtitle.png;
#MUSIC:Countryside Life (Feat. Duble Sidekick & Taewoon).ogg;
#OFFSET:-2.000000;
#SAMPLESTART:67.633003;
#SAMPLELENGTH:15.000000;
#SELECTABLE:YES;
#BPMS:0.000=128.000;
#STOPS:;
#DELAYS:;
#WARPS:;
#TIMESIGNATURES:0.000=4=4;
#TICKCOUNTS:0.000=4;
#COMBOS:0.000=1;
#SPEEDS:0.000=1.000=0.000=0;
#SCROLLS:0.000=1.000;
#FAKES:;
#LABELS:0.000=Song Start;
#BGCHANGES:0.000=Countryside Life (Feat. Duble Sidekick & Taewoon).avi=1.000=1=0=1===CrossFade==,
171.000=Countryside Life (Feat. Duble Sidekick & Taewoon)-bg.png=1.000=1=0=1===CrossFade==,
99999=-nosongbg-=1.000=0=0=0 // don't automatically add -songbackground-
;
#KEYSOUNDS:;
#ATTACKS:
;

//---------------dance-single - ----------------
#NOTEDATA:;
#CHARTNAME:;
#STEPSTYPE:dance-single;
#DESCRIPTION:;
#CHARTSTYLE:;
#DIFFICULTY:Beginner;
#METER:1;
#RADARVALUES:0.081237,0.148837,0.023210,0.046421,0.000000,43.000000,2.000000,4.000000,0.000000,0.000000,0.000000,0.000000,0.000000,0.081237,0.148837,0.023210,0.046421,0.000000,43.000000,2.000000,4.000000,0.000000,0.000000,0.000000,0.000000,0.000000;
#CREDIT:;
#NOTES:
// measure 0
0000
0000
0000
0000
,  // measure 1
0000
0000
0000
0000
,  // measure 2
0000
0000
0000
0000
,  // measure 3
0000
0000
0000
0000
,  // measure 4
0001
0000
0000
0000
,  // measure 5
0001
0000
0000
0000
,  // measure 6
1000
0000
0000
0000
,  // measure 7
1000
0000
0000
0000
,  // measure 8
0010
0000
0000
0000
,  // measure 9
0010
0000
0000
0000
,  // measure 10
0100
0000
0000
0000
,  // measure 11
0100
0000
0000
0000
,  // measure 12
1000
0000
0000
0000
,  // measure 13
1000
0000
0000
0000
,  // measure 14
0001
0000
0000
0000
,  // measure 15
0001
0000
0000
0000
,  // measure 16
0020
0000
0000
0000
,  // measure 17
0000
0000
0000
0030
,  // measure 18
0010
0000
0000
0000
,  // measure 19
0000
0000
0000
0000
,  // measure 20
0200
0000
0000
0000
,  // measure 21
0000
0000
0000
0300
,  // measure 22
0100
0000
0000
0000
,  // measure 23
0100
0000
0100
0000
,  // measure 24
0100
0000
0100
0000
,  // measure 25
0100
0100
0100
0100
,  // measure 26
0000
0000
0000
0000
,  // measure 27
0010
0000
0000
0000
,  // measure 28
1000
0000
0000
0000
,  // measure 29
0010
0000
0000
0000
,  // measure 30
1000
0000
1000
0000
,  // measure 31
0001
0000
0000
0000
,  // measure 32
0100
0000
0000
0000
,  // measure 33
0001
0000
0000
0000
,  // measure 34
0100
0000
0100
0000
,  // measure 35
0200
0000
0000
0300
,  // measure 36
0100
0000
0000
0000
,  // measure 37
0010
0000
0000
0000
,  // measure 38
1001
0000
0000
0000
,  // measure 39
2000
0000
0000
3000
,  // measure 40
1000
0000
0000
0000
,  // measure 41
0001
0000
0000
0000
,  // measure 42
1001
0000
0000
0010
;

//---------------dance-single - ----------------
#NOTEDATA:;
#CHARTNAME:;
#STEPSTYPE:dance-single;
#DESCRIPTION:;
#CHARTSTYLE:;
#DIFFICULTY:Easy;
#METER:3;
#RADARVALUES:0.203921,0.248062,0.000000,0.162473,0.000000,109.000000,0.000000,14.000000,0.000000,0.000000,0.000000,0.000000,0.000000,0.203921,0.248062,0.000000,0.162473,0.000000,109.000000,0.000000,14.000000,0.000000,0.000000,0.000000,0.000000,0.000000;
#CREDIT:;
#NOTES:
0000
0000
0000
0000
,
0000
0000
0000
0000
,
0000
0000
0000
0000
,
0000
0000
0000
0000
,
1000
0100
0001
0010
,
1000
0000
0000
0000
,
1000
0100
0001
0010
,
1000
0000
0000
0000
,
2000
0000
3001
0000
,
1000
0001
1000
0000
,
0002
0000
1003
0000
,
1000
0001
1000
0000
,
0020
0000
0130
0000
,
0100
0010
0100
0000
,
0200
0000
0310
0000
,
0100
0010
0100
0000
,
2000
0000
0000
0000
,
3200
0000
0000
0000
,
0320
0000
0000
0000
,
0000
0000
0000
0030
,
0001
0001
0002
0103
,
0100
0100
0200
0301
,
0001
1000
0100
0010
,
0020
0100
0100
0100
,
0200
0000
0000
0030
,
0010
0010
0020
0330
,
0000
0000
0000
0000
,
0010
0100
0010
0010
,
0100
0010
0100
0100
,
1000
0100
0010
0001
,
1000
0001
1000
0000
,
0001
0100
0001
0001
,
1000
0100
1000
1000
,
0010
0100
0001
1000
,
0010
1000
0001
0000
,
0002
0000
1003
1000
,
1000
0000
0001
0001
,
0001
0000
1000
1000
,
1000
0100
0010
0001
,
0020
0000
0130
0100
,
0100
0000
0010
0010
,
0010
0000
0100
0100
,
0100
1000
0001
0010
;

//---------------dance-single - ----------------
#NOTEDATA:;
#CHARTNAME:;
#STEPSTYPE:dance-single;
#DESCRIPTION:;
#CHARTSTYLE:;
#DIFFICULTY:Medium;
#METER:7;
#RADARVALUES:0.278526,0.297674,0.174079,0.069631,0.000000,147.000000,15.000000,6.000000,0.000000,0.000000,0.000000,0.000000,0.000000,0.278526,0.297674,0.174079,0.069631,0.000000,147.000000,15.000000,6.000000,0.000000,0.000000,0.000000,0.000000,0.000000;
#CREDIT:;
#NOTES:
0000
0000
0000
0000
,
0000
0000
0000
0000
,
0000
0000
0000
0000
,
0000
0000
0000
0000
,
1000
0000
0001
0000
1000
0001
0000
1001
,
0000
0000
0000
0000
,
0001
0000
1000
0000
0001
1000
0000
1001
,
0000
0000
0000
0000
,
1000
0010
0100
0010
,
1000
0000
1000
0100
0010
0001
0010
0000
,
0001
0010
0100
0010
,
0001
0000
0100
0010
1000
0001
1000
0000
,
0001
1000
0010
0100
,
0010
0000
1000
0001
0100
0010
0100
0000
,
0001
1000
0100
0010
,
0001
0010
0110
0000
,
0200
0000
0000
0000
,
2300
0000
3002
0000
,
0023
0000
0000
0000
,
0000
0000
0230
0000
,
0310
0000
0100
0000
0010
0010
0010
0000
,
0100
0000
0010
0000
0100
0100
0100
0000
,
0010
0001
0100
1000
,
0010
0010
0010
0010
,
0010
0100
0010
0100
0010
0100
0010
0100
,
0020
0000
0000
0030
,
0000
0000
0000
0000
,
0001
0000
1000
0000
0001
1000
0001
0000
,
1000
0001
0010
0100
,
0010
0000
0100
0000
0010
0100
0010
0000
,
0100
1100
1000
1100
,
1000
0000
0001
0000
1000
0001
1000
0000
,
0001
0000
1000
0000
0001
1000
0001
0000
,
0100
0001
0010
0100
,
1000
1100
0001
0101
,
1000
0000
0000
0000
0001
1000
0001
0000
,
0100
0000
0000
0000
0001
1000
0001
0000
,
0100
0000
0000
0000
0001
1000
0001
0000
,
1100
0101
1100
0101
,
1000
0000
0000
0000
0010
1000
0010
0000
,
0100
0000
0000
0000
0010
1000
0010
0000
,
0100
0000
0000
0000
0010
1000
0010
0000
,
1010
0101
0011
1100
;

//---------------dance-single - ----------------
#NOTEDATA:;
#CHARTNAME:;
#STEPSTYPE:dance-single;
#DESCRIPTION:;
#CHARTSTYLE:;
#DIFFICULTY:Hard;
#METER:12;
#RADARVALUES:0.460894,0.520930,0.382973,0.139263,0.034816,233.000000,33.000000,12.000000,0.000000,0.000000,0.000000,0.000000,0.000000,0.460894,0.520930,0.382973,0.139263,0.034816,233.000000,33.000000,12.000000,0.000000,0.000000,0.000000,0.000000,0.000000;
#CREDIT:;
#NOTES:
0000
0000
0000
0000
,
0000
0000
0000
0000
,
0000
0000
0000
0000
,
0000
0000
0000
0000
,
2000
0000
3200
0000
0310
0100
0000
1100
,
0000
0000
0000
0001
0010
0100
1000
0001
,
2000
0000
3002
0000
0103
0010
0000
0110
,
0000
0000
0000
0010
0100
0010
0100
0100
,
0000
0010
1000
0100
0010
0001
0010
0100
,
1000
0001
1000
0100
0020
0000
0230
0000
,
0300
0010
0001
0010
0100
1000
0001
1000
,
0010
0100
0001
0100
0020
0000
2030
0000
,
3000
0010
1000
0001
1000
0010
0100
0001
,
1000
0100
0010
0001
0010
0000
0011
0000
,
0000
0001
1000
0001
0100
0001
1000
0100
,
0000
0000
0010
0100
1000
0001
0010
0001
,
0012
1000
0100
1003
,
2010
3001
1002
0103
,
0120
1000
0100
0001
,
0100
0000
1000
0000
1030
0100
0010
0001
,
0011
0000
1000
0000
0001
0010
0100
1000
,
1100
0000
0101
0000
1000
0100
0010
0001
,
1001
0000
0100
0000
0100
0010
1000
0001
,
1000
0001
1000
0001
,
1000
0001
1000
0001
1000
0001
1000
0001
,
1000
0001
1000
0001
1000
0001
1000
0001
1000
0001
1000
0001
1000
0000
0000
0000
,
0000
0000
0000
0000
,
1000
0010
1000
0100
1000
0010
1000
0100
,
1000
0001
1000
0100
1000
0001
1000
0100
,
1000
0010
1000
0001
1000
0100
1000
0001
,
1001
0101
1001
0101
,
0001
0100
0001
1000
0001
0100
0001
1000
,
0001
0100
0001
0010
0001
0100
0001
0010
,
0001
0100
0001
1000
0001
0010
0001
0100
,
1001
1010
1001
1100
,
1001
0000
0000
1000
0100
0010
0001
1000
,
1100
0000
0000
0001
0010
0100
1000
0001
,
0011
0000
0000
0010
0100
0010
0001
1000
,
1100
0101
1100
0101
,
0110
0000
0000
0100
0010
1000
0010
0100
,
0101
0000
0000
0001
0010
0100
0010
0001
,
0011
0000
0000
0001
0010
0100
0010
0100
,
1100
0101
1100
1001
;
