#TITLE:Cooler Than Me;
#SUBTITLE:;
#ARTIST:Mike Posner;
#TITLETRANSLIT:;
#SUBTITLETRANSLIT:;
#ARTISTTRANSLIT:;
#GENRE:;
#CREDIT:Chewi☆;
#MENUCOLOR:#FFFFFF;
#METERTYPE:DDR X;
#BANNER:Cooler Than Me.png;
#BACKGROUND:Cooler Than Me-bg.png;
#LYRICSPATH:;
#CDTITLE:./CDTITLES/DanceDanceRevolution skyMIX3 -breeze-.png;
#MUSIC:Cooler Than Me.mp3;
#OFFSET:-8.136;
#SAMPLESTART:75.981;
#SAMPLELENGTH:15.000;
#SELECTABLE:YES;
#LISTSORT:;
#DISPLAYBPM:130.000;
#BPMS:0.000=130.000;
#STOPS:;
#BGCHANGES:;
#ATTACKS:;

//---------------dance-single - Chewi----------------
#NOTES:
     dance-single:
     Chewi:
     Beginner:
     2:
     0.115,0.145,0.000,0.073,0.000: // measure 1
0000
0000
0000
0000
,  // measure 2
0000
0000
0000
0000
,  // measure 3
0000
0000
0000
0000
,  // measure 4
0000
0000
0000
0000
,  // measure 5
2000
0000
0000
3000
,  // measure 6
1000
0000
0000
0000
,  // measure 7
0002
0000
0000
0003
,  // measure 8
0001
0000
0000
0000
,  // measure 9
0020
0000
0000
0030
,  // measure 10
0010
0000
0000
0000
,  // measure 11
0200
0000
0000
0300
,  // measure 12
0100
0000
0000
0000
,  // measure 13
0000
0000
0000
0000
,  // measure 14
1000
0000
0010
0000
,  // measure 15
1000
0000
1000
0000
,  // measure 16
0001
0000
0010
0000
,  // measure 17
0001
0000
0001
0000
,  // measure 18
0100
0000
0010
0000
,  // measure 19
1000
0000
1000
0000
,  // measure 20
0100
0000
0010
0000
,  // measure 21
0001
0000
0001
0000
,  // measure 22
1000
1000
0000
0000
,  // measure 23
0100
0000
0000
0000
,  // measure 24
0010
0000
0001
0000
,  // measure 25
0100
0000
0000
0000
,  // measure 26
1000
1000
0000
0000
,  // measure 27
0100
0000
0000
0000
,  // measure 28
1000
0000
0001
0000
,  // measure 29
0100
0000
0000
0000
,  // measure 30
0010
0010
0000
0000
,  // measure 31
1000
0000
0001
0000
,  // measure 32
1000
0000
0100
0000
,  // measure 33
0001
0001
0000
0000
,  // measure 34
0001
0001
0000
0000
,  // measure 35
0100
0000
0010
0000
,  // measure 36
1000
0000
0100
0000
,  // measure 37
1000
0000
0000
0000
,  // measure 38
2000
0000
0000
3000
,  // measure 39
1000
0000
0000
0000
,  // measure 40
0200
0000
0000
0300
,  // measure 41
0100
0000
0000
0000
,  // measure 42
0020
0000
0000
0030
,  // measure 43
0010
0000
0000
0000
,  // measure 44
0002
0000
0000
0003
,  // measure 45
0001
0000
0000
0000
,  // measure 46
0001
0001
0001
0000
,  // measure 47
0100
0000
0010
0000
,  // measure 48
1000
1000
1000
0000
,  // measure 49
0100
0000
0010
0000
,  // measure 50
0010
0010
0010
0000
,  // measure 51
0100
0000
0010
0000
,  // measure 52
0100
0100
0100
0000
,  // measure 53
1000
0000
0001
0000
,  // measure 54
1000
0000
0000
0000
;

//---------------dance-single - Chewi----------------
#NOTES:
     dance-single:
     Chewi:
     Easy:
     4:
     0.207,0.217,0.009,0.109,0.000: // measure 1
0000
0000
0000
0000
,  // measure 2
0000
0000
0000
0000
,  // measure 3
0000
0000
0000
0000
,  // measure 4
0000
0000
0000
0000
,  // measure 5
0020
0000
0000
0030
,  // measure 6
0200
0000
0000
0300
,  // measure 7
2000
0000
0000
3000
,  // measure 8
0200
0000
0000
0300
,  // measure 9
0002
0000
0000
0003
,  // measure 10
2000
0000
0000
3000
,  // measure 11
0002
0000
0000
0003
,  // measure 12
0200
0000
0000
0000
,  // measure 13
0000
0000
0000
0300
,  // measure 14
0001
0010
0001
0000
,  // measure 15
0010
0100
0010
0000
,  // measure 16
1000
0100
1000
0000
,  // measure 17
0100
0010
0100
0000
,  // measure 18
0001
1000
0001
0000
,  // measure 19
0100
0010
0100
0000
,  // measure 20
0010
1000
0010
0000
,  // measure 21
1000
0001
1000
0000
,  // measure 22
0001
0002
0000
0003
,  // measure 23
0100
0010
0100
0000
,  // measure 24
1000
0010
0001
0100
,  // measure 25
1000
0100
0000
0000
,  // measure 26
0010
0020
0000
0030
,  // measure 27
0100
0010
0100
0000
,  // measure 28
1000
0100
0001
0010
,  // measure 29
1000
0000
0000
0000
,  // measure 30
0100
0200
0000
0300
,  // measure 31
0010
0010
0100
0001
,  // measure 32
0100
1000
0100
0001
,  // measure 33
1000
0100
0010
0001
,  // measure 34
0010
0020
0000
0030
,  // measure 35
0001
0010
0001
0100
,  // measure 36
1000
0100
1000
0010
,  // measure 37
0010
0100
0001
1000
,  // measure 38
0100
0100
0100
0010
,  // measure 39
0001
0001
0001
1000
,  // measure 40
0010
0010
0010
0100
,  // measure 41
0001
0001
0001
0100
,  // measure 42
1000
0010
0001
0010
,  // measure 43
1000
0100
1000
0010
,  // measure 44
1000
0100
0001
0100
,  // measure 45
0001
0010
0001
0100
,  // measure 46
0010
0010
0010
0100
,  // measure 47
0001
0001
0001
0010
,  // measure 48
0100
0100
0100
1000
,  // measure 49
0010
0010
0010
1000
,  // measure 50
0010
0001
0010
1000
,  // measure 51
0100
0001
0100
1000
,  // measure 52
0001
0100
0010
1000
,  // measure 53
0001
0010
0100
1000
,  // measure 54
1001
0000
0000
0000
;

//---------------dance-single - Chewi----------------
#NOTES:
     dance-single:
     Chewi:
     Medium:
     8:
     0.288,0.338,0.118,0.064,0.000: // measure 1
0000
0000
0000
0000
,  // measure 2
0000
0000
0000
0000
,  // measure 3
0000
0000
0000
0000
,  // measure 4
0000
0000
0000
0000
,  // measure 5
2000
0000
0000
0000
0001
0000
0000
0002
,  // measure 6
0000
0000
0000
3003
,  // measure 7
0002
0000
0000
0000
1000
0000
0000
2000
,  // measure 8
0000
0000
0000
3003
,  // measure 9
0020
0000
0000
0000
0100
0000
0000
0200
,  // measure 10
0000
0000
0000
0330
,  // measure 11
0100
1000
0010
0001
,  // measure 12
0010
0100
0020
0000
,  // measure 13
0000
0000
0000
0030
,  // measure 14
1000
0100
0001
0010
,  // measure 15
0001
0100
1000
0010
,  // measure 16
0100
0001
0010
1000
,  // measure 17
0100
1000
0010
0001
,  // measure 18
0100
0010
1000
0001
,  // measure 19
0100
0010
0001
1000
,  // measure 20
0010
0100
0001
1000
,  // measure 21
0001
0010
0100
1000
0100
0000
0000
0000
,  // measure 22
1000
1100
0001
0101
,  // measure 23
1000
1010
0001
0011
,  // measure 24
0010
0100
1000
0000
0100
0010
0001
0000
,  // measure 25
0100
0010
1000
0000
0100
0010
0001
0000
,  // measure 26
0100
0010
1000
0100
,  // measure 27
0010
0001
0100
1000
,  // measure 28
1001
0100
1001
0010
,  // measure 29
0110
0000
0000
0000
,  // measure 30
0001
0101
1000
1100
,  // measure 31
0001
0010
0001
0000
1000
0000
0100
0000
,  // measure 32
1000
1010
0001
0011
,  // measure 33
1000
0010
1000
0000
0001
0000
0100
0000
,  // measure 34
0010
0000
0100
0000
0001
1000
0100
0000
,  // measure 35
0010
0000
0100
0000
1000
0001
0100
0000
,  // measure 36
1000
1100
0010
0011
,  // measure 37
0001
0010
0100
1000
0001
0010
0100
1000
,  // measure 38
0001
0000
0100
0000
0010
0100
0001
0000
,  // measure 39
0010
0000
0100
0000
0010
0100
1000
0000
,  // measure 40
0001
0100
1000
0100
,  // measure 41
0001
0010
1000
0010
,  // measure 42
1000
0000
0100
0000
0010
0100
0010
0000
,  // measure 43
0001
0000
0100
0000
0010
0100
0010
0000
,  // measure 44
0100
0000
0010
0000
1000
0001
1000
0000
,  // measure 45
0001
0000
1000
0000
0100
0010
0100
0000
,  // measure 46
0010
0000
0001
0000
0100
1000
0010
0000
,  // measure 47
1000
0100
0001
0010
,  // measure 48
1000
0000
0100
0000
0001
0010
1000
0000
,  // measure 49
0100
0001
0100
1000
,  // measure 50
0010
0000
0001
0000
0100
1000
0010
0000
,  // measure 51
0100
0001
0010
0100
,  // measure 52
0010
0000
0001
0000
1000
0001
0100
0000
,  // measure 53
0010
0100
0010
0100
0001
1000
0001
1000
,  // measure 54
0001
0000
0000
0000
;

//---------------dance-single - Chewi----------------
#NOTES:
     dance-single:
     Chewi:
     Hard:
     10:
     0.393,0.435,0.255,0.073,0.059: // measure 1
0000
0000
0000
0000
,  // measure 2
0000
0000
0000
0000
,  // measure 3
0000
0000
0000
0000
,  // measure 4
0000
0000
0000
0000
,  // measure 5
2000
0000
0000
0000
0010
0000
0000
0200
,  // measure 6
0000
0000
0000
3300
,  // measure 7
0002
0000
0000
0000
1000
0000
0000
0020
,  // measure 8
0000
0000
0000
0033
,  // measure 9
0002
0000
0000
0000
1000
0000
0000
0200
,  // measure 10
0000
0000
0000
0303
,  // measure 11
1000
0100
0010
0001
,  // measure 12
0100
0010
0100
0000
0010
0100
0010
0000
,  // measure 13
0220
0000
0000
0330
,  // measure 14
0001
0010
0000
1100
0000
0000
0001
0000
0000
1100
0000
0000
,  // measure 15
1000
0100
0000
0011
0000
0000
1000
0000
0000
1010
0000
0000
,  // measure 16
0001
1000
0000
0110
0000
0000
0001
0000
0000
1100
0000
0000
,  // measure 17
1000
0001
0000
0110
0000
0000
1000
0000
0000
0011
0000
0000
,  // measure 18
0001
0010
0000
1100
0000
0000
0100
0000
0000
1100
0000
0000
,  // measure 19
1000
0100
0000
0011
0000
0000
0010
0000
0000
0011
0000
0000
,  // measure 20
0001
1000
0000
1010
0000
0000
1000
0001
0000
0011
0000
0000
,  // measure 21
0010
0100
1000
0001
0100
0010
0100
0000
0000
0000
0000
0000
,  // measure 22
0100
0001
0010
0000
0100
1000
0010
0000
,  // measure 23
1000
0001
0100
0010
1000
0001
0010
0100
,  // measure 24
0010
0001
0100
0000
0010
1000
0100
0000
,  // measure 25
0010
0100
1000
0001
0100
0010
1000
0001
,  // measure 26
0100
0010
1000
0000
0100
0010
0001
0000
,  // measure 27
1000
0100
0010
0001
1000
0010
0100
0001
,  // measure 28
0101
0011
1010
1100
,  // measure 29
1001
0000
0000
0000
0000
0000
0000
0110
0000
0000
0000
0000
,  // measure 30
0100
0010
0100
0000
0010
0100
0010
0000
,  // measure 31
1000
0100
0010
0001
1000
0100
0010
0001
,  // measure 32
1000
0001
1000
0000
0001
1000
0001
0000
,  // measure 33
0010
0100
0001
1000
0100
0010
0001
1000
,  // measure 34
0100
1000
0100
0000
0010
0001
0010
0000
,  // measure 35
0001
0010
0100
1000
0001
0010
0100
1000
,  // measure 36
0001
0100
0001
0000
1000
0010
1000
0000
,  // measure 37
0010
0100
0001
1000
0100
0010
0001
1000
,  // measure 38
0100
0010
0001
0000
0001
0010
0100
0000
,  // measure 39
1000
1100
0001
0101
,  // measure 40
1000
0010
0100
0000
0100
0010
1000
0000
,  // measure 41
0001
1001
1000
1001
,  // measure 42
0001
0010
0100
0000
1000
0100
0010
0000
,  // measure 43
0001
0011
1000
1010
,  // measure 44
0010
0100
0001
1000
0100
0010
0001
0000
,  // measure 45
0100
0010
0001
1000
0010
0100
0001
0000
,  // measure 46
0100
0010
1000
0000
0100
0010
0001
0000
,  // measure 47
1000
0100
0010
0001
1000
0100
0010
0001
,  // measure 48
0100
1000
0010
0000
0100
0001
0010
0000
,  // measure 49
0100
0010
0001
1000
0010
0100
0001
0100
,  // measure 50
0010
1000
0100
0000
0010
0001
0100
0000
,  // measure 51
0010
0100
0001
1000
0100
0010
0001
1000
,  // measure 52
0100
0001
0010
0000
0100
0010
0100
0000
,  // measure 53
0100
1000
0010
0000
0100
0010
0100
0000
,  // measure 54
1001
0000
0000
0000
;
