#VERSION:0.83;
#TITLE:Confetti;
#SUBTITLE:;
#ARTIST:Hilary Duff;
#TITLETRANSLIT:;
#SUBTITLETRANSLIT:;
#ARTISTTRANSLIT:;
#GENRE:Pop;
#ORIGIN:;
#CREDIT:chewi;
#BANNER:Confetti.png;
#BACKGROUND:Confetti-bg.png;
#PREVIEWVID:;
#JACKET:Confetti-jacket.png;
#CDIMAGE:;
#DISCIMAGE:;
#LYRICSPATH:;
#CDTITLE:cdtitle.png;
#MUSIC:Confetti.ogg;
#OFFSET:-0.173000;
#SAMPLESTART:45.173000;
#SAMPLELENGTH:15.000000;
#SELECTABLE:YES;
#DISPLAYBPM:128.000000;
#BPMS:0.000=128.000;
#STOPS:;
#DELAYS:;
#WARPS:;
#TIMESIGNATURES:0.000=4=4;
#TICKCOUNTS:0.000=4;
#COMBOS:0.000=1;
#SPEEDS:0.000=1.000=0.000=0;
#SCROLLS:0.000=1.000;
#FAKES:;
#LABELS:0.000=Song Start;
#BGCHANGES:;
#KEYSOUNDS:;
#ATTACKS:
;

//---------------dance-single - ----------------
#NOTEDATA:;
#CHARTNAME:;
#STEPSTYPE:dance-single;
#DESCRIPTION:;
#CHARTSTYLE:;
#DIFFICULTY:Beginner;
#METER:1;
#RADARVALUES:0.056317,0.077202,0.010951,0.098556,0.000000,36.000000,35.000000,1.000000,9.000000,0.000000,0.000000,0.000000,0.000000,0.000000,0.056317,0.077202,0.010951,0.098556,0.000000,36.000000,35.000000,1.000000,9.000000,0.000000,0.000000,0.000000,0.000000,0.000000;
#CREDIT:;
#DISPLAYBPM:128.000000;
#NOTES:
// measure 0
0000
0000
0000
0000
,  // measure 1
0000
0000
0000
0000
,  // measure 2
0000
0000
0000
0000
,  // measure 3
0000
0000
0000
0000
,  // measure 4
2000
0000
0000
0000
,  // measure 5
0000
0000
0000
3000
,  // measure 6
0002
0000
0000
0000
,  // measure 7
0000
0000
0000
0003
,  // measure 8
0100
0000
0000
0000
,  // measure 9
1000
0000
0000
0000
,  // measure 10
0100
0000
0000
0000
,  // measure 11
0001
0000
0000
0000
,  // measure 12
0010
0000
0000
0000
,  // measure 13
1000
0000
0000
0000
,  // measure 14
0010
0000
0000
0000
,  // measure 15
0001
0000
0000
0000
,  // measure 16
2000
0000
0000
0000
,  // measure 17
0000
0000
0000
3000
,  // measure 18
0020
0000
0000
0000
,  // measure 19
0000
0000
0000
0030
,  // measure 20
0002
0000
0000
0000
,  // measure 21
0000
0000
0000
0003
,  // measure 22
0200
0000
0000
0000
,  // measure 23
0000
0000
0000
0300
,  // measure 24
1000
0000
0000
0000
,  // measure 25
0001
0000
0000
0000
,  // measure 26
1000
0000
0000
0000
,  // measure 27
0001
0000
0000
0000
,  // measure 28
0100
0000
0000
0000
,  // measure 29
0010
0000
0000
0000
,  // measure 30
0100
0000
0000
0000
,  // measure 31
0010
0000
0000
0000
,  // measure 32
0010
0000
0000
0000
,  // measure 33
0001
0000
0000
0000
,  // measure 34
0010
0000
0000
0000
,  // measure 35
1000
0000
0000
0000
,  // measure 36
0100
0000
0000
0000
,  // measure 37
0001
0000
0000
0000
,  // measure 38
0100
0000
0000
0000
,  // measure 39
1000
0000
0000
0000
,  // measure 40
2000
0000
0000
0000
,  // measure 41
0000
0000
0000
3000
,  // measure 42
0002
0000
0000
0000
,  // measure 43
0000
0000
0000
0003
,  // measure 44
0200
0000
0000
0000
,  // measure 45
0000
0000
0000
0300
,  // measure 46
0100
0000
0000
0000
,  // measure 47
0110
0000
0000
0000
;

//---------------dance-single - ----------------
#NOTEDATA:;
#CHARTNAME:;
#STEPSTYPE:dance-single;
#DESCRIPTION:;
#CHARTSTYLE:;
#DIFFICULTY:Hard;
#METER:9;
#RADARVALUES:0.339469,0.418314,0.109506,0.262815,0.010951,217.000000,207.000000,10.000000,24.000000,10.000000,0.000000,2.000000,0.000000,0.000000,0.339469,0.418314,0.109506,0.262815,0.010951,217.000000,207.000000,10.000000,24.000000,10.000000,0.000000,2.000000,0.000000,0.000000;
#CREDIT:;
#DISPLAYBPM:128.000000;
#NOTES:
// measure 0
0000
0000
0000
0000
,  // measure 1
0000
0000
0000
0000
,  // measure 2
0000
0000
0000
0000
,  // measure 3
0000
0000
0000
0000
,  // measure 4
1000
0000
0100
0000
0010
0010
0001
0000
,  // measure 5
1000
0000
0100
0000
1000
0001
1000
0000
,  // measure 6
0001
0000
0100
0000
0010
0010
1000
0000
,  // measure 7
0001
0000
0100
0000
0001
0100
0001
0000
,  // measure 8
1001
0000
1000
0000
0001
0010
0100
0000
,  // measure 9
1000
0000
0001
0000
1000
0010
0100
0000
,  // measure 10
0001
0000
0100
0000
0010
1000
0100
0000
,  // measure 11
0010
0100
1000
0000
0010
0100
0001
0000
,  // measure 12
0101
0000
0100
0000
0010
1000
0001
0000
,  // measure 13
1000
0000
0100
0000
0010
0100
1000
0000
,  // measure 14
1100
0000
1000
0000
0001
0100
0010
0000
,  // measure 15
0100
0010
1000
0000
0100
0010
0001
0000
,  // measure 16
1002
0010
0023
0100
,  // measure 17
0230
1000
2300
0001
,  // measure 18
3001
0000
0000
1000
0000
0000
0000
0000
,  // measure 19
000M
0000
0000
M000
0000
0000
0000
0000
,  // measure 20
2001
0100
3200
0010
,  // measure 21
0320
0001
0032
1000
,  // measure 22
1003
0000
0100
0000
0010
0000
0001
0000
4000
0004
0000
0000
0000
0000
0000
0000
,  // measure 23
3003
0000
0000
0000
0000
0000
0100
0000
0010
0100
0010
0000
0110
0000
0000
0000
,  // measure 24
0010
1000
0001
0010
0000
0100
1000
0000
,  // measure 25
0100
1000
0001
0100
0010
1000
0001
0000
,  // measure 26
0100
0001
1000
0100
0000
0010
0001
0000
,  // measure 27
0010
0001
1000
0010
0100
0001
1000
0000
,  // measure 28
0001
0010
0100
1000
0000
0001
1000
0000
,  // measure 29
1000
0010
0100
0001
1000
0010
0100
0000
,  // measure 30
0001
0100
0010
1000
0000
0001
1000
0000
,  // measure 31
2002
0000
0000
0000
0000
0000
3003
MMMM
,  // measure 32
0010
1000
0010
0000
0100
0100
0100
0000
,  // measure 33
0001
0100
0001
0000
1000
0000
1001
0000
,  // measure 34
0010
0100
0010
0000
0100
0100
0100
0000
,  // measure 35
1000
0001
1000
0000
0001
0000
1001
0000
,  // measure 36
1000
0100
0010
0001
0000
1000
0001
0000
,  // measure 37
0001
0100
0010
1000
0001
0100
0010
0000
,  // measure 38
1000
0010
0100
0001
0000
1000
0001
0000
,  // measure 39
2002
0000
0000
0000
0000
0000
3003
MMMM
,  // measure 40
1000
0000
0000
0100
0000
0100
1000
0000
,  // measure 41
2000
3200
0302
0003
,  // measure 42
0001
0000
0000
0100
0000
0100
0001
0000
,  // measure 43
0002
0203
2300
3000
,  // measure 44
0001
0000
0000
0010
0000
0010
0001
0000
,  // measure 45
0002
0023
2030
3000
,  // measure 46
1000
0000
0000
0010
0000
0010
1000
0000
,  // measure 47
2000
3020
0032
0003
;

//---------------dance-single - ----------------
#NOTEDATA:;
#CHARTNAME:;
#STEPSTYPE:dance-single;
#DESCRIPTION:;
#CHARTSTYLE:;
#DIFFICULTY:Easy;
#METER:4;
#RADARVALUES:0.153309,0.205872,0.054753,0.043802,0.000000,98.000000,93.000000,5.000000,4.000000,0.000000,0.000000,0.000000,0.000000,0.000000,0.153309,0.205872,0.054753,0.043802,0.000000,98.000000,93.000000,5.000000,4.000000,0.000000,0.000000,0.000000,0.000000,0.000000;
#CREDIT:;
#DISPLAYBPM:128.000000;
#NOTES:
// measure 0
0000
0000
0000
0000
,  // measure 1
0000
0000
0000
0000
,  // measure 2
0000
0000
0000
0000
,  // measure 3
0000
0000
0000
0000
,  // measure 4
2000
0000
0000
3000
,  // measure 5
0002
0000
0000
0003
,  // measure 6
2000
0000
0000
3000
,  // measure 7
0002
0000
0000
0003
,  // measure 8
0001
1000
0001
0000
,  // measure 9
1000
0001
1000
0000
,  // measure 10
0010
0100
0010
0000
,  // measure 11
0100
0010
0100
0000
,  // measure 12
0010
0100
0001
0000
,  // measure 13
0001
0001
0001
0000
,  // measure 14
0010
0100
1000
0000
,  // measure 15
0100
0100
0100
0000
,  // measure 16
0110
0000
0000
0000
,  // measure 17
0010
0000
0000
0000
,  // measure 18
0001
0000
0000
0000
,  // measure 19
1000
0000
0000
0000
,  // measure 20
1001
0000
0000
0000
,  // measure 21
1000
0000
0000
0000
,  // measure 22
0001
0000
0000
0000
,  // measure 23
0100
0000
0000
0000
,  // measure 24
0100
0100
0010
0000
,  // measure 25
1000
0100
0010
0000
,  // measure 26
0001
0001
0010
0000
,  // measure 27
0100
1000
0001
0000
,  // measure 28
1000
1000
0001
0000
,  // measure 29
0100
0010
1000
0000
,  // measure 30
0010
0010
1000
0000
,  // measure 31
1001
0000
0000
0000
,  // measure 32
0100
0001
0100
0000
,  // measure 33
0001
1000
0100
0000
,  // measure 34
1000
0100
1000
0000
,  // measure 35
0100
0100
0100
0000
,  // measure 36
0010
0001
1000
0000
,  // measure 37
0001
0100
0001
0000
,  // measure 38
0100
0010
1000
0000
,  // measure 39
0010
0010
0010
0000
,  // measure 40
0110
0000
0000
0000
,  // measure 41
1000
0000
1000
0000
,  // measure 42
0001
0000
0000
0000
,  // measure 43
0001
0000
0001
0000
,  // measure 44
1000
0000
0000
0000
,  // measure 45
0100
0000
0100
0000
,  // measure 46
0010
0000
0000
0000
,  // measure 47
0110
0000
0000
0000
;

//---------------dance-single - ----------------
#NOTEDATA:;
#CHARTNAME:;
#STEPSTYPE:dance-single;
#DESCRIPTION:;
#CHARTSTYLE:;
#DIFFICULTY:Medium;
#METER:6;
#RADARVALUES:0.215884,0.283074,0.229963,0.186161,0.000000,138.000000,117.000000,21.000000,17.000000,0.000000,0.000000,0.000000,0.000000,0.000000,0.215884,0.283074,0.229963,0.186161,0.000000,138.000000,117.000000,21.000000,17.000000,0.000000,0.000000,0.000000,0.000000,0.000000;
#CREDIT:;
#DISPLAYBPM:128.000000;
#NOTES:
// measure 0
0000
0000
0000
0000
,  // measure 1
0000
0000
0000
0000
,  // measure 2
0000
0000
0000
0000
,  // measure 3
0000
0000
0000
0000
,  // measure 4
1000
1000
0100
0000
,  // measure 5
0001
0000
0010
0000
,  // measure 6
1000
1000
0010
0000
,  // measure 7
0001
0000
0100
0000
,  // measure 8
1000
0001
1000
0100
,  // measure 9
1000
0001
1000
1001
,  // measure 10
0001
1000
0001
0100
,  // measure 11
0001
1000
0001
1001
,  // measure 12
1000
0100
0010
0001
,  // measure 13
1000
0100
1000
1100
,  // measure 14
1000
0010
0100
0001
,  // measure 15
0100
0001
0100
0101
,  // measure 16
0120
0000
0000
0000
,  // measure 17
2030
0000
0000
0000
,  // measure 18
3002
0000
0000
0000
,  // measure 19
1003
0100
1000
0010
,  // measure 20
1020
0000
0000
0000
,  // measure 21
0230
0000
0000
0000
,  // measure 22
0302
0000
0000
0000
,  // measure 23
2000
0000
0000
3003
,  // measure 24
1000
0001
1100
0000
,  // measure 25
1000
0001
0100
0010
,  // measure 26
1000
0001
0011
0000
,  // measure 27
0010
0100
1000
0001
,  // measure 28
1000
0001
0101
0000
,  // measure 29
0100
0010
1000
0001
,  // measure 30
1000
0100
1100
0000
,  // measure 31
0110
0000
0000
0000
,  // measure 32
0001
1000
0011
0000
,  // measure 33
0001
1000
0010
0100
,  // measure 34
0001
1000
1100
0000
,  // measure 35
0100
0010
0001
1000
,  // measure 36
0001
1000
1010
0000
,  // measure 37
0010
0100
0001
1000
,  // measure 38
0001
0010
0011
0000
,  // measure 39
0220
0000
0000
0330
,  // measure 40
2200
0000
0000
3300
,  // measure 41
1000
1000
1000
0000
,  // measure 42
2002
0000
0000
3003
,  // measure 43
0100
0010
1000
0000
,  // measure 44
2020
0000
0000
3030
,  // measure 45
0010
0010
0010
0000
,  // measure 46
0220
0000
0000
0330
,  // measure 47
0110
0000
0000
0000
;
