#VERSION:0.82;
#TITLE:Confession;
#SUBTITLE:;
#ARTIST:제이;
#TITLETRANSLIT:;
#SUBTITLETRANSLIT:;
#ARTISTTRANSLIT:J.ae;
#GENRE:R&B;
#ORIGIN:;
#CREDIT:chewi;
#BANNER:Confession.png;
#BACKGROUND:Confession-bg.png;
#PREVIEWVID:;
#JACKET:Confession-jacket.png;
#CDIMAGE:;
#DISCIMAGE:;
#LYRICSPATH:;
#CDTITLE:cdtitle.png;
#MUSIC:Confession.ogg;
#OFFSET:-1.678323;
#SAMPLESTART:65.974998;
#SAMPLELENGTH:15.000000;
#SELECTABLE:YES;
#BPMS:0.000=73.000;
#STOPS:;
#DELAYS:;
#WARPS:;
#TIMESIGNATURES:0.000=4=4;
#TICKCOUNTS:0.000=4;
#COMBOS:0.000=1;
#SPEEDS:0.000=1.000=0.000=0;
#SCROLLS:0.000=1.000;
#FAKES:;
#LABELS:0.000=Song Start;
#BGCHANGES:;
#KEYSOUNDS:;
#ATTACKS:
;

//---------------dance-single - ----------------
#NOTEDATA:;
#CHARTNAME:;
#STEPSTYPE:dance-single;
#DESCRIPTION:;
#CHARTSTYLE:;
#DIFFICULTY:Beginner;
#METER:1;
#RADARVALUES:0.022849,0.041669,0.000000,0.016836,0.000000,34.000000,0.000000,4.000000,0.000000,0.000000,0.000000,0.000000,0.000000,0.022849,0.041669,0.000000,0.016836,0.000000,34.000000,0.000000,4.000000,0.000000,0.000000,0.000000,0.000000,0.000000;
#CREDIT:;
#NOTES:
// measure 0
0000
0000
0000
0000
,  // measure 1
0000
0000
0000
0000
,  // measure 2
0000
0000
0000
0000
,  // measure 3
0000
0000
0000
0000
,  // measure 4
0100
0000
0000
0000
,  // measure 5
0010
0000
0000
0000
,  // measure 6
1000
0000
0000
0000
,  // measure 7
0001
0000
0000
0000
,  // measure 8
2000
0000
0000
3000
,  // measure 9
1000
0000
1000
0000
,  // measure 10
0002
0000
0000
0003
,  // measure 11
0001
0000
0001
0000
,  // measure 12
0200
0000
0000
0300
,  // measure 13
0100
0000
0100
0000
,  // measure 14
0020
0000
0000
0030
,  // measure 15
0010
0000
0010
0000
,  // measure 16
0010
0000
0000
0000
,  // measure 17
1000
0000
0000
0000
,  // measure 18
0001
0000
0000
0000
,  // measure 19
0100
0000
0000
0000
,  // measure 20
0001
0000
0000
0000
,  // measure 21
1000
0000
0000
0000
,  // measure 22
0100
0000
0000
0000
,  // measure 23
0010
0000
0000
0000
,  // measure 24
0100
0000
0000
0000
,  // measure 25
1000
0000
0000
0000
,  // measure 26
0001
0000
0000
0000
,  // measure 27
0010
0000
0000
0000
,  // measure 28
0001
0000
0000
0000
,  // measure 29
1000
0000
0000
0000
,  // measure 30
0010
0000
0000
0000
,  // measure 31
0100
0000
0000
0000
,  // measure 32
0100
0000
0000
0000
,  // measure 33
0100
0000
0000
0000
;

//---------------dance-single - ----------------
#NOTEDATA:;
#CHARTNAME:;
#STEPSTYPE:dance-single;
#DESCRIPTION:;
#CHARTSTYLE:;
#DIFFICULTY:Easy;
#METER:3;
#RADARVALUES:0.048704,0.055559,0.000000,0.033672,0.000000,73.000000,0.000000,8.000000,0.000000,0.000000,0.000000,0.000000,0.000000,0.048704,0.055559,0.000000,0.033672,0.000000,73.000000,0.000000,8.000000,0.000000,0.000000,0.000000,0.000000,0.000000;
#CREDIT:;
#NOTES:
// measure 0
0000
0000
0000
0000
,  // measure 1
0000
0000
0000
0000
,  // measure 2
0000
0000
0000
0000
,  // measure 3
0000
0000
0000
0000
,  // measure 4
1000
1000
1000
0000
,  // measure 5
0001
0001
0001
0000
,  // measure 6
0100
0100
0100
0000
,  // measure 7
0010
0010
0010
0000
,  // measure 8
0020
0000
0000
0030
,  // measure 9
2000
0000
0000
3000
,  // measure 10
0020
0000
0000
0030
,  // measure 11
2000
0000
0000
3000
,  // measure 12
0002
0000
0000
0003
,  // measure 13
0200
0000
0000
0300
,  // measure 14
0002
0000
0000
0003
,  // measure 15
0200
0000
0000
0300
,  // measure 16
0001
0001
0001
0000
,  // measure 17
1000
0001
1000
0000
,  // measure 18
1000
1000
1000
0000
,  // measure 19
0001
1000
0001
0000
,  // measure 20
0100
0100
0100
0000
,  // measure 21
0100
0010
0100
0000
,  // measure 22
0010
0010
0010
0000
,  // measure 23
0010
0100
0010
0000
,  // measure 24
1000
1000
0100
0000
,  // measure 25
0001
0001
0100
0000
,  // measure 26
1000
1000
0010
0000
,  // measure 27
0001
0001
0010
0000
,  // measure 28
0010
0100
0010
0000
,  // measure 29
0100
0010
0100
0000
,  // measure 30
1000
0001
1000
0000
,  // measure 31
0001
1000
0001
0000
,  // measure 32
0001
0010
0100
1000
,  // measure 33
0001
0000
0000
0000
;

//---------------dance-single - ----------------
#NOTEDATA:;
#CHARTNAME:;
#STEPSTYPE:dance-single;
#DESCRIPTION:;
#CHARTSTYLE:;
#DIFFICULTY:Medium;
#METER:5;
#RADARVALUES:0.060730,0.069449,0.016836,0.000000,0.000000,97.000000,4.000000,0.000000,0.000000,0.000000,0.000000,0.000000,0.000000,0.060730,0.069449,0.016836,0.000000,0.000000,97.000000,4.000000,0.000000,0.000000,0.000000,0.000000,0.000000,0.000000;
#CREDIT:;
#NOTES:
// measure 0
0000
0000
0000
0000
,  // measure 1
0000
0000
0000
0000
,  // measure 2
0000
0000
0000
0000
,  // measure 3
0000
0000
0000
0000
,  // measure 4
1000
0100
0001
0010
,  // measure 5
1000
0100
0001
0000
,  // measure 6
0001
0100
1000
0010
,  // measure 7
0001
0100
1000
0000
,  // measure 8
1000
0000
0000
1000
0000
0000
1000
0000
,  // measure 9
0100
0000
0000
0100
0000
0000
0100
0000
,  // measure 10
0010
0000
0000
0010
0000
0000
0010
0000
,  // measure 11
0001
0000
0000
0001
0000
0000
0001
0000
,  // measure 12
1000
0000
0000
0001
0000
0000
0100
0000
,  // measure 13
0010
0000
0000
1000
0000
0000
0001
0000
,  // measure 14
1000
0000
0000
0100
0000
0000
0010
0000
,  // measure 15
0100
0000
0000
1000
0000
0000
0001
0000
,  // measure 16
1000
1000
1100
0000
,  // measure 17
0001
0010
0001
0000
,  // measure 18
0001
0001
0101
0000
,  // measure 19
1000
0100
0010
0100
,  // measure 20
1000
0001
1001
0000
,  // measure 21
0100
0010
1000
0000
,  // measure 22
0010
0100
0101
0000
,  // measure 23
0001
1000
0100
0000
,  // measure 24
1000
0100
0001
0010
,  // measure 25
1000
0100
0001
0000
,  // measure 26
0001
0100
1000
0010
,  // measure 27
0001
0100
1000
0000
,  // measure 28
1000
0100
0010
0100
,  // measure 29
1000
0010
0100
0010
,  // measure 30
0100
0001
0010
0100
,  // measure 31
0001
0100
0010
0001
,  // measure 32
0100
0010
1000
0000
,  // measure 33
0001
0000
0000
0000
;

//---------------dance-single - ----------------
#NOTEDATA:;
#CHARTNAME:;
#STEPSTYPE:dance-single;
#DESCRIPTION:;
#CHARTSTYLE:;
#DIFFICULTY:Hard;
#METER:8;
#RADARVALUES:0.107029,0.118063,0.008418,0.000000,0.000000,176.000000,2.000000,0.000000,0.000000,0.000000,0.000000,0.000000,0.000000,0.107029,0.118063,0.008418,0.000000,0.000000,176.000000,2.000000,0.000000,0.000000,0.000000,0.000000,0.000000,0.000000;
#CREDIT:;
#NOTES:
// measure 0
0000
0000
0000
0000
,  // measure 1
0000
0000
0000
0000
,  // measure 2
0000
0000
0000
0000
,  // measure 3
0000
0000
0000
0000
,  // measure 4
1000
0010
1000
0100
0000
1000
1000
0000
,  // measure 5
0001
0010
0001
0100
0000
0001
0001
0000
,  // measure 6
0100
0010
0100
0001
0000
1000
0010
0000
,  // measure 7
1000
0100
0010
0001
0000
1000
0001
0000
,  // measure 8
0001
0100
1000
0100
0001
0100
1000
0000
,  // measure 9
1000
0010
0001
0010
1000
0010
0001
0000
,  // measure 10
0010
1000
0100
0001
0100
1000
0100
0000
,  // measure 11
0100
0001
0010
1000
0010
0001
0010
0000
,  // measure 12
0010
0100
0010
0001
0010
0100
1000
0100
,  // measure 13
1000
0010
0100
0010
1000
0010
0100
0001
,  // measure 14
1000
0100
0010
0001
1000
0100
1000
0010
,  // measure 15
1000
0010
0100
0001
0100
0001
0010
0001
,  // measure 16
0010
0000
0100
0000
0010
0001
0100
0010
,  // measure 17
1000
0000
0100
0000
0010
0100
1000
0000
,  // measure 18
0001
0000
1000
0000
0001
0010
0100
1000
,  // measure 19
0001
0100
1000
0010
,  // measure 20
0001
0000
0100
0000
0001
0010
0100
1000
,  // measure 21
0001
0000
1000
0000
0100
0010
0100
0000
,  // measure 22
1000
0000
0010
0000
0100
0001
0100
0001
,  // measure 23
0100
1000
0010
0001
,  // measure 24
0100
0000
0010
0000
0100
0001
0010
0100
,  // measure 25
1000
0000
0001
0000
1000
0100
0010
0000
,  // measure 26
0001
0000
0010
0000
0100
0010
0001
0100
,  // measure 27
0010
0001
0100
1000
,  // measure 28
0010
0100
0010
1000
0000
0010
1000
0000
,  // measure 29
0010
0100
0010
0100
0000
0001
0010
0000
,  // measure 30
0100
0010
0001
1000
0000
0100
1000
0000
,  // measure 31
0001
0010
0100
1000
0000
0100
1000
0000
,  // measure 32
1001
0100
1000
0010
,  // measure 33
1001
0000
0000
0000
;
