#VERSION:0.83;
#TITLE:コミュニケーション;
#SUBTITLE:;
#ARTIST:Perfume;
#TITLETRANSLIT:Communication;
#SUBTITLETRANSLIT:;
#ARTISTTRANSLIT:;
#GENRE:Pop;
#ORIGIN:;
#CREDIT:chewi;
#BANNER:Communication.png;
#BACKGROUND:Communication-bg.png;
#PREVIEWVID:;
#JACKET:Communication-jacket.png;
#CDIMAGE:;
#DISCIMAGE:;
#LYRICSPATH:;
#CDTITLE:cdtitle.png;
#MUSIC:Communication.ogg;
#OFFSET:-0.501000;
#SAMPLESTART:58.907001;
#SAMPLELENGTH:15.000000;
#SELECTABLE:YES;
#DISPLAYBPM:115.000000;
#BPMS:0.000=115.000;
#STOPS:;
#DELAYS:;
#WARPS:;
#TIMESIGNATURES:0.000=4=4;
#TICKCOUNTS:0.000=4;
#COMBOS:0.000=1;
#SPEEDS:0.000=1.000=0.000=0;
#SCROLLS:0.000=1.000;
#FAKES:;
#LABELS:0.000=Song Start;
#BGCHANGES:;
#KEYSOUNDS:;
#ATTACKS:
;

//---------------dance-single - ----------------
#NOTEDATA:;
#CHARTNAME:;
#STEPSTYPE:dance-single;
#DESCRIPTION:;
#CHARTSTYLE:;
#DIFFICULTY:Beginner;
#METER:1;
#RADARVALUES:0.084856,0.108279,0.000000,0.118798,0.000000,60.000000,60.000000,0.000000,12.000000,0.000000,0.000000,0.000000,0.000000,0.000000,0.084856,0.108279,0.000000,0.118798,0.000000,60.000000,60.000000,0.000000,12.000000,0.000000,0.000000,0.000000,0.000000,0.000000;
#CREDIT:;
#DISPLAYBPM:115.000000;
#NOTES:
// measure 0
0000
0000
0000
0000
,  // measure 1
0000
0000
0000
0000
,  // measure 2
0000
0000
0000
0000
,  // measure 3
0000
0000
0000
0000
,  // measure 4
2000
0000
0000
3000
,  // measure 5
1000
0000
1000
0000
,  // measure 6
0002
0000
0000
0003
,  // measure 7
0001
0000
0001
0000
,  // measure 8
0200
0000
0000
0300
,  // measure 9
0100
0000
0100
0000
,  // measure 10
0020
0000
0000
0030
,  // measure 11
0010
0000
0010
0000
,  // measure 12
1000
0000
1000
0000
,  // measure 13
1000
0000
1000
0000
,  // measure 14
0001
0000
0001
0000
,  // measure 15
0001
0000
0001
0000
,  // measure 16
0010
0000
0010
0000
,  // measure 17
0010
0000
0010
0000
,  // measure 18
0100
0000
0100
0000
,  // measure 19
0100
0000
0100
0000
,  // measure 20
0002
0000
0000
0000
,  // measure 21
0000
0000
0000
0003
,  // measure 22
2000
0000
0000
0000
,  // measure 23
0000
0000
0000
3000
,  // measure 24
0020
0000
0000
0000
,  // measure 25
0000
0000
0000
0030
,  // measure 26
0200
0000
0000
0000
,  // measure 27
0000
0000
0000
0300
,  // measure 28
0100
0000
0100
0000
,  // measure 29
0010
0000
0010
0000
,  // measure 30
1000
0000
1000
0000
,  // measure 31
0001
0000
0001
0000
,  // measure 32
0010
0000
0010
0000
,  // measure 33
0100
0000
0100
0000
,  // measure 34
0001
0000
0001
0000
,  // measure 35
1000
0000
1000
0000
,  // measure 36
1000
0000
1000
0000
,  // measure 37
2000
0000
0000
3000
,  // measure 38
0001
0000
0001
0000
,  // measure 39
0002
0000
0000
0003
,  // measure 40
0100
0000
0100
0000
,  // measure 41
0200
0000
0000
0300
,  // measure 42
0010
0000
0010
0000
,  // measure 43
0020
0000
0000
0030
;

//---------------dance-single - ----------------
#NOTEDATA:;
#CHARTNAME:;
#STEPSTYPE:dance-single;
#DESCRIPTION:;
#CHARTSTYLE:;
#DIFFICULTY:Easy;
#METER:4;
#RADARVALUES:0.144254,0.174237,0.000000,0.000000,0.000000,102.000000,102.000000,0.000000,0.000000,0.000000,0.000000,0.000000,0.000000,0.000000,0.144254,0.174237,0.000000,0.000000,0.000000,102.000000,102.000000,0.000000,0.000000,0.000000,0.000000,0.000000,0.000000,0.000000;
#CREDIT:;
#DISPLAYBPM:115.000000;
#NOTES:
0000
0000
0000
0000
,
0000
0000
0000
0000
,
0000
0000
0000
0000
,
0000
0000
0000
0000
,
0010
0000
1000
0000
,
0100
0000
0001
0000
,
0010
0000
1000
0000
,
1000
0000
0010
0000
,
0010
0000
0001
0000
,
0100
0000
1000
0000
,
0010
0000
0001
0000
,
0001
0000
0010
0000
,
0010
0010
0100
0000
,
0001
0001
1000
0000
,
0100
0100
0010
0000
,
0001
0001
1000
0000
,
0001
0100
1000
0000
,
1000
0100
0001
0000
,
0001
0010
1000
0000
,
1000
0010
0001
0000
,
0001
0010
0100
1000
,
0001
0000
0000
0000
,
1000
0010
0100
0001
,
1000
0000
0000
0000
,
0100
0010
0001
1000
,
0010
0000
0000
0000
,
1000
0100
1000
0000
,
0001
0100
0001
0000
,
1000
0000
0100
0000
,
0001
0010
1000
0100
,
0001
0000
0010
0000
,
1000
0100
0001
0010
,
1000
0000
0010
0000
,
0001
0100
1000
0010
,
0001
0000
0100
0000
,
1000
0010
0001
0100
,
0100
0000
0001
0000
,
0010
0000
1000
0000
,
0100
0000
0001
0000
,
0001
0000
0100
0000
,
0100
0000
1000
0000
,
0010
0000
0001
0000
,
0100
0000
1000
0000
,
1000
0000
0100
0000
,
0100
0000
0000
0000
;

//---------------dance-single - ----------------
#NOTEDATA:;
#CHARTNAME:;
#STEPSTYPE:dance-single;
#DESCRIPTION:;
#CHARTSTYLE:;
#DIFFICULTY:Medium;
#METER:6;
#RADARVALUES:0.250324,0.239576,0.039599,0.059399,0.000000,177.000000,173.000000,4.000000,6.000000,0.000000,0.000000,0.000000,0.000000,0.000000,0.250324,0.239576,0.039599,0.059399,0.000000,177.000000,173.000000,4.000000,6.000000,0.000000,0.000000,0.000000,0.000000,0.000000;
#CREDIT:;
#DISPLAYBPM:115.000000;
#NOTES:
0000
0000
0000
0000
,
0000
0000
0000
0000
,
0000
0000
0000
0000
,
0000
0000
0000
0000
,
1000
0000
0100
0000
1000
0100
1000
0000
,
0001
0010
0100
1000
,
0001
0000
0010
0000
0001
0010
0001
0000
,
1000
0010
0100
0001
,
0100
0000
0010
0000
0100
0010
0100
0000
,
0010
1000
0001
0010
,
0001
0000
0010
0000
0100
0010
0001
0000
,
1000
0100
0010
0001
,
1000
0000
0001
0000
0100
0010
0100
0000
,
0001
1000
0100
0010
,
0001
0000
0010
0000
0100
0010
0001
0000
,
0010
0100
1000
0001
,
0100
0000
0010
0000
1000
0001
0010
0000
,
0001
1000
0100
1000
,
0010
0000
0100
0000
0001
1000
0010
0000
,
0100
0010
1000
0001
,
2001
0001
0100
0001
,
0020
0000
0000
3030
,
0010
0000
0100
0000
0001
1000
0100
0000
,
1000
0001
0010
0100
,
2100
0100
0001
0010
,
0002
0000
0000
3003
,
0001
1000
0001
0000
1000
0001
1000
0000
,
1002
0010
0200
0303
,
0100
0100
0100
0100
,
0010
0000
0010
0000
0010
0010
0010
0000
,
1000
1000
1000
1000
,
0001
0000
0001
0000
0001
0001
0001
0000
,
0010
0010
0010
0010
,
0100
0000
0100
0000
0100
0100
0100
0000
,
1000
1000
1000
1000
,
0001
0000
1000
0000
0001
1000
0001
0000
,
0001
0000
0010
0000
0001
0010
0001
0000
,
1000
0100
0010
0001
,
1000
0000
0100
0000
1000
0100
1000
0000
,
0001
0100
0010
1000
,
0010
0000
0100
0000
0010
0100
0010
0000
,
0100
0001
1000
0100
,
1000
0000
0100
0000
0010
0100
1000
0000
,
0001
0010
0100
1000
,
1001
0000
0000
0000
;

//---------------dance-single - ----------------
#NOTEDATA:;
#CHARTNAME:;
#STEPSTYPE:dance-single;
#DESCRIPTION:;
#CHARTSTYLE:;
#DIFFICULTY:Hard;
#METER:9;
#RADARVALUES:0.393164,0.370253,0.148497,0.000000,0.000000,278.000000,263.000000,15.000000,0.000000,0.000000,0.000000,0.000000,0.000000,0.000000,0.393164,0.370253,0.148497,0.000000,0.000000,278.000000,263.000000,15.000000,0.000000,0.000000,0.000000,0.000000,0.000000,0.000000;
#CREDIT:;
#DISPLAYBPM:115.000000;
#NOTES:
0000
0000
0000
0000
,
0000
0000
0000
0000
,
0000
0000
0000
0000
,
0000
0000
0000
0000
,
1000
0001
0100
0010
1000
0000
0000
0000
,
0001
1000
0100
0010
0001
0000
0000
0000
,
1000
0100
0010
0001
1000
0100
1000
0100
,
1000
0010
0100
0001
0100
0001
0100
0001
,
0100
0010
1000
0001
0010
0000
0000
0000
,
0100
0010
0001
1000
0100
0000
0000
0000
,
0010
0100
1000
0001
0100
0010
1000
0001
,
0100
0010
1000
0001
0010
0000
0000
0000
,
0001
0010
0100
1000
0100
0000
0000
0001
,
0010
0100
0010
0001
1000
0000
0000
1000
,
0001
0010
0100
1000
1000
0001
0001
1000
,
0100
0010
0001
1000
0001
1000
1001
0000
,
1000
0010
0100
0001
1000
0000
0000
0000
,
0001
0010
0100
1000
0001
0000
0000
0001
,
1000
0010
0010
1000
0001
0100
0100
0010
,
1000
0100
0010
0001
1000
0000
0000
0000
,
0001
0101
1010
1001
,
1100
0000
0000
0001
1000
0100
0010
0001
,
1000
1100
0011
1001
,
0101
0000
0000
0100
0010
1000
0001
1000
,
0010
1010
0101
0011
,
1001
0011
1001
0000
,
1000
0100
1000
0000
0001
0100
0001
0000
,
0100
0010
1000
0001
0010
0100
1000
1000
,
1000
0010
0100
0001
0100
0010
0100
0010
,
1000
0010
1000
0001
0010
0100
1000
0000
,
0001
0010
0100
0010
0001
0100
0010
1000
,
0001
1000
0100
1000
0001
0100
0100
0000
,
0010
1000
0001
0010
0100
0010
0001
1000
,
0100
0010
0100
1000
0001
0100
0010
0000
,
1000
0010
0100
0001
1000
0010
0100
0010
,
1000
0001
0010
0100
0010
0010
0010
0000
,
0001
0010
0100
1000
0001
1000
0100
1000
,
0001
0100
0010
0100
0001
1000
0010
0000
,
1000
0001
1000
0010
0100
0001
0010
0100
,
0010
0001
1000
0100
1000
0001
0100
0000
,
0010
1000
0001
1000
0010
0100
0001
0010
,
0100
1000
0001
0010
0100
1000
0001
0000
,
1000
0010
0100
0001
1000
0100
1000
0001
,
0100
0010
1000
0001
0010
0100
1000
0001
,
1000
0000
0000
0000
;
