#TITLE:COME CLEAN;
#SUBTITLE:;
#ARTIST:Hilary Duff;
#TITLETRANSLIT:;
#SUBTITLETRANSLIT:;
#ARTISTTRANSLIT:;
#CREDIT:Chewphoria~;
#BANNER:COME CLEAN.png;
#BACKGROUND:COME CLEAN-bg.png;
#LYRICSPATH:;
#CDTITLE:;
#MUSIC:COME CLEAN.mp3;
#OFFSET:-1.116;
#SAMPLESTART:45.078;
#SAMPLELENGTH:15.000;
#SELECTABLE:YES;
#BPMS:0.000=118.030;
#STOPS:;
#BGCHANGES:;

//---------------dance-single - Chewphoria~----------------
#NOTES:
     dance-single:
     Chewphoria~:
     Beginner:
     1:
     0.123,0.163,0.069,0.079,0.000: // measure 1
0000
0000
0000
0000
,  // measure 2
0000
0000
0000
0000
,  // measure 3
0000
0000
0000
0000
,  // measure 4
0000
0000
0000
0000
,  // measure 5
2000
0000
0000
3000
,  // measure 6
1000
0000
1000
0000
,  // measure 7
2000
0000
0000
0000
,  // measure 8
3000
0000
0000
0000
,  // measure 9
0002
0000
0000
0003
,  // measure 10
0001
0000
0001
0000
,  // measure 11
0002
0000
0000
0000
,  // measure 12
0003
0000
0000
0000
,  // measure 13
0010
0000
1000
0000
,  // measure 14
0100
0000
0001
0000
,  // measure 15
0001
0000
0010
0000
,  // measure 16
1000
0000
0100
0000
,  // measure 17
0100
0000
0001
0000
,  // measure 18
0010
0000
1000
0000
,  // measure 19
1001
0000
0000
0000
,  // measure 20
0110
0000
0000
0000
,  // measure 21
1001
0000
0000
0000
,  // measure 22
0110
0110
0000
0000
,  // measure 23
1000
0000
0001
0000
,  // measure 24
1000
1000
1000
0000
,  // measure 25
0100
0000
0010
0000
,  // measure 26
0100
0100
0100
0000
,  // measure 27
0010
0000
1000
0000
,  // measure 28
0100
0000
1000
0000
,  // measure 29
0100
0000
0001
0000
,  // measure 30
0010
0000
1000
0000
,  // measure 31
0100
0100
0100
0000
,  // measure 32
0010
0000
0110
0000
,  // measure 33
0010
0010
0010
0000
,  // measure 34
0001
0000
1001
0000
,  // measure 35
1000
0000
0001
0000
,  // measure 36
0100
0000
0010
0000
,  // measure 37
1000
0000
0001
0000
,  // measure 38
1000
0000
0001
0001
,  // measure 39
0001
0000
0010
0000
,  // measure 40
0200
0000
0000
0300
,  // measure 41
0100
0000
0100
0000
,  // measure 42
0200
0000
0000
0000
,  // measure 43
0300
0000
0000
0000
,  // measure 44
0020
0000
0000
0030
,  // measure 45
0010
0000
0010
0000
,  // measure 46
0020
0000
0000
0000
,  // measure 47
0000
0000
0000
0000
,  // measure 48
0030
0000
0000
0000
;

//---------------dance-single - Chewphoria~----------------
#NOTES:
     dance-single:
     Chewphoria~:
     Easy:
     3:
     0.197,0.233,0.129,0.109,0.000: // measure 1
0000
0000
0000
0000
,  // measure 2
0000
0000
0000
0000
,  // measure 3
0000
0000
0000
0000
,  // measure 4
0000
0000
0000
0000
,  // measure 5
0010
0000
1000
0000
,  // measure 6
0010
1000
0010
0000
,  // measure 7
0010
0000
0001
0000
,  // measure 8
0010
0001
0010
0000
,  // measure 9
1001
0000
0110
0000
,  // measure 10
1001
0000
0110
0100
,  // measure 11
0010
0000
0000
0000
,  // measure 12
1000
0000
0001
0000
,  // measure 13
1000
1000
1000
1000
,  // measure 14
1000
1000
1000
1000
,  // measure 15
0001
0001
0001
0001
,  // measure 16
0001
0001
0001
0001
,  // measure 17
0100
0100
0100
0100
,  // measure 18
0100
0100
0100
0100
,  // measure 19
0010
0010
0010
0010
,  // measure 20
0020
0000
0000
0030
,  // measure 21
2000
0000
0000
3000
,  // measure 22
0200
0000
0000
0300
,  // measure 23
0100
0010
0110
0000
,  // measure 24
0010
0010
0010
0000
,  // measure 25
0001
1000
1001
0000
,  // measure 26
1000
1000
1000
0000
,  // measure 27
0002
0000
0013
0000
,  // measure 28
2000
0000
3010
0000
,  // measure 29
0200
0000
0310
0000
,  // measure 30
0020
0000
0130
0000
,  // measure 31
0010
1000
0100
0001
,  // measure 32
0010
0000
0000
0000
,  // measure 33
0010
0001
0100
1000
,  // measure 34
0010
0000
0000
0000
,  // measure 35
0110
0000
1001
0000
,  // measure 36
0110
0000
1001
0001
,  // measure 37
1000
0000
0100
0000
,  // measure 38
0010
0000
1000
0100
,  // measure 39
0010
0001
1000
0000
,  // measure 40
0101
0000
1000
0000
,  // measure 41
0010
0100
0110
0000
,  // measure 42
0100
0000
0001
0000
,  // measure 43
1000
0100
0010
0001
,  // measure 44
2000
0000
3002
0000
,  // measure 45
0003
0100
1000
0100
,  // measure 46
0002
0000
0023
0000
,  // measure 47
0031
0001
0001
1000
,  // measure 48
1001
0000
0000
0000
;

//---------------dance-single - Chewphoria~----------------
#NOTES:
     dance-single:
     Chewphoria~:
     Medium:
     4:
     0.255,0.303,0.109,0.040,0.000: // measure 1
0000
0000
0000
0000
,  // measure 2
0000
0000
0000
0000
,  // measure 3
0000
0000
0000
0000
,  // measure 4
0000
0000
0000
0000
,  // measure 5
2000
0000
0000
0002
0000
0000
0000
0000
,  // measure 6
0000
3003
1000
0010
,  // measure 7
0200
0000
0020
0000
,  // measure 8
0000
0330
0010
1000
,  // measure 9
0001
0010
0100
1000
,  // measure 10
0001
0100
0110
1001
,  // measure 11
0000
0000
0000
0000
,  // measure 12
1000
0000
0001
0000
,  // measure 13
0100
0000
0100
0000
0100
0000
0100
0100
,  // measure 14
0100
0000
0100
0000
0100
0000
0100
0010
,  // measure 15
0010
0000
0010
0000
0010
0000
0010
0010
,  // measure 16
0010
0000
0010
0000
0010
0000
0010
1000
,  // measure 17
1000
0000
1000
0000
1000
0000
1000
1000
,  // measure 18
1000
0000
1000
0000
1000
0000
1000
0001
,  // measure 19
0001
0001
0001
0001
,  // measure 20
0001
0101
1000
1100
,  // measure 21
0010
0100
1000
0010
,  // measure 22
0001
0100
1000
0000
,  // measure 23
1000
0000
0001
0000
1000
0100
1000
0000
,  // measure 24
0001
0000
0100
0000
0010
0100
0010
0000
,  // measure 25
0100
0000
0001
0000
1000
0100
1000
0000
,  // measure 26
0001
0000
1000
0000
0100
0010
0100
0000
,  // measure 27
0011
0101
0100
1000
,  // measure 28
0010
1000
0100
0010
,  // measure 29
0001
1100
1000
0101
,  // measure 30
0010
0100
0010
0000
0100
0010
0100
0000
,  // measure 31
0001
1000
0100
0000
,  // measure 32
0010
0010
0110
0000
,  // measure 33
0010
0001
1000
0000
,  // measure 34
0010
0010
0110
0000
,  // measure 35
0100
0000
0010
0000
1000
0010
1000
0000
,  // measure 36
0100
0001
0010
0100
,  // measure 37
0010
0000
0001
0000
0100
0001
0100
0000
,  // measure 38
0010
1000
0001
0010
,  // measure 39
1100
0001
0010
0010
,  // measure 40
0100
0000
0000
0000
0100
0001
0100
0000
,  // measure 41
1000
0000
0000
0000
0100
1000
0100
0000
,  // measure 42
1000
0000
0000
0000
1000
0010
1000
0000
,  // measure 43
0010
0000
0000
0000
0010
0001
0010
1000
,  // measure 44
0100
0000
0000
0001
0000
0000
0000
0000
,  // measure 45
0100
1000
0010
0001
,  // measure 46
0100
0000
0010
0000
,  // measure 47
0001
0010
0100
1000
,  // measure 48
0100
0000
0000
0000
;

//---------------dance-single - Chewphoria~----------------
#NOTES:
     dance-single:
     Chewphoria~:
     Hard:
     6:
     0.350,0.443,0.139,0.169,0.000: // measure 1
0000
0000
0000
0000
,  // measure 2
0000
0000
0000
0000
,  // measure 3
0000
0000
0000
0000
,  // measure 4
0000
0000
0000
0000
,  // measure 5
2000
0000
0000
0200
0000
0000
0000
0000
,  // measure 6
3000
0000
0300
0000
0001
0000
0010
0100
,  // measure 7
2000
0000
0000
0020
0000
0000
0000
0000
,  // measure 8
3000
0000
0030
0000
1000
0001
0010
0000
,  // measure 9
0001
1000
0100
1000
0000
0000
1000
0100
,  // measure 10
0000
0000
0000
0001
0000
1000
0002
0000
,  // measure 11
0000
0000
0000
0000
,  // measure 12
0003
0000
0000
0000
,  // measure 13
1000
0000
1000
0000
1000
0000
1000
0001
,  // measure 14
0100
0000
0100
0000
0100
0000
0100
1000
,  // measure 15
0010
0000
0010
0000
0010
0000
0010
0100
,  // measure 16
0001
0000
0001
0000
0001
0000
0001
0010
,  // measure 17
0100
0000
0100
0000
0100
0000
0100
1000
,  // measure 18
0010
0000
0010
0000
0010
0000
0010
0001
,  // measure 19
0100
0000
0100
0000
0100
0000
0100
0010
,  // measure 20
0002
0010
1000
0000
1000
1000
0100
0000
,  // measure 21
2003
0100
0001
0000
0001
0001
0010
0000
,  // measure 22
3010
0010
1000
1000
0000
0000
0000
0000
,  // measure 23
1010
0000
0101
0000
1000
0001
1000
0000
,  // measure 24
0010
0000
0100
0000
0010
0100
0010
0000
,  // measure 25
1010
0000
0101
0000
1000
0001
1000
0000
,  // measure 26
0100
0000
0010
0000
0010
0001
0100
0000
,  // measure 27
1100
0000
0101
0000
0001
0100
0010
0000
,  // measure 28
0001
0000
0010
0000
0100
1000
0100
0000
,  // measure 29
1100
0000
0101
0000
1000
0010
0100
0000
,  // measure 30
1000
0000
0001
0000
0010
1000
0010
0000
,  // measure 31
0001
0010
0200
0000
1300
0001
0020
0000
,  // measure 32
0130
0010
0100
0010
1000
0010
1000
0010
,  // measure 33
1000
0001
0020
0000
0130
0010
0002
0000
,  // measure 34
0103
0010
1000
0001
0010
0100
1000
0100
,  // measure 35
1001
0110
1010
0000
1000
0010
0100
0000
,  // measure 36
1001
1100
1001
0000
1000
0100
0010
0000
,  // measure 37
0001
0010
0100
1000
1000
0100
0001
0010
,  // measure 38
1000
0001
0010
0001
0010
0100
1000
0100
,  // measure 39
1000
0100
0010
0001
1000
0100
0010
0001
,  // measure 40
0002
1000
0003
1000
0010
0100
0010
0100
,  // measure 41
0200
0001
0300
0001
0010
0001
0010
0001
,  // measure 42
0020
1000
0030
0100
1000
0100
1000
0100
,  // measure 43
0010
0100
1000
0100
0010
0100
1000
0010
,  // measure 44
0100
0000
0001
0100
0020
0000
1000
0000
,  // measure 45
0001
0000
1030
0000
1000
0000
0100
0010
,  // measure 46
0002
0100
2000
0000
,  // measure 47
0000
0000
0000
0000
,  // measure 48
3003
0000
0000
0000
;
