#TITLE:Come Back to Me (Seamus Haji & Paul Emanuel Radio Edit);
#SUBTITLE:;
#ARTIST:Utada;
#TITLETRANSLIT:;
#SUBTITLETRANSLIT:;
#ARTISTTRANSLIT:;
#GENRE:Dance;
#CREDIT:chewi;
#BANNER:Come Back to Me (Seamus Haji & Paul Emanuel Radio Edit).png;
#BACKGROUND:Come Back to Me (Seamus Haji & Paul Emanuel Radio Edit)-bg.png;
#LYRICSPATH:;
#CDTITLE:cdtitle.png;
#MUSIC:Come Back to Me (Seamus Haji & Paul Emanuel Radio Edit).ogg;
#OFFSET:-0.261000;
#SAMPLESTART:60.258999;
#SAMPLELENGTH:15.000000;
#SELECTABLE:YES;
#BPMS:0.000000=130.000000
;
#STOPS:
;
#BGCHANGES:;
#KEYSOUNDS:;
#ATTACKS:;

//---------------dance-single - ----------------
#NOTES:
     dance-single:
     :
     Beginner:
     1:
     0.083278,0.098181,0.000000,0.122726,0.000000,45.000000,0.000000,12.000000,0.000000,0.000000,0.000000,0.083278,0.098181,0.000000,0.122726,0.000000,45.000000,0.000000,12.000000,0.000000,0.000000,0.000000:
// measure 0
0000
0000
0000
0000
,  // measure 1
0000
0000
0000
0000
,  // measure 2
0000
0000
0000
0000
,  // measure 3
0000
0000
0000
0000
,  // measure 4
2000
0000
0000
0000
,  // measure 5
3000
0000
0000
0000
,  // measure 6
0002
0000
0000
0000
,  // measure 7
0003
0000
0000
0000
,  // measure 8
1000
0000
0000
0000
,  // measure 9
0001
0000
0000
0000
,  // measure 10
1000
0000
0000
0000
,  // measure 11
0001
0000
0000
0000
,  // measure 12
0010
0000
0010
0000
,  // measure 13
0010
0000
0010
0000
,  // measure 14
0020
0000
0000
0000
,  // measure 15
0030
0000
0000
0000
,  // measure 16
0001
0000
0000
0000
,  // measure 17
1000
0000
0000
0000
,  // measure 18
1000
0000
0000
0000
,  // measure 19
0001
0000
0000
0000
,  // measure 20
0100
0000
0100
0000
,  // measure 21
0100
0000
0100
0000
,  // measure 22
0200
0000
0000
0000
,  // measure 23
0300
0000
0000
0000
,  // measure 24
0010
0000
0000
0000
,  // measure 25
0010
0000
0000
0000
,  // measure 26
1000
0000
0000
0000
,  // measure 27
1000
0000
0000
0000
,  // measure 28
0010
0000
0000
0000
,  // measure 29
0010
0000
0000
0000
,  // measure 30
0001
0000
0000
0000
,  // measure 31
0001
0000
0000
0000
,  // measure 32
0002
0000
0000
0003
,  // measure 33
0001
0000
0000
0000
,  // measure 34
2000
0000
0000
3000
,  // measure 35
1000
0000
0000
0000
,  // measure 36
0200
0000
0000
0300
,  // measure 37
0100
0000
0000
0000
,  // measure 38
0200
0000
0000
0300
,  // measure 39
0100
0000
0000
0000
,  // measure 40
0020
0000
0000
0030
,  // measure 41
0010
0000
0000
0000
,  // measure 42
0002
0000
0000
0003
,  // measure 43
0001
0000
0000
0000
,  // measure 44
0002
0000
0000
0003
,  // measure 45
0001
0000
0000
0000
,  // measure 46
0020
0000
0000
0030
,  // measure 47
0010
0000
0000
0000
,  // measure 48
0010
0000
0000
0000
;

//---------------dance-single - ----------------
#NOTES:
     dance-single:
     :
     Easy:
     3:
     0.160712,0.147271,0.020454,0.081817,0.000000,100.000000,2.000000,8.000000,0.000000,0.000000,0.000000,0.160712,0.147271,0.020454,0.081817,0.000000,100.000000,2.000000,8.000000,0.000000,0.000000,0.000000:
// measure 0
0000
0000
0000
0000
,  // measure 1
0000
0000
0000
0000
,  // measure 2
0000
0000
0000
0000
,  // measure 3
0000
0000
0000
0000
,  // measure 4
2000
0000
0000
3000
,  // measure 5
0002
0000
0000
0003
,  // measure 6
0002
0000
0000
0003
,  // measure 7
0002
0000
0000
0003
,  // measure 8
0001
0000
0010
0000
,  // measure 9
0001
0010
0001
0000
,  // measure 10
1000
0000
0001
0000
,  // measure 11
1000
0001
1000
0000
,  // measure 12
1000
0000
0100
0000
,  // measure 13
1000
0100
1000
0000
,  // measure 14
0001
0000
1000
0000
,  // measure 15
0001
1000
1001
0000
,  // measure 16
0100
0000
0010
0000
,  // measure 17
0100
0010
0100
0000
,  // measure 18
0010
0000
0100
0000
,  // measure 19
0010
0100
0010
0000
,  // measure 20
1000
0000
0010
0000
,  // measure 21
1000
0010
1000
0000
,  // measure 22
0001
0000
1000
0000
,  // measure 23
0001
1000
1001
0000
,  // measure 24
0002
0000
0000
0000
,  // measure 25
0013
0010
0010
0000
,  // measure 26
0200
0000
0000
0000
,  // measure 27
1300
1000
1000
0000
,  // measure 28
2000
0000
0000
0000
,  // measure 29
3100
0100
0100
0000
,  // measure 30
0020
0000
0000
0000
,  // measure 31
0031
0001
0001
0000
,  // measure 32
0001
0000
1000
0000
,  // measure 33
0001
1000
0001
0000
,  // measure 34
1000
0000
0001
0000
,  // measure 35
1000
0001
1000
0000
,  // measure 36
1000
0000
0100
0000
,  // measure 37
0001
0000
0010
0000
,  // measure 38
1000
0000
0100
0000
,  // measure 39
0001
0100
1000
0000
,  // measure 40
0010
0000
0100
0000
,  // measure 41
0010
0100
0010
0000
,  // measure 42
0100
0000
0010
0000
,  // measure 43
0100
0010
0100
0000
,  // measure 44
0100
0000
0001
0000
,  // measure 45
0010
0000
1000
0000
,  // measure 46
0100
0000
0001
0000
,  // measure 47
0010
1000
0100
0010
,  // measure 48
0001
0000
0000
0000
;

//---------------dance-single - ----------------
#NOTES:
     dance-single:
     :
     Medium:
     6:
     0.255679,0.294542,0.184089,0.092044,0.000000,148.000000,18.000000,9.000000,0.000000,0.000000,0.000000,0.255679,0.294542,0.184089,0.092044,0.000000,148.000000,18.000000,9.000000,0.000000,0.000000,0.000000:
// measure 0
0000
0000
0000
0000
,  // measure 1
0000
0000
0000
0000
,  // measure 2
0000
0000
0000
0000
,  // measure 3
0000
0000
0000
0000
,  // measure 4
2002
0000
0000
3000
,  // measure 5
0200
0000
0000
0003
,  // measure 6
0020
0000
0000
0300
,  // measure 7
2000
0000
0000
3030
,  // measure 8
1000
0100
0010
0001
,  // measure 9
1000
0100
1000
1000
,  // measure 10
0001
0100
0010
0100
,  // measure 11
0001
0001
0001
1000
,  // measure 12
1100
0101
0000
0000
,  // measure 13
1100
0101
0000
0100
,  // measure 14
0010
1000
0001
0020
,  // measure 15
0000
0000
0030
0000
,  // measure 16
0001
0010
0100
1000
,  // measure 17
0001
1000
0100
1000
,  // measure 18
0001
0100
0010
1000
,  // measure 19
0001
0100
0001
0010
,  // measure 20
0011
1100
0000
0000
,  // measure 21
0011
1100
0000
0000
,  // measure 22
0100
1000
0010
0001
,  // measure 23
0100
0010
0001
0100
,  // measure 24
0010
1000
0001
1000
,  // measure 25
0020
0100
0100
0130
,  // measure 26
0100
0010
1000
0001
,  // measure 27
2000
0001
0001
3001
,  // measure 28
0001
0010
0100
0010
,  // measure 29
0002
0010
0100
1003
,  // measure 30
1000
0010
0001
0100
,  // measure 31
1000
0010
0100
1000
,  // measure 32
0010
0010
0100
0010
,  // measure 33
0001
0000
0100
0001
0000
0000
0000
0000
,  // measure 34
0010
0010
0100
0010
,  // measure 35
1000
0000
0100
1000
0000
0000
0000
0000
,  // measure 36
1000
1000
0001
0100
,  // measure 37
0010
0000
0100
0010
0000
0000
0000
0000
,  // measure 38
0100
0100
0010
1000
,  // measure 39
1010
0101
1010
0101
,  // measure 40
1000
1000
0001
0010
,  // measure 41
0100
0000
0010
0100
0000
0000
0000
0000
,  // measure 42
0010
0010
0100
1000
,  // measure 43
0001
0000
0001
0100
0000
0000
0000
0000
,  // measure 44
0100
0100
0010
1000
,  // measure 45
0001
0000
0010
0001
0000
0000
0000
0000
,  // measure 46
0101
0011
0101
0011
,  // measure 47
0010
0001
1000
0100
,  // measure 48
1001
0000
0000
0000
;

//---------------dance-single - ----------------
#NOTES:
     dance-single:
     :
     Hard:
     11:
     0.439767,0.392722,0.245451,0.255679,0.102271,252.000000,24.000000,25.000000,0.000000,0.000000,0.000000,0.439767,0.392722,0.245451,0.255679,0.102271,252.000000,24.000000,25.000000,0.000000,0.000000,0.000000:
// measure 0
0000
0000
0000
0000
,  // measure 1
0000
0000
0000
0000
,  // measure 2
0000
0000
0000
0000
,  // measure 3
0000
0000
0000
0000
,  // measure 4
1000
0000
0000
0010
0000
0000
0100
0000
0000
0010
0000
0000
0000
0000
0000
0000
,  // measure 5
1000
0000
0000
0100
0000
0000
0010
0000
0000
0100
0000
0000
0000
0000
0000
0000
,  // measure 6
1000
0000
0000
0001
0000
0000
0010
0000
0000
0001
0000
0000
0000
0000
0000
0000
,  // measure 7
0001
0000
0000
1000
0000
0000
0010
0000
0000
1000
0000
0000
0000
0000
0000
0000
,  // measure 8
0001
0000
0000
0001
0100
0000
0000
0000
0010
0000
0000
0010
1000
0000
0000
0000
,  // measure 9
2001
3200
0320
0032
,  // measure 10
0103
0000
0000
0100
0010
0000
0000
0000
1000
0000
0000
1000
0001
0000
0000
0000
,  // measure 11
2100
3200
2300
3002
,  // measure 12
0013
0000
1100
0000
0001
0010
0100
1000
,  // measure 13
0100
0000
0011
0000
1000
0100
0010
0001
,  // measure 14
1000
0000
0001
0100
0000
0010
1000
0000
,  // measure 15
0001
0100
0001
0100
0001
0010
0001
0010
,  // measure 16
0001
0000
0000
0001
0010
0000
0000
0000
0100
0000
0000
0100
1000
0000
0000
0000
,  // measure 17
1020
0230
0302
0203
,  // measure 18
0301
0000
0000
0001
0010
0000
0000
0000
0001
0000
0000
0001
0100
0000
0000
0000
,  // measure 19
0201
0320
2030
3200
,  // measure 20
0310
0000
1100
0000
0001
0010
0100
1000
,  // measure 21
0100
0000
0011
0000
1000
0100
0010
0001
,  // measure 22
1000
0000
0001
1000
0000
1000
0002
0000
,  // measure 23
0100
0100
0100
0103
,  // measure 24
0100
0010
1000
0000
0100
0010
0001
0000
,  // measure 25
1000
0100
0001
0100
1000
0100
0001
0000
,  // measure 26
0001
0100
1000
0000
1000
0010
0100
0000
,  // measure 27
0010
0100
0001
0100
0010
0100
0001
0000
,  // measure 28
0001
0010
0100
0000
1000
0010
0100
0000
,  // measure 29
0001
1000
0100
1000
0001
0100
0001
0000
,  // measure 30
0100
0010
0100
0010
1000
0001
1000
0001
,  // measure 31
1001
1100
0110
0011
,  // measure 32
1002
0000
0103
0000
0100
0010
1000
0000
,  // measure 33
1000
0100
0010
0001
1000
0100
1100
0000
,  // measure 34
1002
0000
0103
0000
0100
0010
0100
0000
,  // measure 35
0010
0100
0001
1000
0100
0010
0100
0000
,  // measure 36
2100
0000
3100
0000
0100
1000
0001
0000
,  // measure 37
0001
0100
0010
0100
0001
0010
1100
0000
,  // measure 38
0010
0001
0100
0000
0010
1000
0100
0000
,  // measure 39
1000
0001
1000
0001
0100
0010
0100
0010
,  // measure 40
0120
0000
1030
0000
1000
0010
0100
0000
,  // measure 41
0001
0010
0100
1000
0001
1000
1100
0000
,  // measure 42
1002
0000
0103
0000
0100
0010
1000
0000
,  // measure 43
0001
0010
0100
0010
0001
0100
0010
0000
,  // measure 44
1020
0000
0130
0000
0010
1000
0100
0000
,  // measure 45
1000
0001
0100
0010
0100
0001
1001
0000
,  // measure 46
2100
3010
0102
0013
,  // measure 47
0001
0000
0000
0001
1000
0000
0000
1000
0010
0000
0000
0010
0100
0000
0000
0100
,  // measure 48
0010
0000
0000
0000
;
