#TITLE:Colorful Cookie;
#SUBTITLE:;
#ARTIST:Lucky Vacuum;
#TITLETRANSLIT:;
#SUBTITLETRANSLIT:;
#ARTISTTRANSLIT:;
#CREDIT:steps by Chewi☆;
#BANNER:[ROUND 4] - Colorful Cookie.png;
#BACKGROUND:[ROUND 4] - Colorful Cookie-bg.png;
#LYRICSPATH:;
#CDTITLE:;
#MUSIC:[ROUND 4] - Colorful Cookie.mp3;
#OFFSET:-0.413;
#SAMPLESTART:44.413;
#SAMPLELENGTH:12.000;
#SELECTABLE:YES;
#BPMS:0.000=180.000;
#STOPS:;
#BGCHANGES:;

//---------------dance-single - Chewi----------------
#NOTES:
     dance-single:
     Chewi:
     Hard:
     8:
     0.563,0.563,0.604,0.035,0.000:
0000
0000
0000
0000
,
0000
0000
0000
0000
,
0000
0000
0000
0000
,
0000
0000
0000
0000
,
0011
0000
0110
0000
1100
0000
1000
0010
,
0000
0101
0000
1001
0000
0100
0010
0001
,
1001
0000
0110
0000
1001
0000
0001
0001
,
0000
1000
1000
0000
1000
0010
0100
0001
,
0100
0000
0010
0000
1000
0000
0001
0010
,
0100
0000
1000
0000
0010
0000
1000
0100
,
0010
0000
0001
0000
1000
0000
0010
0100
,
0001
1000
0010
0100
,
0001
0100
0001
0100
0001
0100
0001
0100
,
0010
1000
0010
1000
0010
1000
0010
1000
,
0001
1000
0001
1000
0001
1000
0001
1000
,
0100
0010
0100
0010
0100
0010
0100
0010
,
0002
0000
0000
0003
,
0001
0010
0100
0000
1000
0010
0100
0000
,
0001
1000
0100
1000
0001
0100
0001
0000
,
1000
0010
0100
0000
0001
0010
0100
0000
,
1000
0001
0010
0001
1000
0010
1000
0000
,
0001
0100
0001
0000
0100
0010
0100
0000
,
0010
1000
0010
0000
1000
0001
1000
0000
,
1000
0100
0001
0000
1000
0010
0001
0000
,
0001
0010
1000
0000
0001
0100
1000
0000
,
0101
0000
1001
0000
1010
0000
0010
1100
,
0000
0101
0000
1001
0000
1000
0001
0100
,
0110
0000
1001
0000
0110
0000
0100
0101
,
0000
1100
0000
0101
1000
0010
0100
0100
,
1010
0000
1001
0000
1100
0000
0010
0011
,
0000
1001
0000
1100
0000
1000
0001
0100
,
0110
0000
1001
0000
0110
0000
0100
0100
,
0000
0010
0010
0000
0010
1000
0001
0100
,
0110
0000
1001
0000
1100
0000
0100
0101
,
0000
1100
0000
1001
0000
0001
1000
0010
,
0110
0000
1001
0000
0110
0000
0010
1010
,
0000
0101
0000
1001
0001
0100
0010
0010
,
0101
0000
1001
0000
1010
0000
0100
1100
,
0000
0011
0000
1001
0000
0001
1000
0010
,
0110
0000
1001
0000
0110
0000
0010
0010
,
0000
0100
0100
0000
0100
0001
1000
0010
,
0100
0100
0100
0100
,
0001
0001
0001
0001
,
0010
0010
0010
0010
,
1000
1000
1000
1000
,
0100
0100
0100
0100
,
0001
0001
0001
0001
,
0100
0100
0100
0100
,
1000
1000
1000
1000
,
0001
0000
1000
0000
0010
0000
1000
0001
,
0010
0000
0100
0000
1000
0000
0001
0100
,
0010
0000
1000
0000
0001
0000
0100
0010
,
1000
0000
0001
0000
0010
0000
0100
1000
,
0010
1000
0010
1000
0010
1000
0010
1000
,
0100
0010
0100
0010
0100
0010
0100
0010
,
0001
0010
0001
0010
0001
0010
0001
0010
,
0100
1000
0100
1000
0100
1000
0100
1000
,
0002
0000
0000
0000
,
0010
0100
1000
0013
,
0000
0001
0010
0100
1000
0000
0010
0000
,
1000
0000
0100
0010
0000
0011
0000
1100
,
0000
0001
1000
0010
0100
0000
0001
0000
,
0100
0000
0010
1000
0000
1010
0000
0101
,
0000
1000
0100
0010
0001
0000
0010
0000
,
0011
0011
0000
1100
0000
0000
1001
0000
,
1000
0100
0010
0001
1000
0000
1010
0000
,
0001
0010
0100
1000
0001
0000
0101
0000
,
0000
1000
0100
0010
0001
0000
0100
0000
,
0001
0000
0010
0100
0000
1100
0000
0011
,
0000
1000
0001
0100
0010
0000
1000
0000
,
0010
0000
0100
0001
0000
0101
0000
1010
,
0000
0001
0010
0100
1000
0100
0010
0001
,
1000
0000
0001
1001
0000
0110
0000
1001
,
0001
0010
0100
1000
0001
0000
0101
0000
,
1000
0100
0010
0001
1000
0000
1010
0000
,
2002
0000
0000
0000
,
0000
0000
0000
3003
;

//---------------dance-single - Chewi----------------
#NOTES:
     dance-single:
     Chewi:
     Medium:
     5:
     0.360,0.365,0.112,0.035,0.000:
0000
0000
0000
0000
,
0000
0000
0000
0000
,
0000
0000
0000
0000
,
0000
0000
0000
0000
,
1000
0010
0001
0100
,
1000
0010
0001
0010
,
0001
0010
1000
0100
,
0001
0100
1000
0100
,
1000
1000
1000
1000
,
0001
0100
0010
1000
,
0001
0001
0001
0001
,
1000
0100
0010
0001
,
0010
0010
0010
0010
,
0100
0100
0100
0100
,
1000
1000
0001
0001
,
1000
0001
0100
0010
,
0110
0000
0000
0000
,
0010
1000
0100
0001
,
0010
0001
0100
1000
,
0010
1000
0100
0001
,
0010
0001
0100
1000
,
0010
0100
0001
1000
,
0010
0100
0001
1000
,
0100
0010
0001
1000
,
0100
0010
0001
1000
,
0001
0101
1000
1100
,
0001
0010
0100
1000
,
0001
0011
1000
1010
,
0001
0100
0010
1000
,
0001
0101
1000
1100
,
0001
0010
0100
1000
,
0010
0101
0010
1100
,
0001
1000
0100
1000
,
0010
0100
0010
0100
,
0001
0010
0100
1000
,
0010
0100
0010
0100
,
0001
0010
0100
1000
,
0001
0001
0001
0001
,
1000
1000
1000
1000
,
0001
0011
1000
0001
,
1000
1100
1000
0001
,
1000
1000
0010
0010
,
0001
0001
0100
0100
,
1000
1000
1000
1000
,
0100
0100
0100
0100
,
1000
1000
0100
0100
,
0001
0001
0010
0010
,
1000
1000
1000
1000
,
0001
0001
0001
0001
,
1000
0100
0010
0001
,
1000
0100
0010
0001
,
1000
0010
0100
0001
,
1000
0010
0100
0001
,
0100
0100
0100
0100
,
0010
0010
0010
0010
,
1000
1000
1000
1000
,
0001
0001
0001
0001
,
2002
0000
0000
0000
,
0000
0000
0000
3003
,
0001
1000
0100
0100
,
1000
0001
0010
0100
,
1000
0001
0010
0010
,
0001
1000
0100
1000
,
0001
0010
0100
1000
,
0010
0100
0001
1000
,
0010
0010
0010
0010
,
0100
0100
0100
0100
,
0010
1000
0001
0010
,
0100
0100
0100
0100
,
1000
0001
0010
0100
,
0010
0010
0010
0010
,
0001
1000
0010
1000
,
0001
0010
0001
1000
,
0010
0010
0010
0010
,
0100
0100
0100
0100
,
0220
0000
0000
0000
,
0000
0000
0000
0330
;

//---------------dance-single - Chewi----------------
#NOTES:
     dance-single:
     Chewi:
     Easy:
     4:
     0.249,0.298,0.009,0.121,0.000:
0000
0000
0000
0000
,
0000
0000
0000
0000
,
0000
0000
0000
0000
,
0000
0000
0000
0000
,
1000
0001
1000
0000
,
0001
0000
0001
0000
,
0001
1000
0001
0000
,
1000
0000
1000
0000
,
0010
0010
0010
0000
,
0010
0010
0010
0000
,
0100
0100
0100
0000
,
0100
0100
0100
0000
,
0100
0100
0100
0100
,
0010
0010
0010
0010
,
1000
1000
1000
1000
,
0001
0001
0001
0001
,
0002
0000
0000
0003
,
0001
0000
1000
0000
,
0001
1000
0010
0000
,
1000
0000
0001
0000
,
1000
0001
0010
0000
,
0010
0000
0100
0000
,
0010
0100
1000
0000
,
0010
0000
0100
0000
,
0010
0100
0001
0000
,
0001
0001
0001
0000
,
1000
1000
1000
0000
,
0100
0100
0100
0000
,
0010
0010
0010
0000
,
0001
0001
0001
0000
,
1000
1000
1000
0000
,
0100
0100
0100
0000
,
0010
0010
0010
0000
,
0001
1000
0001
0000
,
1000
0001
1000
0000
,
0010
0100
0010
0000
,
0100
0010
0100
0000
,
0010
1000
0001
0000
,
0010
0001
1000
0000
,
0100
1000
0001
0000
,
0100
0001
1000
0000
,
0002
0000
0000
0003
,
2000
0000
0000
3000
,
0020
0000
0000
0030
,
0200
0000
0000
0300
,
0002
0000
0000
0003
,
0200
0000
0000
0300
,
0020
0000
0000
0030
,
2000
0000
0000
3000
,
1000
1000
1000
0000
,
0001
0001
0001
0000
,
0010
0010
0010
0000
,
0100
0100
0100
0000
,
0010
0100
0010
0100
,
0010
0100
0010
0100
,
1000
0001
1000
0001
,
1000
0001
1000
0001
,
2000
0000
0000
0000
,
0001
0001
0001
3001
,
0001
0010
0001
0000
,
0001
0000
0001
0000
,
1000
0100
1000
0000
,
1000
0000
1000
0000
,
0001
0100
0001
0000
,
0001
0000
0001
0000
,
1000
0010
1000
0000
,
1000
0000
1000
0000
,
0010
0000
0100
0000
,
0010
0100
0001
0000
,
0010
0000
0100
0000
,
0010
0100
1000
0000
,
2000
0000
0100
0000
,
0010
0000
3001
0000
,
0002
0000
0100
0000
,
0010
0000
1003
0000
,
2002
0000
0000
0000
,
0000
0000
0000
3003
;
