#TITLE:Children (Future Breeze vs. Junkfood Junkies Remix);
#SUBTITLE:;
#ARTIST:4 Clubbers;
#TITLETRANSLIT:;
#SUBTITLETRANSLIT:;
#ARTISTTRANSLIT:;
#GENRE:;
#CREDIT:Chewphoria~;
#MENUCOLOR:;
#METERTYPE:DDR X;
#BANNER:Children (Future Breeze vs. Junkfood Junkies Remix).png;
#BACKGROUND:Children (Future Breeze vs. Junkfood Junkies Remix)-bg.PNG;
#LYRICSPATH:;
#CDTITLE:;
#MUSIC:Children (Future Breeze vs. Junkfood Junkies Remix).MP3;
#OFFSET:-0.025;
#SAMPLESTART:0.025;
#SAMPLELENGTH:15.000;
#SELECTABLE:YES;
#LISTSORT:;
#DISPLAYBPM:70.000:140.000;
#BPMS:0.000=140.030,32.000=70.015,64.000=140.030;
#STOPS:;
#BGCHANGES:;
#ATTACKS:;

//---------------dance-single - Chewphoria~----------------
#NOTES:
     dance-single:
     Chewphoria~:
     Hard:
     11:
     0.447,0.440,0.881,0.023,0.051: // measure 1
0000
0000
0000
0000
,  // measure 2
0000
0000
0000
0000
,  // measure 3
0000
0000
0000
0000
,  // measure 4
0000
0000
0000
0000
,  // measure 5
0010
0100
0001
0100
0010
0100
0001
0100
,  // measure 6
0010
1000
0100
1000
0010
1000
0100
1000
,  // measure 7
0001
1000
0001
1000
0010
0100
0010
0100
,  // measure 8
0001
0100
0010
1000
0001
0010
0100
1000
,  // measure 9
1001
0000
0000
0000
1000
0000
0000
0000
0010
0000
0000
0000
0100
0000
0001
0100
,  // measure 10
0010
0000
0000
0000
1000
0000
0000
0000
0001
0000
0000
0000
0010
0000
0100
1000
,  // measure 11
0100
0000
0000
0000
1000
0000
0000
0000
0010
0000
0000
0000
0100
0000
0001
0100
,  // measure 12
0010
0000
1000
0000
0010
0000
0001
0010
,  // measure 13
1000
0000
0100
0000
0001
0000
0100
0000
0010
0000
0000
0000
1000
0000
0100
0001
,  // measure 14
0100
0000
0100
0000
1000
0000
1000
0000
1000
0000
0100
0000
0001
0000
0010
0100
,  // measure 15
1000
0100
1000
0100
0000
0000
1000
0000
0001
0000
0100
0000
0010
0000
0100
0001
,  // measure 16
0000
0000
0000
0000
0010
0000
0010
0000
1000
0000
0001
0000
1000
0000
0001
0010
,  // measure 17
1100
0101
1100
0101
,  // measure 18
1010
0000
0011
0000
1010
0000
0001
0100
,  // measure 19
0001
1100
0101
1100
,  // measure 20
1010
0000
0011
0000
1010
0000
0010
0001
,  // measure 21
0100
0101
1100
0101
,  // measure 22
1100
0000
0101
0000
1001
0000
0010
0001
,  // measure 23
0010
1100
0101
1010
,  // measure 24
0101
0000
1001
0000
1000
0100
0010
0001
,  // measure 25
0101
0101
1100
1100
,  // measure 26
1001
0000
1001
0000
0110
0000
0010
0100
,  // measure 27
0010
1010
0101
1010
,  // measure 28
0101
0000
1001
0000
1100
0000
0001
0100
,  // measure 29
0001
1010
0011
1010
,  // measure 30
0011
0000
1100
0000
0101
0000
1000
0001
,  // measure 31
1000
1010
0101
1001
,  // measure 32
1100
0000
1001
0000
0101
0000
0001
1000
,  // measure 33
0001
1010
0110
0101
,  // measure 34
0101
0000
1001
0000
1100
0000
0010
0100
,  // measure 35
1000
1010
0101
1001
,  // measure 36
1100
0000
1001
0000
0011
0000
0001
0010
,  // measure 37
0100
1001
1100
0101
,  // measure 38
1001
1010
0011
1100
,  // measure 39
0101
1001
1010
1001
,  // measure 40
0011
1100
0101
1010
,  // measure 41
2002
0000
0000
0000
,  // measure 42
3003
0000
0000
0000
;

//---------------dance-single - Chewphoria~----------------
#NOTES:
     dance-single:
     Chewphoria~:
     Medium:
     8:
     0.363,0.440,0.169,0.023,0.045: // measure 1
0000
0000
0000
0000
,  // measure 2
0000
0000
0000
0000
,  // measure 3
0000
0000
0000
0000
,  // measure 4
0000
0000
0000
0000
,  // measure 5
0010
0100
0001
0000
0010
0100
1000
0000
,  // measure 6
0010
0100
0001
0000
0010
0100
1000
0000
,  // measure 7
0100
0010
0001
0000
0100
0010
1000
0000
,  // measure 8
0100
0010
0001
0000
0100
0010
1000
0000
,  // measure 9
0010
0000
0000
0000
0001
0000
0000
0000
0100
0000
0000
0000
0010
0000
1000
0010
,  // measure 10
1000
0000
0000
0000
1000
0000
0000
0000
0100
0000
0000
0000
0010
0000
0001
1000
,  // measure 11
0100
0000
0000
0000
0100
0000
0000
0000
0010
0000
0000
0000
0100
0000
1000
0001
,  // measure 12
0100
0000
0000
0000
0100
0000
0000
0000
0010
0000
0000
0000
0000
0000
0100
0001
,  // measure 13
0010
0000
0000
0000
0010
0000
0000
0000
0001
0000
0000
0000
0100
0000
0010
1000
,  // measure 14
0010
0000
0000
0000
0010
0000
0000
0000
1000
0000
0000
0000
0000
0000
0010
0001
,  // measure 15
1000
0000
0000
0000
1000
0000
0000
0000
0100
0000
0010
0000
0001
0000
0010
0100
,  // measure 16
0000
0000
0000
0000
0000
0000
0000
0000
0000
0000
0000
0000
0000
0000
0010
1000
,  // measure 17
0100
0001
0010
0000
0100
1000
0010
0000
,  // measure 18
0100
0001
0010
0000
0100
1000
0010
0000
,  // measure 19
0010
1000
0100
0000
0010
0001
0100
0000
,  // measure 20
0010
1000
0100
0000
0010
0001
0100
0000
,  // measure 21
0001
0100
0010
0000
0010
0100
0001
0000
,  // measure 22
0001
0100
0010
0000
0010
0100
0001
0000
,  // measure 23
1000
0010
0100
0000
0100
0010
1000
0000
,  // measure 24
1000
0010
0100
0000
1000
0010
0100
0001
,  // measure 25
0100
0001
0100
0000
1000
0100
1000
0000
,  // measure 26
1000
0010
1000
0000
0001
0010
0001
0000
,  // measure 27
0001
0100
0001
0000
1000
0100
1000
0000
,  // measure 28
1000
0010
1000
0000
0001
0010
0001
0000
,  // measure 29
1000
0001
1000
0000
0100
0010
0100
0000
,  // measure 30
0010
0100
0010
0000
0001
1000
0001
0000
,  // measure 31
1000
0100
0001
0000
0001
0100
1000
0000
,  // measure 32
1000
0010
0100
0000
0001
0100
0010
1000
,  // measure 33
0001
0101
1000
1010
,  // measure 34
0001
0000
0011
0000
1001
0000
0100
0010
,  // measure 35
1000
1100
0001
0101
,  // measure 36
0001
0000
0011
0000
1001
0000
0010
0100
,  // measure 37
0010
1010
0100
0101
,  // measure 38
0001
1001
1100
0011
,  // measure 39
0101
0001
0100
0001
0100
0001
0100
0001
,  // measure 40
0100
0010
0100
0010
0100
0010
0100
1000
,  // measure 41
2002
0000
0000
0000
,  // measure 42
3003
0000
0000
0000
;

//---------------dance-single - Chewphoria~----------------
#NOTES:
     dance-single:
     Chewphoria~:
     Easy:
     6:
     0.234,0.248,0.000,0.000,0.000: // measure 1
0000
0000
0000
0000
,  // measure 2
0000
0000
0000
0000
,  // measure 3
0000
0000
0000
0000
,  // measure 4
0000
0000
0000
0000
,  // measure 5
0010
0001
0010
1000
,  // measure 6
0010
0001
0010
1000
,  // measure 7
0100
0001
0100
1000
,  // measure 8
0100
0000
0000
0000
,  // measure 9
0010
0000
0001
0000
0100
0000
0010
1000
,  // measure 10
0010
0000
1000
0000
0100
0000
0010
0001
,  // measure 11
1000
0000
0100
0000
0010
0000
0100
1000
,  // measure 12
0001
0000
0100
0000
0010
0000
0000
0100
,  // measure 13
0001
0000
0010
0000
0001
0000
0100
0010
,  // measure 14
1000
0000
0010
0000
1000
0000
0000
0010
,  // measure 15
0001
0000
1000
0000
0100
0010
0001
0010
,  // measure 16
0100
0000
0000
0000
,  // measure 17
0010
1000
0010
0001
,  // measure 18
0010
1000
0010
0001
,  // measure 19
0100
1000
0100
0001
,  // measure 20
0100
1000
0100
0001
,  // measure 21
0010
1000
0010
0001
,  // measure 22
0100
1000
0100
0001
,  // measure 23
0010
1000
0100
0001
,  // measure 24
0010
1000
0100
0001
,  // measure 25
1000
0010
1000
0100
,  // measure 26
1000
0010
1000
0100
,  // measure 27
0001
0010
0001
0100
,  // measure 28
0001
0010
0001
0100
,  // measure 29
1000
0010
1000
0100
,  // measure 30
0001
0010
0001
0100
,  // measure 31
0001
0010
1000
0100
,  // measure 32
0001
0010
1000
0100
,  // measure 33
0010
1000
0010
0001
,  // measure 34
0010
1000
0010
0001
,  // measure 35
0100
1000
0100
0001
,  // measure 36
0100
1000
0100
0001
,  // measure 37
0010
1000
0010
0001
,  // measure 38
0100
1000
0100
0001
,  // measure 39
0010
1000
0100
0001
,  // measure 40
0010
1000
0100
0001
,  // measure 41
1000
0000
0000
0000
;

//---------------dance-single - Chewphoria~----------------
#NOTES:
     dance-single:
     Chewphoria~:
     Beginner:
     2:
     0.116,0.113,0.000,0.000,0.000: // measure 1
0000
0000
0000
0000
,  // measure 2
0000
0000
0000
0000
,  // measure 3
0000
0000
0000
0000
,  // measure 4
0000
0000
0000
0000
,  // measure 5
0010
0000
0010
0000
,  // measure 6
0010
0000
0010
0000
,  // measure 7
0100
0000
0100
0000
,  // measure 8
0100
0000
0000
0000
,  // measure 9
0010
0000
0100
0000
,  // measure 10
0010
0000
0100
0000
,  // measure 11
1000
0000
0010
0000
,  // measure 12
0001
0000
0010
0000
,  // measure 13
0010
0000
0100
0000
,  // measure 14
0010
0000
0100
0000
,  // measure 15
1000
0000
0010
0000
,  // measure 16
0001
0000
0010
0000
,  // measure 17
0010
0000
0010
0000
,  // measure 18
0010
0000
0010
0000
,  // measure 19
0100
0000
0100
0000
,  // measure 20
0100
0000
0100
0000
,  // measure 21
0010
0000
0010
0000
,  // measure 22
0100
0000
0100
0000
,  // measure 23
0010
0000
0100
0000
,  // measure 24
0010
0000
0100
0000
,  // measure 25
1000
0000
1000
0000
,  // measure 26
1000
0000
1000
0000
,  // measure 27
0001
0000
0001
0000
,  // measure 28
0001
0000
0001
0000
,  // measure 29
1000
0000
1000
0000
,  // measure 30
0001
0000
0001
0000
,  // measure 31
0001
0000
1000
0000
,  // measure 32
0001
0000
1000
0000
,  // measure 33
0010
0000
0010
0000
,  // measure 34
0010
0000
0010
0000
,  // measure 35
0100
0000
0100
0000
,  // measure 36
0100
0000
0100
0000
,  // measure 37
0010
0000
0010
0000
,  // measure 38
0100
0000
0100
0000
,  // measure 39
0010
0000
0100
0000
,  // measure 40
0010
0000
0100
0000
,  // measure 41
1000
0000
0000
0000
;
