#TITLE:チェリーボンボン;
#SUBTITLE:;
#ARTIST:きゃりーぱみゅぱみゅ;
#TITLETRANSLIT:Cherry Bonbon;
#SUBTITLETRANSLIT:;
#ARTISTTRANSLIT:kyary pamyu pamyu;
#GENRE:;
#CREDIT:yamamoto_;
#MENUCOLOR:;
#METERTYPE:DDR X;
#BANNER:Cherry Bonbon.png;
#BACKGROUND:Cherry Bonbon-bg.png;
#LYRICSPATH:;
#CDTITLE:;
#MUSIC:Cherry Bonbon.mp3;
#OFFSET:-0.525;
#SAMPLESTART:37.455;
#SAMPLELENGTH:15.000;
#SELECTABLE:YES;
#LISTSORT:;
#DISPLAYBPM:130.000;
#BPMS:0.000=130.000;
#STOPS:;
#BGCHANGES:;
#ATTACKS:;

//---------------dance-single - yamamoto_----------------
#NOTES:
     dance-single:
     yamamoto_:
     Hard:
     9:
     0.363,0.389,0.141,0.022,0.005:
0000
0000
0000
0000
,
0000
0000
0000
0000
,
0000
0000
0000
0000
,
0000
0000
0000
0000
,
1000
0100
0001
0000
1000
0000
0100
0000
,
1000
1001
0101
0000
,
0001
0100
1000
0000
1000
0000
0001
0000
,
1000
1010
1001
0000
,
1000
0100
0010
0000
0001
0000
0100
0000
,
0010
0101
1001
0000
,
0001
0010
0100
0000
1000
0000
0010
0000
,
1000
0000
1100
0000
0010
0001
0010
0001
,
0010
0000
0100
0000
1000
0100
0001
0000
,
0010
1000
0100
0010
,
0001
0000
0010
0000
0100
0010
0001
0000
,
0100
1000
0010
0001
,
0100
0000
0010
0000
0100
0001
1000
0000
,
0100
0001
0010
1000
,
0100
0000
0010
0000
0100
1000
0010
0000
,
1010
0000
0000
1000
0000
0000
0010
0000
1000
0000
0000
0000
0000
0000
0000
0000
,
1000
0100
1000
0000
0001
0100
0001
0000
,
1000
0100
0001
0100
1000
0000
0000
0000
,
0001
0010
0001
0000
1000
0010
1000
0000
,
1000
0010
0001
0010
1000
0000
0000
0000
,
1000
0001
1000
0000
0001
1000
0001
0000
,
0100
0010
0100
0001
0100
0000
0000
0000
,
0001
1000
0001
0000
1000
0001
1000
0000
,
0010
0100
0010
1000
0010
0001
0010
1000
,
0100
0010
0001
0000
0010
0100
1000
0000
,
0001
1000
0010
0100
0001
0000
0000
0000
,
0100
0010
1000
0000
0001
0010
0100
0000
,
1000
0100
0010
0100
1000
0000
0000
0000
,
1000
0001
0010
0000
0001
1000
0010
0000
,
1000
0010
0001
0010
1000
0000
0000
0000
,
0100
0001
0010
0000
1000
0100
1000
0000
,
0001
0101
1000
1100
,
1000
0100
0010
0100
1000
0100
0010
0100
,
1000
0001
1000
0000
0001
1000
0001
0000
,
0001
0100
0001
0010
0001
0100
0001
0010
,
0001
0100
0010
0000
0100
0010
0100
0000
,
0010
0010
1000
0000
0100
0010
0001
0000
,
0001
0001
1000
0000
1000
0010
0100
0000
,
0001
0101
1000
1010
,
1000
0001
1000
0001
0100
0010
0100
0010
,
0100
0100
0100
0000
0001
0001
0001
0000
,
2002
0000
0000
0000
,
0000
0000
0000
0000
,
0000
0000
0000
0000
,
3003
0000
0000
0000
;

//---------------dance-single - yamamoto_----------------
#NOTES:
     dance-single:
     yamamoto_:
     Medium:
     6:
     0.287,0.311,0.151,0.097,0.000:
0000
0000
0000
0000
,
0000
0000
0000
0000
,
0000
0000
0000
0000
,
0000
0000
0000
0000
,
1000
0100
0001
0000
,
0001
0000
1000
0001
0100
0000
0000
0000
,
0001
0100
1000
0000
,
0001
0000
1000
0100
0010
0000
0000
0000
,
0001
0010
0100
0000
,
1000
0000
0010
1000
0100
0000
0000
0000
,
1000
0010
0100
0000
,
0001
0000
0100
0010
0100
0000
0000
0000
,
0001
0001
0001
0001
,
1000
0100
1100
0010
,
0100
0100
0100
0100
,
1000
0010
0100
0110
,
0100
0100
0100
0100
,
0001
0010
0001
0101
,
0100
0100
0100
0100
,
0010
1000
0100
1100
,
2000
3001
0002
1003
,
1000
0001
1000
0000
1001
0000
0000
0000
,
0020
0130
0200
0310
,
0010
0100
0010
0000
0110
0000
0000
0000
,
0020
1030
2000
3001
,
1000
0100
1000
0000
1100
0000
0000
0000
,
0002
0013
2000
3010
,
1000
0010
1000
0000
1010
0000
0000
0000
,
1000
0001
0100
0010
,
1000
0001
0010
0000
0011
0000
0000
0000
,
0001
0010
0100
1000
,
0010
1000
0100
0000
1100
0000
0000
0000
,
1000
0100
0010
0100
,
1000
0100
1000
0000
1100
0000
0000
0000
,
0001
0100
0010
0100
,
0001
0100
0001
0000
0101
0000
0000
0000
,
1000
1000
0100
0010
,
0001
1000
0100
1001
,
1000
0010
0100
0001
,
1000
0100
0010
0011
,
0010
0100
1000
0100
,
0010
0100
1000
0100
,
1000
0001
0100
1000
,
1000
0001
0100
1000
,
0010
0000
0010
0000
0100
0010
0100
0010
,
0200
0000
0000
0000
,
0000
0000
0000
0000
,
0000
0000
0000
0000
,
0300
0000
0000
0000
;

//---------------dance-single - yamamoto_----------------
#NOTES:
     dance-single:
     yamamoto_:
     Beginner:
     2:
     0.130,0.170,0.011,0.173,0.000: // measure 1
0000
0000
0000
0000
,  // measure 2
0000
0000
0000
0000
,  // measure 3
0000
0000
0000
0000
,  // measure 4
0000
0000
0000
0000
,  // measure 5
1000
0000
0000
0000
,  // measure 6
0001
0000
0000
0000
,  // measure 7
0001
0000
0000
0000
,  // measure 8
1000
0000
0000
0000
,  // measure 9
0010
0000
0000
0000
,  // measure 10
0010
0000
0000
0000
,  // measure 11
0100
0000
0000
0000
,  // measure 12
0100
0000
0000
0000
,  // measure 13
1000
0000
0000
0000
,  // measure 14
0001
0000
0000
0000
,  // measure 15
0001
0000
0000
0000
,  // measure 16
1000
0000
0000
0000
,  // measure 17
1000
0000
0000
0000
,  // measure 18
0001
0000
0000
0000
,  // measure 19
1000
0000
0000
0000
,  // measure 20
0001
0000
0000
0000
,  // measure 21
0200
0300
0200
0300
,  // measure 22
0100
0000
0100
0000
,  // measure 23
0002
0003
0002
0003
,  // measure 24
0001
0000
0001
0000
,  // measure 25
2000
3000
2000
3000
,  // measure 26
1000
0000
1000
0000
,  // measure 27
0200
0300
0200
0300
,  // measure 28
0100
0000
0100
0000
,  // measure 29
0020
0030
0020
0030
,  // measure 30
0010
0000
0010
0000
,  // measure 31
0002
0003
0002
0003
,  // measure 32
0001
0000
0001
0000
,  // measure 33
0200
0300
0200
0300
,  // measure 34
0100
0000
0100
0000
,  // measure 35
0020
0030
0020
0030
,  // measure 36
0010
0000
0010
0000
,  // measure 37
1000
0000
0001
0000
,  // measure 38
1000
0000
0001
0000
,  // measure 39
0001
0000
1000
0000
,  // measure 40
0001
0000
1000
0000
,  // measure 41
1000
0000
0001
0000
,  // measure 42
0001
0000
1000
0000
,  // measure 43
1000
0000
0001
0000
,  // measure 44
0001
0000
1000
0000
,  // measure 45
1000
0000
0001
0000
,  // measure 46
1001
0000
0000
0000
;

//---------------dance-single - yamamoto_----------------
#NOTES:
     dance-single:
     yamamoto_:
     Easy:
     4:
     0.213,0.234,0.065,0.184,0.000:
0000
0000
0000
0000
,
0000
0000
0000
0000
,
0000
0000
0000
0000
,
0000
0000
0000
0000
,
1000
1000
1000
0000
,
0001
1000
0001
0000
,
0001
0001
0001
0000
,
1000
0001
1000
0000
,
0010
0010
0010
0000
,
0010
0100
0010
0000
,
0100
0100
0100
0000
,
0100
0010
0100
0000
,
1000
0000
0100
0000
,
0001
0000
0100
0000
,
0001
0000
0010
0000
,
1000
0000
0010
0000
,
1000
0100
0001
0000
,
0001
0010
1000
0000
,
1000
0010
0001
0000
,
0001
0100
1000
0000
,
0200
0300
0200
0300
,
0100
0010
0110
0000
,
0002
0003
0002
0003
,
0001
1000
1001
0000
,
2000
3000
2000
3000
,
1000
0001
1001
0000
,
0200
0300
0200
0300
,
0100
0010
0110
0000
,
0020
0030
2000
3000
,
0010
1000
0100
0000
,
0020
0030
0002
0003
,
0010
0001
0100
0000
,
0200
0300
0020
0030
,
0100
0010
1001
0000
,
0020
0030
0200
0300
,
0010
0100
1001
0000
,
1000
0100
0001
0100
,
1000
0100
0001
0000
,
0001
0010
1000
0010
,
0001
0010
1000
0000
,
1000
0100
0001
0000
,
0001
0010
1000
0000
,
1000
0100
0001
0000
,
0001
0010
1000
0000
,
1000
0100
0001
0010
,
0020
0000
0000
0000
,
0000
0000
0000
0000
,
0000
0000
0000
0000
,
0030
0000
0000
0000
;

//---------------dance-single - yamamoto_----------------
#NOTES:
     dance-single:
     yamamoto_:
     Challenge:
     5:
     0.181,0.182,0.000,0.184,0.000:
0000
0000
0000
0000
,
0000
0000
0000
0000
,
0000
0000
0000
0000
,
0000
0000
0000
0000
,
1000
1000
1000
0000
,
0001
1000
MMMM
0000
,
0001
0001
0001
0000
,
1000
0001
MMMM
0000
,
0010
0010
0010
0000
,
0010
0100
MMMM
0000
,
0100
0100
0100
0000
,
0100
0010
MMMM
0000
,
1000
0000
0100
0000
,
0001
0000
0100
MMMM
,
0001
0000
0010
0000
,
1000
0000
0010
MMMM
,
1000
0100
0001
MMMM
,
0001
0010
1000
MMMM
,
1000
0010
0001
MMMM
,
0001
0100
1000
MMMM
,
0200
0300
0200
0300
,
0100
0010
MMMM
0000
,
0002
0003
0002
0003
,
0001
1000
MMMM
0000
,
2000
3000
2000
3000
,
1000
0001
MMMM
0000
,
0200
0300
0200
0300
,
0100
0010
MMMM
0000
,
0020
0030
2000
3000
,
0010
1000
MMMM
0000
,
0020
0030
0002
0003
,
0010
0001
MMMM
0000
,
0200
0300
0020
0030
,
0100
0010
MMMM
0000
,
0020
0030
0200
0300
,
0010
0100
MMMM
0000
,
1000
0100
0001
MMMM
,
1000
0100
0001
MMMM
,
0001
0010
1000
MMMM
,
0001
0010
1000
MMMM
,
1000
0100
0001
MMMM
,
0001
0010
1000
MMMM
,
1000
0100
0001
MMMM
,
0001
0010
1000
MMMM
,
1000
0100
0001
MMMM
,
0020
0000
0000
0000
,
0000
0000
0000
0000
,
0000
0000
0000
0000
,
0030
0000
0000
0000
;
