#TITLE:Check It Out;
#SUBTITLE:;
#ARTIST:Nicki Minaj feat. Will.I.Am;
#TITLETRANSLIT:;
#SUBTITLETRANSLIT:;
#ARTISTTRANSLIT:;
#GENRE:;
#CREDIT:Chewi☆;
#MENUCOLOR:;
#METERTYPE:DDR X;
#BANNER:Check It Out.png;
#BACKGROUND:Check It Out-bg.png;
#LYRICSPATH:;
#CDTITLE:;
#MUSIC:Check It Out.mp3;
#OFFSET:-0.034;
#SAMPLESTART:51.425;
#SAMPLELENGTH:15.000;
#SELECTABLE:YES;
#LISTSORT:;
#DISPLAYBPM:130.000;
#BPMS:0.000=130.000;
#STOPS:;
#BGCHANGES:;
#ATTACKS:;

//---------------dance-single - Chewi----------------
#NOTES:
     dance-single:
     Chewi:
     Beginner:
     3:
     0.125,0.193,0.068,0.105,0.000: // measure 1
0000
0000
0000
0000
,  // measure 2
0000
0000
0000
0000
,  // measure 3
0000
0000
0000
0000
,  // measure 4
0000
0000
0000
0000
,  // measure 5
1000
0000
0000
0000
,  // measure 6
0001
0000
0000
0000
,  // measure 7
0001
0000
0000
0000
,  // measure 8
1000
0000
0000
0000
,  // measure 9
0010
0000
0000
0000
,  // measure 10
0100
0000
0000
0000
,  // measure 11
0100
0000
0000
0000
,  // measure 12
0010
0000
0000
0000
,  // measure 13
1000
0000
0000
0000
,  // measure 14
1000
0000
0000
0000
,  // measure 15
0001
0000
0000
0000
,  // measure 16
0001
0000
0000
0000
,  // measure 17
0100
0000
0000
0000
,  // measure 18
0100
0000
0000
0000
,  // measure 19
0010
0000
0000
0000
,  // measure 20
0010
0000
0000
0000
,  // measure 21
2000
0000
0000
3000
,  // measure 22
1000
0000
1000
0000
,  // measure 23
0002
0000
0000
0003
,  // measure 24
0001
0000
0001
0000
,  // measure 25
0200
0000
0000
0300
,  // measure 26
0100
0000
0100
0000
,  // measure 27
0020
0000
0000
0030
,  // measure 28
0010
0000
0010
0000
,  // measure 29
1000
0000
1001
0000
,  // measure 30
0001
0000
0000
0000
,  // measure 31
0001
0000
1001
0000
,  // measure 32
1000
0000
0000
0000
,  // measure 33
0100
0000
0110
0000
,  // measure 34
0010
0000
0000
0000
,  // measure 35
0010
0000
0110
0000
,  // measure 36
0100
0000
0000
0000
,  // measure 37
2000
0000
0000
3000
,  // measure 38
1000
0000
1000
0000
,  // measure 39
0002
0000
0000
0003
,  // measure 40
0001
0000
0001
0000
,  // measure 41
0200
0000
0000
0300
,  // measure 42
0100
0000
0100
0000
,  // measure 43
0020
0000
0000
0030
,  // measure 44
0010
0000
0010
0000
,  // measure 45
2000
3000
1000
0000
,  // measure 46
0001
0001
0001
0000
,  // measure 47
0002
0003
0001
0000
,  // measure 48
1000
1000
1000
0000
,  // measure 49
0200
0300
0100
0000
,  // measure 50
0010
0010
0010
0000
,  // measure 51
0020
0030
0010
0000
,  // measure 52
0100
0100
0100
0000
,  // measure 53
1001
0000
1000
0000
,  // measure 54
0001
0000
0000
0000
,  // measure 55
1001
0000
0001
0000
,  // measure 56
1000
0000
0000
0000
,  // measure 57
0110
0000
0010
0000
,  // measure 58
0100
0000
0000
0000
,  // measure 59
0110
0000
0100
0000
,  // measure 60
0010
0000
0000
0000
,  // measure 61
2000
0000
0000
3000
,  // measure 62
1000
1000
1000
0000
,  // measure 63
0002
0000
0000
0003
,  // measure 64
0001
0001
0001
0000
,  // measure 65
1001
0000
0000
0000
;

//---------------dance-single - Chewi----------------
#NOTES:
     dance-single:
     Chewi:
     Easy:
     5:
     0.185,0.217,0.090,0.150,0.000:
0000
0000
0000
0000
,
0000
0000
0000
0000
,
0000
0000
0000
0000
,
0000
0000
0000
0000
,
2000
0000
0000
3000
,
1000
0001
1000
0000
,
0002
0000
0000
0003
,
1000
0001
1000
0000
,
0020
0000
0000
0030
,
0100
0010
0100
0000
,
0200
0000
0000
0300
,
0010
0100
0010
0000
,
1000
0000
0100
0000
,
0001
0001
0001
0000
,
0001
0000
0010
0000
,
1000
1000
1000
0000
,
1000
0000
0010
0000
,
0001
0001
0001
0000
,
0001
0000
0100
0000
,
1000
1000
1000
0000
,
1000
0100
1000
0000
,
0200
0000
0000
0300
,
0001
0100
0001
0000
,
0200
0000
0000
0300
,
0001
1000
0001
0000
,
2002
0000
0000
3003
,
0010
0100
0010
0000
,
0220
0000
0000
0330
,
0010
1000
0010
0000
,
0010
0001
0010
0000
,
0100
0001
0100
0000
,
0100
1000
0100
0000
,
1000
0001
1000
0000
,
0220
0000
0000
0330
,
0010
0100
0010
0000
,
1000
0001
1000
0000
,
0002
0000
0000
0003
,
0001
0100
0100
0000
,
2000
0000
0000
3000
,
1000
0100
0100
0000
,
0002
0000
0000
0003
,
0001
0010
0010
0000
,
2000
0000
0000
3000
,
1000
0010
0010
0000
,
0110
0000
0100
0000
,
0100
1000
0001
0000
,
1001
0000
1000
0000
,
1000
0001
0010
0000
,
0110
0000
0010
0000
,
0010
0001
1000
0000
,
1001
0000
0100
0100
,
0100
0000
0000
0000
,
2000
0000
0000
3000
,
0001
0010
0100
1000
,
2000
0000
0000
3000
,
1000
0100
0010
0001
,
0002
0000
0000
0003
,
0001
0100
0010
1000
,
2000
0000
0000
3000
,
1000
0100
0001
0001
,
1001
0000
1001
0000
,
1000
1000
1000
0000
,
1001
0000
1001
0000
,
0001
0001
0001
0000
,
0110
0000
0000
0000
;

//---------------dance-single - Chewi----------------
#NOTES:
     dance-single:
     Chewi:
     Medium:
     9:
     0.254,0.289,0.196,0.188,0.000:
0000
0000
0000
0000
,
0000
0000
0000
0000
,
0000
0000
0000
0000
,
0000
0000
0000
0000
,
1000
0000
0000
1000
1000
0000
0000
0000
,
0001
0100
1000
0000
,
0001
0000
0000
0001
0001
0000
0000
0000
,
1000
0100
0001
0000
,
0010
0000
0000
0010
0010
0000
0000
0000
,
0010
0100
0010
0000
,
0100
0000
0000
0100
0100
0000
0000
0000
,
0100
0010
0100
0000
,
2000
0000
0000
3000
,
0001
1000
0001
0000
0001
0000
0000
0000
,
0002
0000
0000
0003
,
1000
0001
1000
0000
0001
0000
0000
0000
,
0020
0000
0000
0030
,
0100
0010
0100
0000
0100
0000
0000
0000
,
0100
0000
1000
0001
0100
0000
0010
0000
,
0110
0000
0000
1000
,
2002
0000
0000
3003
,
0001
0010
0100
0000
1000
0000
1000
0000
,
2002
0000
0000
3003
,
1000
0010
0100
0000
0001
0000
0001
0000
,
2002
0000
0000
3003
,
0001
0010
0100
0000
1000
0000
0010
0000
,
0220
0000
0000
0330
,
0100
0010
1000
0000
0001
0000
0000
1000
,
0100
0000
0000
0001
0000
0000
0000
0000
,
0101
0000
1100
0000
0101
0000
0000
0001
,
0100
0000
0000
1000
0000
0000
0000
0000
,
1100
0101
1100
0000
,
1000
0000
0010
0000
0001
0000
0010
0010
,
0010
0100
0110
0000
,
0001
1000
0001
1000
,
2002
0000
0000
3003
,
1000
0000
0010
1000
0000
0000
0000
0000
,
0100
0100
0010
0010
,
0001
0000
0100
0001
0000
0000
0000
0000
,
0001
0001
1000
1000
,
0100
0000
0010
0100
0000
0000
0100
0000
,
0100
0010
0010
0001
,
1000
0000
0010
1000
0000
0000
0010
0000
,
0010
0010
0010
0000
,
0202
0300
2000
3003
,
0010
0010
0010
0000
,
2200
0300
0002
3003
,
0100
0100
0100
0000
,
0220
0030
0002
0303
,
0010
0100
1000
0000
,
2200
0300
0020
3030
,
1000
0010
0100
0001
,
1000
0000
0000
1100
0000
0000
0000
0000
,
1000
0100
0001
0010
,
0001
0000
0000
0011
0000
0000
0000
0000
,
0001
0010
1000
0100
,
0001
0000
0000
0101
0000
0000
0000
0000
,
0001
0100
1000
0010
,
0001
0000
0000
0011
0000
0000
0000
0000
,
0001
0000
1000
0000
0001
0000
0000
0100
,
0100
0000
0000
0010
0010
0000
0100
0000
,
0010
0000
0101
0000
1100
0000
0000
0010
,
0010
0000
0000
0100
0100
0000
0010
0000
,
0100
1100
0101
0100
,
0110
0000
0000
0000
;

//---------------dance-single - Chewi----------------
#NOTES:
     dance-single:
     Chewi:
     Hard:
     12:
     0.478,0.482,0.203,0.030,0.102:
0000
0000
0000
0000
,
0000
0000
0000
0000
,
0000
0000
0000
0000
,
0000
0000
0000
0000
,
1000
0000
0100
0001
0000
0100
1000
0010
,
0100
0100
0010
0010
0100
0000
0000
0000
,
0100
0000
0001
0010
0000
1000
0010
0001
,
0010
0010
0100
0100
0010
0000
0001
0000
,
1000
0000
0100
0001
0000
0001
0100
1000
,
0010
0010
1000
1000
0001
0000
0010
0000
,
0100
0000
1000
0010
0000
0010
1000
0100
,
0010
0010
0001
1000
0100
0001
0100
0010
,
1000
0001
0010
0100
1000
0001
1000
0010
,
0110
0000
0101
0100
1010
0000
1001
0000
,
0001
0010
0100
1000
0010
0100
0001
0100
,
1010
0000
0100
0001
0011
0000
1001
0000
,
0001
0010
0100
1000
0010
0100
0001
0100
,
0010
1000
0001
0000
1001
0000
0000
0000
,
1000
0000
0001
0000
0010
0000
0100
0000
0010
0000
0000
0010
0000
0000
0020
0000
,
0000
0000
0000
0000
0030
0001
0010
0100
,
1000
0000
0000
0000
1000
0000
1001
0000
0000
0000
1000
0000
0010
0000
0100
0001
,
0100
0010
1000
0001
0010
0000
0100
0010
,
1001
0000
0000
0000
0100
0000
1010
0000
0000
0000
0100
0000
0001
0000
0010
0001
,
0010
0000
1000
0000
0010
0000
0100
0001
0100
0000
0010
0000
1000
0000
0001
0000
,
1001
0000
0000
0000
1000
0000
0011
0000
0000
0000
0001
0000
1000
0000
0010
0100
,
0010
0100
0001
0010
0100
1000
0010
0100
,
0101
0000
0000
0000
0100
0000
1010
0000
0000
0000
1000
0000
0001
0000
0010
0001
,
0010
0000
0001
0000
0010
0000
0100
0000
1000
0000
0001
0000
0100
0000
0010
1000
,
0010
0000
0000
0000
0000
0000
0010
0001
0010
0000
0000
0000
0000
0000
0001
0010
,
0100
0000
0000
0000
1000
0000
0100
0000
0001
0000
0100
0000
1000
0000
0010
1000
,
0010
0000
0000
0000
0000
0000
0010
0001
0010
0000
0000
0000
0000
0000
0001
0010
,
0100
0000
1000
0000
0100
0000
0001
0000
0100
0000
1000
0000
0010
0000
0001
0010
,
0001
0000
0000
0000
0000
0000
1000
0010
1000
0000
0010
0000
0010
0000
0010
0000
,
0100
0000
0001
0000
0100
0000
1000
0000
0200
0000
0000
0000
0300
0000
0010
0001
,
0100
0000
0000
0000
0000
0000
0010
1000
0100
0000
0000
0000
0000
0000
1000
0100
,
0010
0001
0100
0100
0010
0010
0100
0100
,
0101
0000
1010
0001
0000
1000
0100
0010
,
0010
0100
1000
0010
0100
0001
0100
0010
,
1010
0000
0100
0101
0000
0001
0100
0010
,
1000
0100
1000
0010
0100
0001
0010
0100
,
0011
0000
0100
1010
0000
1000
0010
0100
,
0001
0010
0100
1000
0001
0100
1010
0000
,
0100
0000
0001
1100
0000
1000
0001
0100
,
0010
0010
0100
0100
0001
0001
1000
1000
,
0100
0001
0000
0100
1000
0010
0000
1000
,
0010
0001
0010
1000
0020
0000
0030
0000
,
0001
0010
0000
1000
0010
0001
0000
0001
,
0010
1000
0010
0001
0020
0000
0030
0000
,
1000
0001
0000
0100
0010
0100
0000
0100
,
0010
0001
0100
0010
0100
0001
0010
0100
,
1000
0010
0000
0100
0010
1000
0100
1000
,
0010
0010
0100
0100
0001
0001
1000
1000
,
0001
0000
0010
0000
0100
0000
0010
0000
0000
0000
1000
0000
0001
0000
1000
0010
,
1000
0001
0100
0010
0001
1000
0010
0000
,
0001
0000
0010
0100
1000
0000
0010
0000
0000
0000
0100
0000
0001
0000
0100
0000
,
0010
0000
0001
0010
0100
0000
0100
0000
1000
0000
0100
0000
0001
0000
0100
0000
,
1000
0000
0010
0000
0100
0000
0001
0000
0000
0000
0100
0000
0100
0000
0010
1000
,
0010
0001
0010
0100
0100
1000
0100
0001
,
1000
0000
0010
0000
0100
0000
0101
0000
0000
0000
0001
0000
1000
0000
0010
1000
,
0010
0000
0001
0000
0010
0000
0100
0000
1000
0000
0001
0000
1000
0000
0001
1000
,
0001
0000
0000
0000
0000
0000
1000
0010
0100
0000
0001
0000
0001
0000
0100
0000
,
0010
0000
1000
0000
1001
0000
0000
0000
0011
0000
0000
0000
0000
0000
0001
0010
,
0100
0000
0000
0000
0000
0000
1000
0010
0100
0000
0000
0000
0000
0000
0010
0100
,
0001
0010
0100
0100
1000
1000
0001
0001
,
1001
0000
0000
0000
;

//---------------dance-double - Chewi----------------
#NOTES:
     dance-double:
     Chewi:
     Easy:
     5:
     0.202,0.265,0.105,0.120,0.000:
00000000
00000000
00000000
00000000
,
00000000
00000000
00000000
00000000
,
00000000
00000000
00000000
00000000
,
00000000
00000000
00000000
00000000
,
00010000
00000000
01000000
00000000
,
10000000
00010000
10000000
00000000
,
10000000
00000000
00100000
00000000
,
00010000
10000000
00010000
00000000
,
00010000
00000000
00001000
00000000
,
00010000
00001000
00000010
00000000
,
00001000
00000000
00000010
00000001
,
00000100
00000000
00000000
00000000
,
00000001
00000000
00000100
00000000
,
00001000
00000001
00001000
00000000
,
00001000
00000000
00000010
00000000
,
00000001
00001000
00000001
00000000
,
00001000
00000000
00010000
00000000
,
00001000
00010000
00100000
00000000
,
10000000
00000000
01000000
00000000
,
00010000
00010000
00010000
00000000
,
20020000
00000000
00000000
30030000
,
00010000
10000000
00010000
00001000
,
00022000
00000000
00000000
00033000
,
00010000
00001000
00000010
00001000
,
00002002
00000000
00000000
00003003
,
00000001
00001000
00000001
00001000
,
00002002
00000000
00000000
00003003
,
00000001
00001000
00000100
00000100
,
00000100
00010000
00001000
00000000
,
00001000
00001000
00001000
00000000
,
00001000
00010000
00010000
00000000
,
00010000
00010000
00010000
00000000
,
00010000
01000000
10000000
00000000
,
10000000
10000000
10000000
00000000
,
00100000
01000000
01000000
00000000
,
01000000
01000000
01000000
01000000
,
10000000
00010000
00010000
00000000
,
00010000
00001000
00010000
00000000
,
00010000
00010000
01000000
00000000
,
10000000
10000000
10000000
00000000
,
00100000
00100000
00010000
00000000
,
00010000
00001000
00010000
00000000
,
00001000
00010000
00011000
00010000
,
00010000
00001000
00000010
00000000
,
00001000
00000000
00001000
00000000
,
00001000
00000001
00000100
00000000
,
00000001
00000000
00001000
00000000
,
00000001
00001000
00000100
00000000
,
00000100
00000000
00000100
00000000
,
00000100
00001000
00010000
00000000
,
00001000
00000000
00010000
00000000
,
00001000
00010000
01000000
00000000
,
02200000
00000000
00000000
03300000
,
00100000
10000000
00100000
10000000
,
20020000
00000000
00000000
30030000
,
10010000
01000000
10000000
01000000
,
20020000
00000000
00000000
30030000
,
00100000
00010000
00001000
00000100
,
00000020
00000000
00000000
00000030
,
00000002
00000000
00000000
00000003
,
00001001
00000000
00001001
00000000
,
00000010
00001000
00010000
00000000
,
00011000
00000000
00011000
00000000
,
00010000
01000000
10000000
01000000
,
01100000
00000000
00000000
00000000
;

//---------------dance-double - Chewi----------------
#NOTES:
     dance-double:
     Chewi:
     Hard:
     12:
     0.490,0.433,0.150,0.000,0.090:
00000000
00000000
00000000
00000000
,
00000000
00000000
00000000
00000000
,
00000000
00000000
00000000
00000000
,
00000000
00000000
00000000
00000000
,
00001000
00000000
00001000
00000101
00000000
00000001
00000100
00000010
,
00001000
00000100
00010000
00001000
00100000
00010000
01000000
00100000
,
10000000
00000000
10000000
10100000
00000000
00010000
00100000
01000000
,
10000000
00100000
01000000
00010000
00100000
00001000
00010000
00000100
,
00001000
00000001
00000100
00001010
00000000
00001000
00000001
00000010
,
00000100
00000100
00001000
00000001
00000100
00000100
00000010
00001000
,
00000100
00010000
00001000
00011000
00000000
00001000
00010000
00100000
,
10000000
00010000
00100000
01000000
10000000
00100000
01000000
00010000
,
01000000
00100000
10000000
10010000
00000000
10000000
01000000
00100000
,
00010000
00010000
01000000
01000000
00010000
00100000
00001000
00010000
,
00000100
00001000
00000001
00000100
00000000
00000100
00000010
00001000
,
00000001
00001000
00000001
00001000
00000010
00000100
00000010
00000100
,
00000010
00000100
00000001
00000010
00000000
00000100
00000100
00000010
,
00000001
00000100
00000010
00001000
00000100
00010000
00001000
00100000
,
00010000
01000000
00100000
10000000
00000000
10000000
00100000
01000000
,
00010000
10000000
00010000
10000000
00100000
01000000
00100000
01000000
,
10100000
00000000
00000000
00000000
01000000
00000000
00110000
00000000
00000000
00000000
00010000
00000000
00100000
00000000
01000000
10000000
,
01000000
10000000
00100000
01000000
00010000
00100000
00001000
00010000
,
00000100
00000000
00000000
00000000
00000100
00000000
00010100
00000000
00000000
00000000
00000100
00000000
00010000
00000000
00001000
00010000
,
00001000
00001000
00000010
00000100
00000001
00000010
00000100
00001000
,
00000001
00000000
00000000
00000000
00001000
00000000
00001100
00000000
00000000
00000000
00000001
00000000
00001000
00000000
00000010
00000100
,
00000010
00000100
00000001
00000010
00000100
00001000
00000010
00001000
,
00000100
00000000
00000100
00010100
00000000
00010000
00001000
00010000
,
00100000
00000000
10000000
00000000
01000000
00000000
00100000
00000000
00010000
00000000
01000000
00000000
00100000
00000000
10000000
00100000
,
10000000
00000000
00000000
00000000
00000000
00000000
00010000
01000000
00010000
00000000
00000000
00000000
00000000
00000000
10000000
01000000
,
00100000
00000000
00000000
00000000
00010000
00000000
00100000
00000000
11000000
00000000
00000000
00000000
00000000
00000000
00010000
01000000
,
00010000
00000000
00000000
00000000
00000000
00000000
00100000
00010000
00100000
00000000
00000000
00000000
00000000
00000000
00100000
00001000
,
00100000
00000000
00000000
00000000
00100000
00000000
00001000
00000000
00010000
00000000
00000010
00000000
00001000
00000000
00001000
00010000
,
00001000
00000000
00000000
00000000
00000000
00000000
00010000
00001000
00010000
00000000
00010000
00000000
00001000
00000000
00000010
00000000
,
00001000
00000000
00000001
00000000
00000010
00000000
00000100
00000000
00000100
00000000
00000000
00000000
00000000
00000000
00000010
00000001
,
00000100
00000000
00000000
00000000
00000000
00000000
00000010
00001000
00000100
00000000
00000000
00000000
00000000
00000000
00000100
00001000
,
00000100
00000100
00010000
00001000
00100000
00010000
01000000
00100000
,
10010000
00100000
01000000
11000000
00000000
10000000
11000000
00000000
,
00010000
01000000
00100000
10000000
00010000
00100000
01000000
00000000
,
11000000
00100000
00010000
01000000
00000000
00100000
01010000
00000000
,
00100000
00010000
01000000
00010000
00100000
00001000
00010000
00000100
,
00001000
00000001
00000100
00000110
00000000
00000010
00001010
00000000
,
00001000
00000010
00000100
00000001
00000010
00000100
00001000
00000001
,
00000010
00000100
00001000
00001100
00000000
00000100
00001000
00000100
,
00010000
00001000
00100000
00010000
01000000
00100000
10000000
00010000
,
00100000
00100000
00000000
01000000
01000000
01000000
00000000
01000000
,
10000000
00010000
01000000
00100000
10000000
00010000
00100000
00000000
,
00100000
00100000
00000000
00100000
00010000
00001000
00000000
00010000
,
00001000
00010000
00001000
00000010
00001000
00000010
00001000
00000000
,
00001000
00000010
00000000
00001000
00000001
00000010
00000000
00000100
,
00000100
00000010
00000001
00000100
00000010
00000000
00001000
00000000
,
00000100
00010000
00000000
00001000
00010000
00001000
00000000
00001000
,
00010000
00100000
10000000
00100000
00010000
00100000
10000000
01000000
,
00100000
00000000
00010000
00000000
01000000
00000000
00010000
00000000
00000000
00000000
00100000
00000000
00001000
00000000
00010000
00001000
,
00010000
00001000
00000010
00000100
00000001
00000010
00000100
00001000
,
00000001
00000000
00001000
00000100
00001000
00000000
00000001
00000000
00000000
00000000
00000001
00000000
00000100
00000000
00000010
00000000
,
00001000
00000000
00000100
00001000
00010000
00000000
00001000
00000000
00100000
00000000
00010000
00000000
01000000
00000000
00100000
00000000
,
10000000
00000000
01000000
00100000
00010000
00000000
01000000
00000000
00000000
00000000
01000000
00000000
00010000
00000000
00100000
00000000
,
00001000
00000000
00010000
00001000
00000100
00000000
00001000
00000000
00000001
00000000
00000100
00000000
00000010
00000000
00001000
00000000
,
00000001
00000000
00000010
00000001
00000010
00000000
00000100
00000000
00000000
00000000
00000001
00000000
00000100
00000000
00000010
00000000
,
00001000
00000000
00001000
00000000
00000001
00000000
00000001
00000000
00001000
00000000
00001000
00000000
00000100
00000000
00000100
00010000
,
00001000
00000000
00000000
00000000
00000000
00000000
00001000
00010000
00001000
00000000
00010000
00000000
00001000
00000000
00001000
00000000
,
00010000
00000000
00100000
00000000
10000000
00000000
00100000
00000000
00010000
00000000
00100000
00000000
10000000
00000000
01000000
10000000
,
01000000
00000000
00000000
00000000
00000000
00000000
01000000
00010000
01000000
00000000
00000000
00000000
00000000
00000000
01000000
00000000
,
00100000
10000000
00010000
00100000
01000000
10000000
00010000
00000000
,
10010000
00000000
00000000
00000000
;

//---------------dance-double - Chewi----------------
#NOTES:
     dance-double:
     Chewi:
     Medium:
     9:
     0.271,0.361,0.173,0.218,0.000:
00000000
00000000
00000000
00000000
,
00000000
00000000
00000000
00000000
,
00000000
00000000
00000000
00000000
,
00000000
00000000
00000000
00000000
,
00010000
00000000
00000000
00010000
00001000
00000000
00000000
00000000
,
00010000
00001000
00011000
00000000
,
00001000
00000000
00000000
00000010
00001000
00000000
00000000
00000000
,
00001010
00001000
00001010
00000000
,
00000001
00000000
00000000
00001000
00000001
00000000
00000100
00000000
,
00000110
00000010
00000110
00000000
,
00000010
00000000
00000010
00001000
00000000
00001000
00000100
00000000
,
00010000
00001000
00100000
00010000
,
01000000
00000000
00100000
01000000
00000000
01000000
00100000
00000000
,
10000000
00010000
00100000
01000000
,
10000000
00000000
01000000
00100000
00000000
00010000
00100000
00000000
,
01000000
10000000
00100000
00010000
,
01000000
00000000
00010000
00001000
00000000
00010000
00001000
00000000
,
00010000
00001000
00000010
00000100
,
00000001
00000000
00001000
00000100
00000000
00000001
00000100
00000000
,
00000010
00001000
00000001
00000010
,
00000220
00000000
00000000
00000330
,
00000010
00001000
00000100
00010000
,
00022000
00000000
00000000
00033000
,
00001000
00010000
01000000
10000000
,
22000000
00000000
00000000
33000000
,
10000000
01000000
00010000
00100000
,
02200000
00000000
00000000
03300000
,
00100000
00010000
00001000
00000010
,
00001000
00000000
00000000
00001000
00001000
00000000
00000000
00000000
,
00000001
00000001
00000001
00000000
,
00001000
00000000
00000000
00001000
00001000
00000000
00000000
00000000
,
00001000
00010000
00001000
00000000
,
00010000
00000000
00000000
00010000
00010000
00001000
00010000
00000000
,
01000000
01000000
01000000
00000000
,
10000000
00000000
00000000
10000000
10000000
00000000
00000000
00000000
,
10000000
00010000
00100000
01000000
,
00120000
00000000
00000000
20000000
00000000
00000000
30030000
00000000
,
00100000
00100000
00100000
00000000
,
02010000
00000000
00000000
00020000
00000000
00000000
03030000
00000000
,
00010000
00100000
00001000
00010000
,
00021000
00000000
00000000
00002000
00000000
00000000
00033000
00000000
,
00001000
00000010
00000100
00000001
,
00000201
00000000
00000000
00000002
00000000
00000000
00000303
00000000
,
00000010
00001000
00000100
00010000
,
00022000
00033000
00022000
00033000
,
00001000
00010000
01000000
00000000
,
00022000
00033000
00022000
00033000
,
00010000
00001000
00000010
00000000
,
00022000
00033000
00022000
00033000
,
00011000
00000010
00001000
00000100
,
00001100
00000000
00000101
00000100
,
00000100
00000000
00000000
00000000
,
00000010
00001000
00000100
00000001
,
00000010
00001000
00000010
00000001
,
00000010
00000001
00000100
00001000
,
00000100
00001000
00000100
00000001
,
00000100
00010000
00001000
00010000
,
00100000
10000000
01000000
00010000
,
00100000
10000000
01000000
00100000
,
00020000
00000000
00000000
00000000
00000000
00030000
00000000
00010000
,
00010000
00000000
00000000
00001000
00001000
00000000
00000000
00000000
,
00010000
00000000
00001000
00000000
00000010
00000000
00000000
00000010
,
00000010
00000000
00000000
00000010
00000010
00000000
00000100
00000000
,
00000001
00001000
00000100
00000010
,
00000110
00000000
00000000
00000000
;
