#TITLE:Cheap Thrills (feat. Sean Paul);
#SUBTITLE:;
#ARTIST:Sia;
#TITLETRANSLIT:;
#SUBTITLETRANSLIT:;
#ARTISTTRANSLIT:;
#GENRE:Pop;
#CREDIT:chewi;
#BANNER:Cheap Thrills (feat. Sean Paul).png;
#BACKGROUND:Cheap Thrills (feat. Sean Paul)-bg.png;
#LYRICSPATH:;
#CDTITLE:cdtitle.png;
#MUSIC:Cheap Thrills (feat. Sean Paul).ogg;
#OFFSET:-0.002000;
#SAMPLESTART:31.667999;
#SAMPLELENGTH:15.000000;
#SELECTABLE:YES;
#DISPLAYBPM:90.000000;
#BPMS:0.000000=90.000000
;
#STOPS:
;
#BGCHANGES:;
#KEYSOUNDS:;
#ATTACKS:;

//---------------dance-single - ----------------
#NOTES:
     dance-single:
     :
     Beginner:
     1:
     0.055222,0.070489,0.000000,0.000000,0.000000,34.000000,34.000000,0.000000,0.000000,0.000000,0.000000,0.055222,0.070489,0.000000,0.000000,0.000000,34.000000,34.000000,0.000000,0.000000,0.000000,0.000000:
// measure 0
0000
0000
0000
0000
,  // measure 1
0000
0000
0000
0000
,  // measure 2
0000
0000
0000
0000
,  // measure 3
0000
0000
0000
0000
,  // measure 4
0100
0000
0000
0000
,  // measure 5
0100
0000
0000
0000
,  // measure 6
0010
0000
0000
0000
,  // measure 7
0010
0000
0000
0000
,  // measure 8
1000
0000
0000
0000
,  // measure 9
1000
0000
0000
0000
,  // measure 10
0001
0000
0000
0000
,  // measure 11
0001
0000
0000
0000
,  // measure 12
0001
0000
0001
0000
,  // measure 13
0001
0000
0000
0000
,  // measure 14
0010
0000
0010
0000
,  // measure 15
0010
0000
0000
0000
,  // measure 16
0100
0000
0100
0000
,  // measure 17
0100
0000
0000
0000
,  // measure 18
1000
0000
1000
0000
,  // measure 19
1000
0000
0000
0000
,  // measure 20
1000
0000
1000
0000
,  // measure 21
1000
0000
0000
0000
,  // measure 22
0001
0000
0001
0000
,  // measure 23
0001
0000
0000
0000
,  // measure 24
0001
0000
0000
0000
,  // measure 25
0100
0000
0000
0000
,  // measure 26
1000
0000
0000
0000
,  // measure 27
0010
0000
0000
0000
,  // measure 28
0001
0000
0000
0000
,  // measure 29
0010
0000
0000
0000
,  // measure 30
1000
0000
0000
0000
,  // measure 31
0100
0000
0000
0000
;

//---------------dance-single - ----------------
#NOTES:
     dance-single:
     :
     Hard:
     8:
     0.293975,0.324875,0.113692,0.022738,0.147799,181.000000,171.000000,10.000000,2.000000,0.000000,0.000000,0.293975,0.324875,0.113692,0.022738,0.147799,181.000000,171.000000,10.000000,2.000000,0.000000,0.000000:
// measure 0
0000
0000
0000
0000
,  // measure 1
0000
0000
0000
0000
,  // measure 2
0000
0000
0000
0000
,  // measure 3
0000
0000
0000
0000
,  // measure 4
1000
0000
0000
1000
0000
0000
1000
0000
0100
0000
0000
0100
0000
0000
0100
0000
,  // measure 5
0010
0000
0000
0010
0000
0000
0010
0000
0001
0000
0000
0001
0000
0000
0001
0000
,  // measure 6
1000
0000
0000
0001
0000
0000
1000
0000
0100
0000
0000
0010
0000
0000
0100
0000
,  // measure 7
0010
0000
0000
0001
0000
0000
0010
0000
0001
0000
0000
1000
0000
0000
0001
0000
,  // measure 8
1000
0010
1000
1000
0010
0100
0001
0001
,  // measure 9
0100
0001
0100
0001
1001
0000
0110
0001
,  // measure 10
0001
0010
0100
1000
1000
0001
0100
0001
,  // measure 11
0000
0000
0000
0000
,  // measure 12
0010
0000
0000
0100
0000
0000
1000
0000
0010
0000
0000
0100
0000
0000
0001
0000
,  // measure 13
0010
0000
0000
0100
0000
0000
1000
0000
0001
0000
1000
0000
1100
0000
0000
0000
,  // measure 14
1000
0000
0000
0010
0000
0000
0100
0000
0010
0000
0000
1000
0000
0000
0010
0000
,  // measure 15
0100
0000
0000
0001
0000
0000
0010
0000
0001
0000
0010
0000
1100
0000
0000
0000
,  // measure 16
0010
0001
0100
0010
1000
0001
0100
0010
,  // measure 17
1000
1000
0010
0010
1000
0010
1010
0000
,  // measure 18
1000
0100
0010
0001
1000
0100
0010
0001
,  // measure 19
0100
0100
0001
0001
0100
0001
0101
0000
,  // measure 20
0100
0001
1000
0010
1000
0001
0100
0001
,  // measure 21
1000
1000
0100
0100
1000
0100
1100
0000
,  // measure 22
0010
0100
1000
0100
0010
0001
0010
0001
,  // measure 23
0010
0010
0001
0001
0010
0001
0011
0000
,  // measure 24
0001
0000
0000
0001
0000
0000
0001
0000
1000
0000
0000
1000
0000
0000
1000
0000
,  // measure 25
0001
0000
0000
1000
0000
0000
0010
0000
1000
0000
0000
0001
0000
0000
0010
0000
,  // measure 26
0100
0000
0000
0100
0000
0000
0100
0000
0010
0000
0000
0010
0000
0000
0010
0000
,  // measure 27
0100
0000
0000
1000
0000
0000
0001
0000
0010
0000
0000
0001
0000
0000
1000
0000
,  // measure 28
0010
0000
0000
0010
0000
0000
0010
0000
0100
0000
0000
0100
0000
0000
0100
0000
,  // measure 29
0010
0000
0000
0100
0000
0000
0001
0000
0010
0000
0000
0100
0000
0000
1000
0000
,  // measure 30
2002
0000
0000
0000
,  // measure 31
0000
0000
3003
0000
1000
0001
1001
0000
;

//---------------dance-single - ----------------
#NOTES:
     dance-single:
     :
     Easy:
     3:
     0.099074,0.126340,0.000000,0.000000,0.000000,61.000000,61.000000,0.000000,0.000000,0.000000,0.000000,0.099074,0.126340,0.000000,0.000000,0.000000,61.000000,61.000000,0.000000,0.000000,0.000000,0.000000:
// measure 0
0000
0000
0000
0000
,  // measure 1
0000
0000
0000
0000
,  // measure 2
0000
0000
0000
0000
,  // measure 3
0000
0000
0000
0000
,  // measure 4
1000
0000
1000
0000
,  // measure 5
0001
0000
0001
0000
,  // measure 6
0100
0000
0100
0000
,  // measure 7
0010
0000
0010
0000
,  // measure 8
0000
1000
0000
0010
,  // measure 9
0000
1000
0000
0010
,  // measure 10
0000
0100
0000
0001
,  // measure 11
0000
0000
0000
0000
,  // measure 12
0010
0010
0010
0000
,  // measure 13
0010
0000
0100
0000
,  // measure 14
1000
1000
1000
0000
,  // measure 15
0001
0000
1000
0000
,  // measure 16
0001
0001
0001
0000
,  // measure 17
0100
0000
0010
0000
,  // measure 18
0100
0100
0100
0000
,  // measure 19
0010
0000
1000
0000
,  // measure 20
1000
1000
1000
0000
,  // measure 21
0001
0001
1000
0000
,  // measure 22
0001
0001
0001
0000
,  // measure 23
1000
1000
0001
0000
,  // measure 24
0001
0000
0010
0000
,  // measure 25
0001
0000
0010
0000
,  // measure 26
0100
0000
0010
0000
,  // measure 27
0100
0000
0010
0000
,  // measure 28
0100
0000
1000
0000
,  // measure 29
0100
0000
1000
0000
,  // measure 30
1000
0000
0000
0000
,  // measure 31
0000
0000
1000
1000
;

//---------------dance-single - ----------------
#NOTES:
     dance-single:
     :
     Medium:
     5:
     0.190028,0.198535,0.000000,0.079584,0.000000,117.000000,117.000000,0.000000,7.000000,0.000000,0.000000,0.190028,0.198535,0.000000,0.079584,0.000000,117.000000,117.000000,0.000000,7.000000,0.000000,0.000000:
// measure 0
0000
0000
0000
0000
,  // measure 1
0000
0000
0000
0000
,  // measure 2
0000
0000
0000
0000
,  // measure 3
0000
0000
0000
0000
,  // measure 4
1000
0000
1000
0000
0010
0010
0010
0000
,  // measure 5
1000
0100
0010
0001
,  // measure 6
0001
0000
0001
0000
0010
0010
0010
0000
,  // measure 7
0001
0010
0100
1000
,  // measure 8
0002
0103
2000
3100
,  // measure 9
0002
0103
2000
3100
,  // measure 10
0002
0000
0013
0000
2000
0000
3010
0010
,  // measure 11
0000
0000
0000
0000
,  // measure 12
0010
1000
0100
0001
,  // measure 13
0010
0000
1000
0000
0100
0100
0100
0000
,  // measure 14
0100
1000
0010
0001
,  // measure 15
0100
0000
1000
0000
0010
0010
0010
0000
,  // measure 16
1000
0010
0100
0001
,  // measure 17
0100
0100
0100
0000
0100
0100
0100
0000
,  // measure 18
0001
0010
0100
1000
,  // measure 19
0100
0100
0100
0000
0100
0100
0100
0000
,  // measure 20
0100
0010
0001
1000
,  // measure 21
1000
1000
1000
0000
1000
1000
1000
0000
,  // measure 22
0001
0010
0100
1000
,  // measure 23
0100
0100
0100
0000
0100
0100
0100
0000
,  // measure 24
0010
0010
0001
0001
,  // measure 25
0010
0001
0010
0001
,  // measure 26
0100
0100
0010
0010
,  // measure 27
1000
0001
1000
0001
,  // measure 28
1000
1000
0100
0100
,  // measure 29
0010
0001
0010
0001
,  // measure 30
2000
0000
0000
0000
,  // measure 31
0000
0000
0000
0000
0001
0001
3001
0000
;
