#TITLE:Changes;
#SUBTITLE:;
#ARTIST:Dirty Vegas;
#TITLETRANSLIT:;
#SUBTITLETRANSLIT:;
#ARTISTTRANSLIT:;
#CREDIT:Chewi☆;
#BANNER:Changes.png;
#BACKGROUND:Changes-bg.png;
#LYRICSPATH:;
#CDTITLE:;
#MUSIC:Changes.mp3;
#OFFSET:-0.525;
#SAMPLESTART:38.106;
#SAMPLELENGTH:15.000;
#SELECTABLE:YES;
#DISPLAYBPM:127.000;
#BPMS:0.000=127.000;
#STOPS:;
#BGCHANGES:;

//---------------dance-single - Chewi----------------
#NOTES:
     dance-single:
     Chewi:
     Hard:
     10:
     0.482,0.439,0.104,0.312,0.000:
0000
0000
0000
0000
,
0000
0000
0000
0000
,
0000
0000
0000
0000
,
0000
0000
0000
0000
,
2000
0100
3010
0000
0001
0000
0100
0000
,
0002
0100
0013
0000
0010
0000
0100
0000
,
0020
0100
0130
0000
0100
0000
0010
0000
,
0002
1000
1003
0000
0010
0000
0100
0000
,
0002
0100
1003
0000
0010
0000
1000
0000
,
2000
0100
3001
0000
0010
0000
0100
0000
,
0020
0001
0130
0000
0100
0000
1000
0000
,
0020
1000
0130
0000
0100
0000
0010
0000
,
1000
0100
1000
0000
0100
0000
0101
0000
,
0002
2003
3020
0230
,
0301
0010
0001
0000
1000
0000
1010
0000
,
2000
3020
0230
0302
,
1003
0100
0010
0000
0100
0000
1100
0000
,
0002
0203
0320
2030
,
3001
0100
0010
0000
0100
0000
0101
0000
,
0002
0023
0230
2300
,
3100
1000
0100
1000
0100
1000
0100
1000
,
0010
1000
0010
1000
0010
1000
0010
1000
,
0010
0100
0010
0100
0010
0100
0010
0100
,
0001
0100
0001
0100
0001
0100
0001
0100
,
0001
0010
0100
1000
0001
0010
0100
1000
,
0001
0100
0010
1000
0001
0100
0010
1000
,
0001
1000
0100
0010
0001
1000
0010
0100
,
0001
0100
0001
0100
0010
1000
0010
1000
,
0001
0010
0001
0010
0001
0010
0001
0010
,
0100
1000
0100
1000
0100
1000
0100
1000
,
0001
1000
0001
1000
0001
1000
0001
1000
,
0010
0100
0010
0100
0010
0100
0010
0100
,
0001
0100
0001
0100
0001
0100
0001
0100
,
0010
1000
0010
1000
0010
1000
0010
1000
,
0001
1000
0001
1000
0100
1000
0100
1000
,
0001
1000
0001
1000
0001
0010
0001
0010
,
0001
0010
0100
1000
0010
0000
0101
0000
,
1000
0010
0100
0001
0010
0000
0011
0000
,
0001
1000
0010
0100
0010
0000
0110
0000
,
0100
0010
1000
0001
0010
0000
0011
0000
;

//---------------dance-single - Chewi----------------
#NOTES:
     dance-single:
     Chewi:
     Medium:
     6:
     0.260,0.258,0.052,0.000,0.000:
0000
0000
0000
0000
,
0000
0000
0000
0000
,
0000
0000
0000
0000
,
0000
0000
0000
0000
,
1000
0100
1000
0100
,
0001
0100
0001
0100
,
1000
0001
1000
0001
,
1001
0000
0000
0000
0001
1000
0001
0000
,
0100
0010
0100
0010
,
0100
0001
0100
0001
,
0010
0001
0010
0001
,
0011
0000
0000
0000
0001
0010
0001
0000
,
0001
1000
0010
0000
,
0100
0001
0100
0000
0010
0000
0000
0000
,
0100
0010
1000
0000
,
0100
1000
0100
0000
0010
0000
0000
0000
,
0100
0010
0001
0000
,
0001
1000
0010
0000
0010
0000
0000
0000
,
0100
0010
1000
0000
,
0001
0100
1000
0000
1000
0000
0000
0000
,
1000
0100
0010
0001
,
1000
0100
1000
0100
,
0001
0100
0010
1000
,
0010
1000
0010
1000
,
0010
0100
0001
1000
,
0100
1000
0100
1000
,
0100
0010
0001
0100
,
0010
0100
0100
0010
,
1000
0010
0100
0001
,
1000
0100
0001
0100
,
0001
0100
0010
1000
,
0001
0010
1000
0010
,
0100
0010
1000
0001
,
1000
0100
1000
0100
,
0100
0010
0001
0100
,
0010
0001
0001
0010
,
1010
0000
1000
0000
,
1000
0001
1000
0001
,
0101
0000
0001
0000
,
0001
0100
1000
0010
;

//---------------dance-single - Chewi----------------
#NOTES:
     dance-single:
     Chewi:
     Easy:
     4:
     0.178,0.181,0.000,0.156,0.000: // measure 1
0000
0000
0000
0000
,  // measure 2
0000
0000
0000
0000
,  // measure 3
0000
0000
0000
0000
,  // measure 4
0000
0000
0000
0000
,  // measure 5
1000
1000
0100
0000
,  // measure 6
0001
0001
0100
0000
,  // measure 7
1000
1000
0010
0000
,  // measure 8
0001
0001
0010
0000
,  // measure 9
0200
0000
0000
0300
,  // measure 10
0100
0010
0100
0000
,  // measure 11
0020
0000
0000
0030
,  // measure 12
0010
0100
0010
0000
,  // measure 13
0001
0001
0100
0000
,  // measure 14
0010
0001
0010
0000
,  // measure 15
0001
0001
1000
0000
,  // measure 16
1000
0010
1000
0000
,  // measure 17
0010
0010
0100
0000
,  // measure 18
0100
0010
1000
0000
,  // measure 19
0001
1000
0100
0000
,  // measure 20
0010
0010
0100
0000
,  // measure 21
0002
0000
0000
0003
,  // measure 22
2000
0000
0000
3000
,  // measure 23
0100
0001
0100
0000
,  // measure 24
0001
0010
0001
0000
,  // measure 25
0020
0000
0000
0030
,  // measure 26
2000
0000
0000
3000
,  // measure 27
0010
1000
0010
0000
,  // measure 28
1000
0100
1000
0000
,  // measure 29
2000
0000
0000
3000
,  // measure 30
0200
0000
0000
0300
,  // measure 31
0100
0001
0100
0000
,  // measure 32
0001
0010
0001
0000
,  // measure 33
0020
0000
0000
0030
,  // measure 34
0200
0000
0000
0300
,  // measure 35
0001
1000
0010
0000
,  // measure 36
1000
0001
0010
0000
,  // measure 37
0100
0100
0100
0000
,  // measure 38
0200
0000
0000
0300
,  // measure 39
0010
0010
0010
0000
,  // measure 40
0020
0000
0000
0030
;

//---------------dance-single - Chewi----------------
#NOTES:
     dance-single:
     Chewi:
     Beginner:
     1:
     0.082,0.103,0.000,0.104,0.000:
0000
0000
0000
0000
,
0000
0000
0000
0000
,
0000
0000
0000
0000
,
0000
0000
0000
0000
,
1000
0000
0000
0000
,
0001
0000
0000
0000
,
1000
0000
0000
0000
,
0001
0000
0000
0000
,
0200
0000
0000
0300
,
0100
0000
0000
0000
,
0020
0000
0000
0030
,
0010
0000
0000
0000
,
0001
0000
0000
0000
,
0010
0000
0000
0000
,
0001
0000
0000
0000
,
1000
0000
0000
0000
,
0010
0000
0000
0000
,
0100
0000
0000
0000
,
0001
0000
0000
0000
,
0010
0000
0000
0000
,
0002
0000
0000
0003
,
0001
0000
0000
0000
,
0100
0000
0000
0000
,
0001
0000
0000
0000
,
0020
0000
0000
0030
,
0010
0000
0000
0000
,
0010
0000
0000
0000
,
1000
0000
0000
0000
,
2000
0000
0000
3000
,
1000
0000
0000
0000
,
0100
0000
0000
0000
,
0001
0000
0000
0000
,
0020
0000
0000
0030
,
0010
0000
0000
0000
,
0001
0000
0000
0000
,
1000
0000
0000
0000
,
0100
0000
0000
0000
,
0200
0000
0000
0300
,
0010
0000
0000
0000
,
0020
0000
0000
0030
;
