#TITLE:Carry On;
#SUBTITLE:;
#ARTIST:Caramel Pod;
#TITLETRANSLIT:;
#SUBTITLETRANSLIT:;
#ARTISTTRANSLIT:;
#CREDIT:;
#MENUCOLOR:#FFFFFF;
#METERTYPE:DDR X;
#BANNER:Carry On.png;
#BACKGROUND:Carry On-bg.png;
#LYRICSPATH:;
#CDTITLE:./CDTITLES/Licensed Music.png;
#MUSIC:Carry On.mp3;
#OFFSET:-2.452;
#SAMPLESTART:47.681;
#SAMPLELENGTH:15.000;
#SELECTABLE:YES;
#DISPLAYBPM:130.000;
#BPMS:0.000=129.980;
#STOPS:96.000=1.385
;
#BGCHANGES:;

//---------------dance-single - Chewphoria~----------------
#NOTES:
     dance-single:
     Chewphoria~:
     Beginner:
     2:
     0.108,0.120,0.040,0.100,0.000:
0000
0000
0000
0000
,
0000
0000
0000
0000
,
0000
0000
0000
0000
,
0000
0000
0000
0000
,
0000
1000
0000
0000
,
0000
0001
0000
0000
,
0000
0100
0000
0000
,
0110
0000
0000
0000
,
0020
0000
0000
0000
,
0000
0000
0000
0000
,
0000
0000
0000
0030
,
0010
0010
0010
0000
,
0200
0000
0000
0000
,
0000
0000
0000
0000
,
0000
0000
0000
0300
,
0100
0100
0100
0000
,
1000
0000
0010
0000
,
0001
0000
0100
0000
,
1000
0000
0100
0000
,
0001
0000
0010
0000
,
0010
0000
0100
0000
,
1000
0000
0001
0000
,
0010
0000
0100
0000
,
0001
0000
1000
0000
,
0000
1001
0000
1000
,
0000
1000
0000
1000
,
0000
0001
0000
0001
,
0000
0001
0000
0001
,
0000
0110
0000
0010
,
0000
0010
0000
0010
,
0000
0100
0000
0100
,
0000
0100
0000
0100
,
0000
2000
0000
0000
,
3000
1000
0000
0001
,
0000
0002
0000
0000
,
0003
0001
0000
1000
,
0000
0200
0000
0000
,
0300
0100
0000
0010
,
0000
0020
0000
0000
,
0030
0010
0000
0010
,
0010
0020
0000
0000
,
0000
0000
0000
0000
,
0030
2000
0000
0000
,
0000
0000
0000
0000
,
3000
0002
0000
0000
,
0000
0000
0000
0003
,
0000
0200
0000
0000
,
0000
0000
0000
0300
,
0000
0110
0000
0000
;

//---------------dance-single - Chewphoria~----------------
#NOTES:
     dance-single:
     Chewphoria~:
     Easy:
     3:
     0.171,0.216,0.070,0.150,0.000:
0000
0000
0000
0000
,
0000
0000
0000
0000
,
0000
0000
0000
0000
,
0000
0000
0000
0000
,
0000
1000
0000
0001
,
0000
0001
0000
1000
,
0000
1000
0000
0001
,
1001
0000
0000
0000
,
2000
0000
0000
0000
,
3020
0000
0000
0000
,
2030
0000
0000
0000
,
3200
0000
0000
0000
,
2300
0000
0000
0000
,
3002
0000
0000
0000
,
2003
0000
0000
0000
,
3002
0000
0000
0000
,
0103
0100
0100
0100
,
0100
0100
0100
0100
,
1000
1000
1000
1000
,
0001
0001
0001
0001
,
0010
0010
0010
0010
,
0010
0010
0010
0010
,
1000
1000
1000
1000
,
0001
0001
0001
0001
,
0000
1001
0000
0100
,
0000
0010
0100
0010
,
0000
0110
0000
1000
,
0000
0001
1000
0001
,
0000
1001
0000
0010
,
0000
0100
0010
0100
,
0000
0110
0000
0001
,
0000
0001
1000
0001
,
0000
2000
0000
0000
,
3000
0001
1000
1000
,
0001
0002
0000
0000
,
0003
0001
1000
1000
,
0001
0200
0000
0000
,
0300
0100
0010
0010
,
0100
0200
0000
0000
,
0300
0010
0100
0100
,
0010
2002
0000
0000
,
0000
0000
0000
0000
,
3003
0200
0000
0000
,
0000
0000
0000
0300
,
0000
0010
0000
1000
,
0000
0010
0000
0001
,
0000
0100
0000
0001
,
0000
0100
0000
1000
,
0000
1001
0000
0000
;

//---------------dance-single - Chewphoria~----------------
#NOTES:
     dance-single:
     Chewphoria~:
     Medium:
     6:
     0.222,0.289,0.080,0.070,0.000:
0000
0000
0000
0000
,
0000
0000
0000
0000
,
0000
0000
0000
0000
,
0000
0000
0000
0000
,
0000
1000
0000
0100
,
0000
0010
0000
0001
,
0000
0100
0000
0000
,
0110
0000
0000
0000
,
2000
0001
0000
0001
,
0000
0100
0000
3100
,
0002
1000
0000
1000
,
0000
0100
0000
0103
,
0020
0100
0000
0100
,
0000
1000
0000
1030
,
2000
0001
0000
0001
,
0000
0100
0000
3100
,
0100
0001
0100
1000
,
0010
0001
0010
1000
,
0010
0001
0100
1000
,
0010
0100
0010
0100
,
0001
1100
1000
0101
,
0010
0100
0010
0100
,
1001
0000
0000
0001
1000
0000
0000
1000
,
0001
0010
0100
1000
,
0000
0000
1000
0000
0001
0000
0100
0001
,
1000
0000
0001
0000
1000
0000
0100
1000
,
0001
0000
0000
1000
0000
0001
0000
1000
,
0000
0001
0000
0000
0100
0000
0100
0000
,
0100
0010
1000
0001
,
0010
0100
1000
0001
,
0100
0010
0110
0100
,
0110
1000
0001
0010
,
0100
0000
1000
0000
0001
0000
1000
0001
,
0100
0000
0001
0000
1000
0000
0001
1000
,
0100
0000
0000
0010
0000
0100
0000
0010
,
0000
0100
0000
0000
0010
0000
0001
0000
,
0100
1000
0010
0100
,
0001
0001
0010
0100
,
1000
0001
1000
0010
,
0100
0001
1000
0100
,
0010
0022
0000
0000
,
0000
0000
0000
0000
,
0030
2000
0000
0000
,
0000
0000
0000
0000
,
3003
0010
0010
0100
,
0000
0100
0100
0010
,
0000
1000
0001
1000
,
0001
0010
0100
0010
,
0100
0110
0000
0000
;

//---------------dance-single - Chewphoria~----------------
#NOTES:
     dance-single:
     Chewphoria~:
     Hard:
     8:
     0.283,0.385,0.120,0.229,0.000:
0000
0000
0000
0000
,
0000
0000
0000
0000
,
0000
0000
0000
0000
,
0000
0000
0000
0000
,
0000
1000
0000
0110
,
0000
0001
0000
0110
,
0000
1000
0100
0001
,
0010
0000
0000
0000
,
2000
0000
0000
0000
,
3020
0000
0000
0000
,
0230
0000
0000
0000
,
0302
0000
0000
0000
,
2003
0001
0000
0010
,
3002
0100
0000
1000
,
0023
0001
0000
1000
,
0230
0001
0000
1000
,
0310
0000
0001
0000
0100
1000
0010
0000
,
0001
0000
0100
0000
1000
0010
0001
0000
,
0100
0000
1000
0000
0010
0001
0100
0000
,
1000
0000
0010
0000
0001
0100
1000
0000
,
0010
0110
0100
0110
,
1000
1001
0001
1001
,
1001
0000
0000
0001
0010
0100
0000
1000
,
0100
0010
0001
0000
0100
0010
0100
0000
,
0000
0000
0020
0000
2030
0000
3001
0010
,
0100
0000
2000
0000
3200
0000
0301
0010
,
1000
0000
0020
0000
2030
0000
3010
0001
,
0100
1000
0001
1000
,
0101
0000
0002
0000
0203
0000
0310
1000
,
0001
0000
0020
0000
0032
0000
0103
1000
,
0010
0000
2000
0000
3020
0000
1030
0100
,
0010
0001
1000
0010
,
0101
0000
1000
0001
1000
0000
0001
1000
,
0001
0000
0100
0010
0100
0000
0010
0100
,
0010
0000
0010
1000
0010
0000
0100
0001
,
0100
0001
0010
0100
,
1000
0000
1000
0100
1000
0000
1000
0001
,
1000
0000
0001
0100
0001
0000
0001
1000
,
0001
0000
0010
0100
0010
0000
0100
0010
,
0100
0010
0001
0100
,
1000
2020
0000
0000
,
0000
0000
0000
0000
,
3000
0200
0000
0000
,
0000
0000
0000
0000
,
0330
0100
0001
0100
,
1000
0010
1000
0010
,
0001
0010
0100
1000
,
0001
0100
0010
0110
,
1001
0010
0000
0000
;

//---------------dance-double - Chewphoria~----------------
#NOTES:
     dance-double:
     Chewphoria~:
     Easy:
     4:
     0.208,0.241,0.050,0.050,0.000: // measure 1
00000000
00000000
00000000
00000000
,  // measure 2
00000000
00000000
00000000
00000000
,  // measure 3
00000000
00000000
00000000
00000000
,  // measure 4
00000000
00000000
00000000
00000000
,  // measure 5
00000000
10000000
00000000
00100000
,  // measure 6
00000000
00010000
00000000
00001000
,  // measure 7
00000000
00000010
00000000
00000001
,  // measure 8
00002002
00000000
00000000
00003003
,  // measure 9
00000001
00000100
00001000
00000000
,  // measure 10
00001000
00000100
00010000
00000000
,  // measure 11
00010000
01000000
10000000
00000000
,  // measure 12
10000000
00100000
00010000
00000000
,  // measure 13
10000000
01000000
00010000
00000000
,  // measure 14
00010000
00001000
00000010
00000000
,  // measure 15
00000001
00000100
00001000
00000000
,  // measure 16
00000100
00001000
00000001
00000000
,  // measure 17
00001001
00001000
00001000
00001000
,  // measure 18
00010000
00010000
00010000
00010000
,  // measure 19
01000000
01000000
01000000
01000000
,  // measure 20
10000000
10000000
10000000
10000000
,  // measure 21
00100000
00010000
01000000
00000000
,  // measure 22
01000000
10000000
00100000
00000000
,  // measure 23
00100000
00010000
00001000
00000010
,  // measure 24
00000001
00000100
00001000
00000001
,  // measure 25
00000000
00001001
00001000
00000001
,  // measure 26
00001000
00000100
00001000
00000100
,  // measure 27
00001000
00000100
00010000
00000100
,  // measure 28
00010000
00001000
00010000
00001000
,  // measure 29
00010000
00010000
00100000
00010000
,  // measure 30
00100000
10000000
00100000
10000000
,  // measure 31
00100000
10000000
01000000
00010000
,  // measure 32
01000000
10000000
01000000
00100000
,  // measure 33
00010000
00001000
00000010
00000001
,  // measure 34
00000100
00001000
00000100
00000001
,  // measure 35
00000100
00001000
00000100
00010000
,  // measure 36
01000000
10000000
00100000
00010000
,  // measure 37
00100000
01000000
01000000
00100000
,  // measure 38
00100000
00010000
10000000
00100000
,  // measure 39
01000000
00010000
00001000
00000010
,  // measure 40
00000001
00000100
00001000
00000100
,  // measure 41
00010000
00022000
00000000
00000000
,  // measure 42
00000000
00000000
00000000
00000000
,  // measure 43
00033000
00020000
00000000
00000000
,  // measure 44
00000000
00000000
00000000
00030000
,  // measure 45
00000000
10000000
00000000
01000000
,  // measure 46
00000000
00100000
00000000
00010000
,  // measure 47
00000000
01000000
00000000
00010000
,  // measure 48
00000000
00001000
00000000
00000010
,  // measure 49
00000000
00000110
00000000
00000000
;

//---------------dance-double - Chewphoria~----------------
#NOTES:
     dance-double:
     Chewphoria~:
     Hard:
     9:
     0.329,0.361,0.179,0.189,0.000: // measure 1
00000000
00000000
00000000
00000000
,  // measure 2
00000000
00000000
00000000
00000000
,  // measure 3
00000000
00000000
00000000
00000000
,  // measure 4
00000000
00000000
00000000
00000000
,  // measure 5
00000000
00010000
00000000
00001000
,  // measure 6
00000000
00000010
00000000
00000001
,  // measure 7
00000000
00000100
00001000
00010000
,  // measure 8
10010000
00000000
10000000
00100000
,  // measure 9
01000000
00010000
01000000
00000000
00010000
00000000
00100000
00000000
,  // measure 10
00001000
00010000
00001000
00000000
00000010
00000000
00001000
00000000
,  // measure 11
00000010
00001000
00000010
00000000
00000100
00000000
00000001
00000000
,  // measure 12
00001000
00000001
00001000
00000000
00000100
00000010
00000100
00000000
,  // measure 13
00000001
00000000
00000010
00000000
00000100
00001000
00000100
00000000
,  // measure 14
00010000
00000000
00100000
00000000
10000000
00100000
10000000
00000000
,  // measure 15
10000000
00000000
01000000
00000000
00010000
01000000
00010000
00000000
,  // measure 16
01000000
00000000
00100000
00000000
01000000
00100000
01000000
00000000
,  // measure 17
20100000
00100000
00100000
30100000
,  // measure 18
00120000
00100000
00100000
00130000
,  // measure 19
00102000
00100000
00010000
00013000
,  // measure 20
00021000
00001000
00000010
00030010
,  // measure 21
00001000
00000010
00000001
00000000
00000001
00000000
00000100
00000000
,  // measure 22
00000001
00000100
00001000
00000000
00000100
00000000
00000010
00000000
,  // measure 23
00000110
00000000
00000000
00000010
00000100
00000001
00000000
00000010
,  // measure 24
00000100
00001000
00010000
01000000
10000000
00100000
00010000
00100000
,  // measure 25
00000000
00000000
20000000
00000000
32000000
00000000
03100000
00010000
,  // measure 26
00100000
00000000
00020000
00000000
00032000
00000000
00003010
00001000
,  // measure 27
00000010
00000000
00000020
00000000
00000032
00000000
00000103
00001000
,  // measure 28
00000100
00001001
00000100
00001001
,  // measure 29
00000010
00000000
00002000
00000000
00003200
00000000
00010300
00001000
,  // measure 30
00010000
00000000
00002000
00000000
00023000
00000000
01030000
10000000
,  // measure 31
00100000
00000000
00020000
00000000
00230000
00000000
00310000
00100000
,  // measure 32
01000000
11000000
00100000
01010000
,  // measure 33
00100000
00000000
10000000
01000000
00100000
00000000
00010000
00000000
,  // measure 34
00100000
00000000
00100000
00010000
00001000
00000000
00000100
00000000
,  // measure 35
00000010
00000000
00000001
00000100
00001000
00000000
00000010
00001000
,  // measure 36
00000001
00000011
00001010
00001100
,  // measure 37
00000101
00000000
00000010
00000000
00001000
00000000
00000010
00000001
,  // measure 38
00001000
00000000
00000100
00000000
00001000
00000000
00000100
00001000
,  // measure 39
00000001
00000000
00000100
00000010
00000100
00000000
00000010
00001000
,  // measure 40
00000010
00000000
00001000
00010000
01000000
00000000
01000000
00010000
,  // measure 41
01000000
00100000
20200000
00000000
00000000
00000000
00000000
00000000
,  // measure 42
00000000
00000000
00000000
00000000
,  // measure 43
00300000
00000000
00020000
00000000
,  // measure 44
00000000
00000000
00000000
00000000
,  // measure 45
30030000
00000000
10000000
00000000
00010000
00000000
00100000
01000000
,  // measure 46
00100000
00000000
00010000
00000000
00001000
00000000
00000010
00001000
,  // measure 47
00000010
00000000
00000100
00000000
00000010
00000000
00001000
00000001
,  // measure 48
00001000
00000011
00001100
00000101
,  // measure 49
00000100
00000010
00001000
00000000
00000000
00000000
00000000
00000000
;

//---------------dance-double - Chewphoria~----------------
#NOTES:
     dance-double:
     Chewphoria~:
     Medium:
     6:
     0.219,0.313,0.110,0.070,0.000: // measure 1
00000000
00000000
00000000
00000000
,  // measure 2
00000000
00000000
00000000
00000000
,  // measure 3
00000000
00000000
00000000
00000000
,  // measure 4
00000000
00000000
00000000
00000000
,  // measure 5
00000000
00001000
00000000
00010000
,  // measure 6
00000000
01000000
00000000
00100000
,  // measure 7
00000000
00010000
00000000
00001000
,  // measure 8
00001001
00000000
00000000
00000000
,  // measure 9
00000002
00001000
00000000
00001000
,  // measure 10
00000000
00000100
00000000
00000103
,  // measure 11
00002000
00000100
00000000
00000100
,  // measure 12
00000000
00000010
00000000
00003010
,  // measure 13
00002000
00010000
00000000
00010000
,  // measure 14
00000000
00100000
00000000
00103000
,  // measure 15
00200000
01000000
00000000
01000000
,  // measure 16
00000000
00010000
00000000
00310000
,  // measure 17
10000000
01000000
00010000
01000000
,  // measure 18
10000000
00100000
00010000
00100000
,  // measure 19
00001000
00010000
00000100
00000001
,  // measure 20
00000010
00001000
00000010
00000001
,  // measure 21
00001000
00001100
00010000
00011000
,  // measure 22
00010000
01010000
10000000
11000000
,  // measure 23
00100000
00000000
00000000
01000000
00100000
00000000
00000000
00010000
,  // measure 24
00100000
00001000
00010000
00000100
,  // measure 25
00000000
00000000
00000001
00000000
00001000
00000000
00000001
00000100
,  // measure 26
00001000
00000000
00000100
00000000
00010000
00000000
00001000
00010000
,  // measure 27
00001000
00000000
00000000
00010000
00000000
01000000
00000000
10000000
,  // measure 28
00000000
01000000
00000000
00000000
00100000
00000000
00010000
00000000
,  // measure 29
00100000
10000000
01000000
00100000
,  // measure 30
01010000
00100000
00001000
00000010
,  // measure 31
00001010
00001000
00000001
00000010
,  // measure 32
00000100
00001000
00000100
00000001
,  // measure 33
00000100
00000000
00001000
00000000
00000100
00000000
00010000
00100000
,  // measure 34
10000000
00000000
01000000
00000000
00100000
00000000
00010000
10000000
,  // measure 35
00100000
00000000
00000000
01000000
00000000
00010000
00000000
00100000
,  // measure 36
00000000
01000000
00000000
00000000
10000000
00000000
01000000
00000000
,  // measure 37
00100000
00010000
01010000
00100000
,  // measure 38
00001000
00010000
00000100
00001000
,  // measure 39
00000001
00000010
00001010
00001000
,  // measure 40
00000100
00000010
00000001
00001000
,  // measure 41
00000010
00002020
00000000
00000000
,  // measure 42
00000000
00000000
00000000
00000000
,  // measure 43
00003000
00000200
00000000
00000000
,  // measure 44
00000000
00000000
00000000
00000000
,  // measure 45
00000330
00000000
00000010
00000000
,  // measure 46
00001000
00000000
00010000
00000000
,  // measure 47
01000000
00000000
01000000
00000000
,  // measure 48
00010000
00000000
00001000
00000000
,  // measure 49
00000010
00000110
00000000
00000000
;
