#TITLE:CaptivAte~裁き~;
#SUBTITLE:;
#ARTIST:DJ YOSHITAKA feat.A/I;
#TITLETRANSLIT:Captivate ~SABAKI~;
#SUBTITLETRANSLIT:;
#ARTISTTRANSLIT:;
#GENRE:;
#CREDIT:Chewi☆;
#MENUCOLOR:#00FF00;
#METERTYPE:DDR X;
#BANNER:Captivate ~SABAKI~.png;
#BACKGROUND:Captivate ~SABAKI~-bg.png;
#LYRICSPATH:;
#CDTITLE:;
#MUSIC:Captivate ~SABAKI~.mp3;
#OFFSET:-1.781;
#SAMPLESTART:57.082;
#SAMPLELENGTH:15.000;
#SELECTABLE:YES;
#LISTSORT:;
#DISPLAYBPM:90.000:180.000;
#BPMS:0.000=90.000,16.000=180.000;
#STOPS:48.000=1.000
,145.000=1.000
;
#BGCHANGES:;
#ATTACKS:;

//---------------dance-single - Chewi----------------
#NOTES:
     dance-single:
     Chewi:
     Beginner:
     2:
     0.096,0.100,0.028,0.102,0.000: // measure 1
0000
0000
0000
0000
,  // measure 2
0000
0000
0000
0000
,  // measure 3
0000
0000
0000
0000
,  // measure 4
0000
0000
0000
0000
,  // measure 5
2000
0000
0000
0000
,  // measure 6
0000
0000
0000
3000
,  // measure 7
0002
0000
0000
0000
,  // measure 8
0000
0000
0000
0003
,  // measure 9
0200
0000
0000
0000
,  // measure 10
0000
0000
0000
0300
,  // measure 11
0020
0000
0000
0000
,  // measure 12
0000
0000
0000
0030
,  // measure 13
0010
1000
0000
0000
,  // measure 14
0000
0010
0000
0000
,  // measure 15
0000
0010
0000
0000
,  // measure 16
0000
0010
0000
0000
,  // measure 17
0000
0100
0000
0000
,  // measure 18
0000
0001
0000
0000
,  // measure 19
0000
0001
0000
0000
,  // measure 20
0000
1000
0000
0000
,  // measure 21
0000
0010
0000
0000
,  // measure 22
0000
0100
0000
0000
,  // measure 23
0000
0001
0000
0000
,  // measure 24
0000
1000
0000
0000
,  // measure 25
0000
0100
0000
0000
,  // measure 26
0000
0100
0000
0000
,  // measure 27
0000
1000
0000
0000
,  // measure 28
0000
0001
0000
0000
,  // measure 29
0000
1001
0000
0000
,  // measure 30
0000
0010
0000
0000
,  // measure 31
0000
0010
0000
0000
,  // measure 32
0000
0100
0000
0000
,  // measure 33
0000
0110
0000
0000
,  // measure 34
0000
1000
0000
0000
,  // measure 35
0000
1000
0000
0000
,  // measure 36
0000
0200
0000
0000
,  // measure 37
0300
0100
0010
0000
,  // measure 38
0000
0000
1000
0000
,  // measure 39
0000
0000
1000
0000
,  // measure 40
0000
0000
0001
0000
,  // measure 41
0000
0000
1000
0000
,  // measure 42
0000
0000
0100
0000
,  // measure 43
0000
0010
0000
0000
,  // measure 44
0000
0000
0001
0000
,  // measure 45
0000
0000
0001
0000
,  // measure 46
0000
0000
0100
0000
,  // measure 47
0000
0000
0100
0000
,  // measure 48
0000
0000
0010
0000
,  // measure 49
0000
0000
0100
0000
,  // measure 50
0000
0000
0001
0000
,  // measure 51
0000
0000
0001
0000
,  // measure 52
0000
0000
0010
0000
,  // measure 53
0000
0000
1000
0000
,  // measure 54
0000
0000
0001
0000
,  // measure 55
0000
0000
0001
0000
,  // measure 56
0000
0000
1000
0000
,  // measure 57
0000
0000
1000
0000
,  // measure 58
0000
0000
1000
0000
,  // measure 59
0000
0000
1000
0000
,  // measure 60
0000
0000
0010
0000
,  // measure 61
0000
0000
2000
0000
,  // measure 62
0000
0000
0000
0000
,  // measure 63
0000
3000
0002
0000
,  // measure 64
0000
0000
0000
0000
,  // measure 65
0000
0003
0020
0000
,  // measure 66
0000
0000
0000
0000
,  // measure 67
0000
0030
0200
0000
,  // measure 68
0000
0000
0000
0000
,  // measure 69
0000
0300
0220
0000
,  // measure 70
0000
0000
0000
0000
,  // measure 71
0000
0000
0000
0000
,  // measure 72
0000
0000
0000
0000
,  // measure 73
0330
0000
0000
0000
;

//---------------dance-single - Chewi----------------
#NOTES:
     dance-single:
     Chewi:
     Easy:
     4:
     0.234,0.300,0.037,0.111,0.000: // measure 1
0000
0000
0000
0000
,  // measure 2
0000
0000
0000
0000
,  // measure 3
0000
0000
0000
0000
,  // measure 4
0000
0000
0000
0000
,  // measure 5
2000
0000
0000
0000
,  // measure 6
0000
0000
0000
3000
,  // measure 7
0002
0000
0000
0000
,  // measure 8
0000
0000
0000
0003
,  // measure 9
0200
0000
0000
0000
,  // measure 10
0000
0000
0000
0300
,  // measure 11
0020
0000
0000
0000
,  // measure 12
0000
0000
0000
0030
,  // measure 13
0110
1000
0000
0001
,  // measure 14
0000
0010
0000
0100
,  // measure 15
0000
0010
0001
0100
,  // measure 16
0000
0010
1000
0100
,  // measure 17
0000
0100
0000
0010
,  // measure 18
0000
0001
0000
1000
,  // measure 19
0000
0001
0100
0010
,  // measure 20
0000
1000
0100
0010
,  // measure 21
0000
0010
0000
0001
,  // measure 22
0000
0100
0000
0010
,  // measure 23
0000
0001
0000
0100
,  // measure 24
0000
1000
0000
0010
,  // measure 25
0000
0100
0010
1000
,  // measure 26
0000
0100
0010
0001
,  // measure 27
0000
1000
0001
0100
,  // measure 28
0000
0001
1000
0100
,  // measure 29
0000
1001
0001
1000
,  // measure 30
0001
0010
0100
0010
,  // measure 31
0100
0010
0001
0200
,  // measure 32
0000
0000
0000
0300
,  // measure 33
0000
0110
0100
0010
,  // measure 34
0100
1000
0100
1000
,  // measure 35
0100
1000
0010
0001
,  // measure 36
0010
0200
0000
0000
,  // measure 37
0300
0010
0010
0100
,  // measure 38
0010
0100
1000
0001
,  // measure 39
1000
0001
1000
0100
,  // measure 40
0001
0000
0001
0100
,  // measure 41
1000
0000
1000
0001
,  // measure 42
1000
0001
0100
0010
,  // measure 43
0100
0010
1000
0010
,  // measure 44
0001
0000
0001
0010
,  // measure 45
1000
0000
0001
0010
,  // measure 46
0001
0010
0100
1000
,  // measure 47
0100
1000
0100
1000
,  // measure 48
0010
0000
0010
0001
,  // measure 49
0100
0000
0100
0010
,  // measure 50
0100
0010
0001
1000
,  // measure 51
0001
1000
0001
0010
,  // measure 52
0100
0000
0010
0100
,  // measure 53
1000
0000
1000
0100
,  // measure 54
0001
0000
0001
1000
,  // measure 55
0001
1000
0001
0010
,  // measure 56
1000
0000
1000
0001
,  // measure 57
1000
0001
1000
0010
,  // measure 58
0001
0010
1000
0100
,  // measure 59
0001
0100
1000
0100
,  // measure 60
1000
0100
0010
0001
,  // measure 61
0010
0001
2000
0000
,  // measure 62
0000
0000
0000
0000
,  // measure 63
0000
3000
0002
0000
,  // measure 64
0000
0000
0000
0000
,  // measure 65
0000
0003
0020
0000
,  // measure 66
0000
0000
0000
0000
,  // measure 67
0000
0030
0200
0000
,  // measure 68
0000
0000
0000
0000
,  // measure 69
0000
0300
0220
0000
,  // measure 70
0000
0000
0000
0000
,  // measure 71
0000
0000
0000
0000
,  // measure 72
0000
0000
0000
0000
,  // measure 73
0330
0000
0000
0000
;

//---------------dance-single - Chewi----------------
#NOTES:
     dance-single:
     Chewi:
     Medium:
     7:
     0.374,0.466,0.240,0.055,0.000: // measure 1
0000
0000
0000
0000
,  // measure 2
0000
0000
0000
0000
,  // measure 3
0000
0000
0000
0000
,  // measure 4
0000
0000
0000
0000
,  // measure 5
1001
0100
0010
0100
,  // measure 6
0110
1000
0001
1000
,  // measure 7
0011
0100
1000
0001
,  // measure 8
1100
0010
0001
1000
,  // measure 9
0010
0001
0100
1000
,  // measure 10
0100
0001
0010
1000
,  // measure 11
0001
1000
0100
0010
,  // measure 12
0001
1000
0010
0100
,  // measure 13
0110
0001
0100
0001
,  // measure 14
0100
1000
0100
1000
,  // measure 15
0100
0001
0010
1000
,  // measure 16
0100
0001
0010
1000
,  // measure 17
0100
0001
1000
0100
,  // measure 18
0010
0001
1000
0010
,  // measure 19
0100
0002
0000
2003
,  // measure 20
0000
3020
0000
0230
,  // measure 21
0000
0310
1000
0100
,  // measure 22
1000
0010
0001
0100
,  // measure 23
0001
0010
0100
0001
,  // measure 24
1000
0100
0010
0001
,  // measure 25
1000
0010
0001
0010
,  // measure 26
1000
0100
0001
0100
,  // measure 27
1000
0001
0100
1000
,  // measure 28
0010
1000
0100
0001
,  // measure 29
0010
0110
0010
0001
,  // measure 30
0010
0100
1000
0010
,  // measure 31
1000
1100
1000
0010
,  // measure 32
0100
0001
0010
0100
,  // measure 33
0010
0011
0010
0100
,  // measure 34
1000
0010
0100
0001
,  // measure 35
0100
0010
1000
0001
,  // measure 36
0010
0100
1000
0001
,  // measure 37
1000
1001
1000
0010
,  // measure 38
0001
0010
1000
0100
,  // measure 39
0001
0100
1000
0100
,  // measure 40
0010
0110
1000
0010
,  // measure 41
0100
0110
0100
0001
,  // measure 42
0010
0001
0100
0010
,  // measure 43
1000
0100
0010
0110
,  // measure 44
0110
1001
0100
0110
,  // measure 45
0110
1001
1000
0010
,  // measure 46
0100
0001
1000
0100
,  // measure 47
0010
0001
1000
0100
,  // measure 48
0001
0100
1000
0010
,  // measure 49
0001
0010
0100
0001
,  // measure 50
0010
0001
0100
1000
,  // measure 51
0010
1000
0010
0100
,  // measure 52
1000
0001
0100
0100
,  // measure 53
0110
0110
1000
0100
,  // measure 54
0010
0100
0001
0001
,  // measure 55
0100
0100
0001
0100
,  // measure 56
0010
0100
1000
1000
,  // measure 57
0010
0000
1000
0100
,  // measure 58
1000
0100
0001
0100
,  // measure 59
0001
0100
0010
0110
,  // measure 60
1000
1001
0001
0010
,  // measure 61
0100
1000
0010
0100
,  // measure 62
0110
0000
1000
1000
,  // measure 63
1100
0000
1000
1000
,  // measure 64
0101
0000
0001
0010
,  // measure 65
0110
0001
0010
0100
,  // measure 66
1000
0100
0001
0010
,  // measure 67
0100
1000
0100
1000
,  // measure 68
0010
0001
0100
0001
,  // measure 69
0010
1000
2002
0000
,  // measure 70
0000
0000
0000
0000
,  // measure 71
0000
0000
0000
0000
,  // measure 72
0000
0000
0000
0000
,  // measure 73
3003
0000
0000
0000
;

//---------------dance-single - Chewi----------------
#NOTES:
     dance-single:
     Chewi:
     Hard:
     11:
     0.552,0.566,0.176,0.009,0.018: // measure 1
0000
0000
0000
0000
,  // measure 2
0000
0000
0000
0000
,  // measure 3
0000
0000
0000
0000
,  // measure 4
0000
0000
0000
0000
,  // measure 5
1100
0010
0001
0100
,  // measure 6
0010
0010
0100
0100
,  // measure 7
0001
0010
0100
0000
1000
0000
0001
0000
,  // measure 8
0100
0010
1000
0001
,  // measure 9
1100
0010
0001
0100
,  // measure 10
1000
0010
0100
0010
,  // measure 11
0001
0010
0100
0000
1000
0000
0001
0000
,  // measure 12
1000
0001
0100
1000
0100
0001
0010
1000
,  // measure 13
0010
0000
0100
0000
0100
0010
0000
0010
,  // measure 14
0100
0000
1000
0001
1000
0000
0001
1000
,  // measure 15
0001
0000
1000
0000
1000
0001
0000
0001
,  // measure 16
1000
0000
0010
0100
0010
0000
0100
0010
,  // measure 17
0100
0000
0001
0000
0001
0100
0000
0100
,  // measure 18
0001
0000
0001
0010
0100
0000
1000
0100
,  // measure 19
0010
0000
0000
0000
0001
0000
0000
0010
0000
0000
0100
0000
1000
0000
0000
0010
,  // measure 20
0000
0000
0100
0000
0001
0000
0000
0100
0000
0000
0010
0000
1000
0000
0000
0001
,  // measure 21
0000
1000
0100
0010
0100
0000
0010
0001
,  // measure 22
0100
0010
0010
0100
,  // measure 23
0100
0000
0010
1000
0100
0000
1000
0100
,  // measure 24
0010
0001
0010
0100
,  // measure 25
1000
0000
0001
1000
0010
0000
0100
0010
,  // measure 26
0100
0001
0010
0100
,  // measure 27
1000
0000
0001
1000
0100
0000
1000
0001
,  // measure 28
0010
0100
0100
0010
,  // measure 29
0010
1001
0100
0010
,  // measure 30
0100
0101
0010
0100
,  // measure 31
1000
0001
0010
0100
,  // measure 32
1000
0001
0100
0010
,  // measure 33
1000
1100
0010
0001
,  // measure 34
1000
0010
0100
0001
,  // measure 35
1000
0100
0100
0010
,  // measure 36
0010
0000
0001
0010
0100
1000
0001
0010
,  // measure 37
0100
1000
0001
0000
1000
0100
1000
0100
,  // measure 38
1000
0100
1000
0100
1000
0010
1000
0010
,  // measure 39
1000
0010
1000
0010
0001
0010
0001
0010
,  // measure 40
0001
0010
0001
0010
0100
0010
0100
0010
,  // measure 41
0100
0010
0100
0010
0100
0001
0010
0001
,  // measure 42
0100
0001
0010
0001
0010
1000
0100
1000
,  // measure 43
0010
1000
0100
1000
0010
0100
1000
0001
,  // measure 44
0100
0010
1000
0001
1000
0100
0010
0001
,  // measure 45
1000
0100
0010
0001
1000
0010
0001
0010
,  // measure 46
1000
0010
0001
0010
1000
0100
0001
0100
,  // measure 47
1000
0100
0001
0100
1000
0001
0100
0010
,  // measure 48
1000
0001
0100
0010
1000
0100
0010
0001
,  // measure 49
1000
0100
0010
0001
1000
0010
0001
0010
,  // measure 50
1000
0010
0001
0010
1000
0100
0001
0100
,  // measure 51
1000
0100
0001
0100
1000
0001
1000
0001
,  // measure 52
0100
0010
0100
0010
1000
0010
0100
0001
,  // measure 53
1000
0010
0100
0001
1000
0000
1100
0000
,  // measure 54
0010
0001
0100
0010
0100
0001
0010
0100
,  // measure 55
1000
0001
1000
0010
0100
0000
0110
0000
,  // measure 56
0100
0001
0010
0100
1000
0001
1000
0010
,  // measure 57
0100
0001
0100
0010
0100
0000
0110
0000
,  // measure 58
0001
0011
0001
0101
,  // measure 59
0100
1100
1001
1100
,  // measure 60
0011
0101
1010
1001
,  // measure 61
0110
0000
1001
0000
1000
0100
1000
0100
,  // measure 62
1000
0100
1000
0100
0010
0100
0010
0100
,  // measure 63
0010
0100
0010
0100
0010
0001
0010
0001
,  // measure 64
0010
0001
0010
0001
0100
0001
0100
0001
,  // measure 65
0100
0001
0100
0001
0100
0010
0100
0010
,  // measure 66
0100
0010
0100
0010
1000
0010
1000
0010
,  // measure 67
1000
0010
1000
0010
1000
0001
1000
0100
,  // measure 68
1000
0001
1000
0010
0100
0001
0010
0100
,  // measure 69
1000
0001
0100
0010
0200
0000
0000
0000
,  // measure 70
0000
0000
0000
0000
,  // measure 71
0000
0000
0000
0000
,  // measure 72
0000
0000
0000
0000
,  // measure 73
0300
0000
0000
0000
;
