#TITLE:Candy Galy;
#SUBTITLE:;
#ARTIST:Risk Junk-G;
#TITLETRANSLIT:;
#SUBTITLETRANSLIT:;
#ARTISTTRANSLIT:;
#CREDIT:steps by Chewi☆;
#BANNER:[ROUND 5] - Candy Galy.png;
#BACKGROUND:[ROUND 5] - Candy Galy-bg.png;
#LYRICSPATH:;
#CDTITLE:;
#MUSIC:[ROUND 5] - Candy Galy.mp3;
#OFFSET:-0.395;
#SAMPLESTART:76.072;
#SAMPLELENGTH:15.000;
#SELECTABLE:YES;
#BPMS:0.000=184.000;
#STOPS:;
#BGCHANGES:;

//---------------dance-single - Chewi----------------
#NOTES:
     dance-single:
     Chewi:
     Easy:
     5:
     0.363,0.368,0.097,0.000,0.000: // measure 1
0000
0000
0000
0000
,  // measure 2
0000
0000
0000
0000
,  // measure 3
0000
0000
0000
0000
,  // measure 4
0000
0000
0000
0000
,  // measure 5
1000
1000
0100
0100
,  // measure 6
0010
0010
0001
0001
,  // measure 7
1000
1000
0001
0001
,  // measure 8
0100
0100
0010
0010
,  // measure 9
1000
0010
1000
0010
,  // measure 10
1000
0001
1000
0001
,  // measure 11
1000
0100
1000
0100
,  // measure 12
1000
0001
1000
0001
,  // measure 13
0010
0001
0010
0001
,  // measure 14
0010
0100
0010
0100
,  // measure 15
0010
1000
0010
1000
,  // measure 16
0010
0100
0010
0100
,  // measure 17
0010
0010
0010
0010
,  // measure 18
0001
0001
0001
0001
,  // measure 19
0010
0010
0010
0010
,  // measure 20
0001
1000
0001
1001
,  // measure 21
1000
1000
1000
1000
,  // measure 22
0010
0010
0010
0010
,  // measure 23
0100
0100
0100
0100
,  // measure 24
0010
0100
0001
0101
,  // measure 25
0001
1000
0001
1000
,  // measure 26
0100
0010
0100
0010
,  // measure 27
0001
1000
0001
1000
,  // measure 28
0010
0100
0010
0100
,  // measure 29
0010
1000
0001
0100
,  // measure 30
0010
1000
0001
0100
,  // measure 31
0010
0100
0001
1000
,  // measure 32
0100
0010
0001
1000
,  // measure 33
0100
0000
0000
0000
,  // measure 34
0010
0000
0000
0000
,  // measure 35
0001
0000
0000
0000
,  // measure 36
1000
0000
0000
0000
,  // measure 37
1001
0000
0000
0000
,  // measure 38
0110
0000
0000
0000
,  // measure 39
0100
0000
0000
0000
,  // measure 40
0010
0000
0000
0000
,  // measure 41
0110
0000
0000
0000
,  // measure 42
1001
0000
0000
0000
,  // measure 43
1000
0100
1000
0000
,  // measure 44
0001
0010
0001
0000
,  // measure 45
1000
0010
1000
0000
,  // measure 46
0001
0100
0001
0000
,  // measure 47
0100
0010
0100
0000
,  // measure 48
0010
0100
0010
0000
,  // measure 49
1000
0001
1000
0000
,  // measure 50
0001
1000
0001
0000
,  // measure 51
1000
1000
1000
1000
,  // measure 52
0001
0001
0001
0001
,  // measure 53
1000
0001
1000
0001
,  // measure 54
1000
0001
1000
0001
,  // measure 55
0100
0010
0100
0010
,  // measure 56
0100
0010
0100
0010
,  // measure 57
0110
0000
0000
0000
,  // measure 58
0110
0000
0000
0000
,  // measure 59
0010
0010
0100
0100
,  // measure 60
0001
0010
0100
1000
,  // measure 61
0001
0001
1000
1000
,  // measure 62
0001
0100
0010
1000
,  // measure 63
0001
0001
1000
1000
,  // measure 64
0010
0100
0001
1000
,  // measure 65
0100
0100
0010
0010
,  // measure 66
0100
0010
0100
0110
,  // measure 67
0010
0100
1000
0001
,  // measure 68
0010
0100
1000
0001
,  // measure 69
1000
0010
0100
0001
,  // measure 70
1000
0010
0100
0001
,  // measure 71
1000
0100
0001
0100
,  // measure 72
1000
0010
0001
0010
,  // measure 73
1000
1000
0001
0001
,  // measure 74
1000
0001
1000
1001
,  // measure 75
0001
0010
0001
0010
,  // measure 76
0100
1000
0100
1000
,  // measure 77
0001
0010
0100
1000
,  // measure 78
0001
0010
0100
1000
,  // measure 79
0001
1000
0001
1000
,  // measure 80
0010
0100
0010
0100
,  // measure 81
0010
0100
0001
1000
,  // measure 82
0100
0010
0001
1000
,  // measure 83
0010
1000
0100
1000
,  // measure 84
0010
1000
0100
1000
,  // measure 85
0010
0100
0001
0100
,  // measure 86
0010
0100
0001
0100
,  // measure 87
0010
0010
0010
0010
,  // measure 88
1000
1000
1000
1000
,  // measure 89
0100
0100
0100
0100
,  // measure 90
0001
0001
0001
0001
,  // measure 91
0001
0000
1000
0000
,  // measure 92
1001
0000
1001
0000
;

//---------------dance-single - Chewi----------------
#NOTES:
     dance-single:
     Chewi:
     Medium:
     7:
     0.520,0.591,0.426,0.161,0.000: // measure 1
0000
0000
0000
0000
,  // measure 2
0000
0000
0000
0000
,  // measure 3
0000
0000
0000
0000
,  // measure 4
0000
0000
0000
0000
,  // measure 5
1000
0001
1000
0000
0001
0000
1000
0000
,  // measure 6
0001
1000
0001
0000
1000
0000
0001
0000
,  // measure 7
0100
0010
0100
0000
0010
0000
0100
0000
,  // measure 8
0010
0100
0010
0000
0100
0000
0010
0000
,  // measure 9
1000
0100
0001
0010
,  // measure 10
1000
0100
0001
0100
,  // measure 11
1000
0010
0001
0100
,  // measure 12
1000
0100
0001
0100
,  // measure 13
1000
0001
0100
0010
,  // measure 14
1000
0001
0010
0100
,  // measure 15
1000
0001
1000
0000
0001
1000
0001
0000
,  // measure 16
1000
0100
0010
0000
0001
0010
0100
0000
,  // measure 17
2100
0010
0001
3100
,  // measure 18
0102
1000
0010
1003
,  // measure 19
2001
0010
0100
3010
,  // measure 20
0102
0010
1000
0013
,  // measure 21
1000
0100
1000
0000
0001
0100
0001
0000
,  // measure 22
1000
0010
1000
0000
0001
0010
0001
0000
,  // measure 23
0010
0100
0010
0000
0100
0010
0100
0000
,  // measure 24
0010
0100
1000
0000
0010
0100
0001
0000
,  // measure 25
2001
0010
0001
3100
,  // measure 26
1002
0100
1000
0103
,  // measure 27
0200
0010
0001
0301
,  // measure 28
2010
0100
0001
3001
,  // measure 29
0001
1000
0010
0000
1000
0000
0010
0000
,  // measure 30
1000
0001
0010
0000
0001
0000
0010
0000
,  // measure 31
0010
0100
1000
0000
0010
0100
0001
0000
,  // measure 32
0100
0010
0100
0010
0100
0010
0100
0000
,  // measure 33
0110
0000
0110
0000
,  // measure 34
1001
1001
1001
0000
,  // measure 35
2000
0000
0000
0000
,  // measure 36
3200
0000
0000
0000
,  // measure 37
0320
0000
0000
0000
,  // measure 38
0032
0000
2003
0000
,  // measure 39
3002
0000
0000
0000
,  // measure 40
0203
0000
0000
0000
,  // measure 41
0320
0000
0000
0000
,  // measure 42
2030
0000
3020
0000
,  // measure 43
1030
0010
1000
0000
,  // measure 44
0001
0100
0001
0000
0101
0000
0000
0000
,  // measure 45
0001
0010
0001
0000
,  // measure 46
1000
0100
1000
0000
1100
0000
0000
0000
,  // measure 47
1000
0001
0100
0000
,  // measure 48
0001
1000
0100
0000
1001
0000
0000
0000
,  // measure 49
1000
0001
0010
0000
,  // measure 50
0001
1000
0010
0000
1001
0000
0000
0000
,  // measure 51
1000
1000
0100
0100
,  // measure 52
0010
0001
0100
0000
0101
0000
0000
0000
,  // measure 53
0001
0001
0010
0010
,  // measure 54
0100
1000
0010
0000
1010
0000
0000
0000
,  // measure 55
1000
0001
1000
0000
1000
0001
1000
0000
,  // measure 56
0001
1000
0001
0000
0001
1000
0001
0000
,  // measure 57
0220
0000
0000
0000
,  // measure 58
0000
0000
0000
0330
,  // measure 59
0010
0000
0100
0000
0001
0010
0100
0000
,  // measure 60
1000
1010
0001
0011
,  // measure 61
1000
0000
0010
0000
0100
0001
0010
0000
,  // measure 62
0001
0011
1000
1010
,  // measure 63
0001
0000
1000
0000
0100
1000
0010
0000
,  // measure 64
1000
1001
0001
1001
,  // measure 65
0100
0010
1000
0000
0010
0100
0001
0000
,  // measure 66
0100
0010
1000
0000
0100
0010
0001
0000
,  // measure 67
1000
0100
1000
0001
1000
0000
0100
0000
,  // measure 68
0010
0001
0100
0000
0010
1000
0100
0000
,  // measure 69
1000
0001
1000
0100
1000
0001
1000
0000
,  // measure 70
0010
0100
0001
0000
0100
0010
1000
0000
,  // measure 71
0001
0101
1100
0101
,  // measure 72
1000
1010
1001
1010
,  // measure 73
0001
1000
0001
0000
1000
0001
1000
0000
,  // measure 74
0010
0100
0001
0000
0010
0100
1000
0000
,  // measure 75
0001
1000
0001
0000
1000
0000
0100
0000
,  // measure 76
0010
0100
1000
0000
0010
0000
1000
0000
,  // measure 77
0100
0010
0001
0000
1000
0000
0100
0000
,  // measure 78
1000
0010
0100
0000
0001
0000
0100
0000
,  // measure 79
0010
0100
0010
0000
0100
0010
0100
0000
,  // measure 80
0010
1000
0001
0000
0010
0001
1000
0000
,  // measure 81
0001
0011
1100
0101
,  // measure 82
1000
1010
1001
1100
,  // measure 83
1001
1001
0110
0110
,  // measure 84
0100
0010
0100
0000
0010
0100
0010
0000
,  // measure 85
0100
0010
1000
0001
,  // measure 86
1001
1001
1100
1100
,  // measure 87
0001
0010
0100
0000
1000
0000
1100
0000
,  // measure 88
1000
0010
0100
0000
0001
0000
0101
0000
,  // measure 89
0100
0010
1000
0000
0100
0010
1000
0000
,  // measure 90
0100
0010
1000
0000
0100
0010
1000
0000
,  // measure 91
1001
0010
1001
0010
,  // measure 92
0011
1100
0011
1001
;

//---------------dance-single - Chewi----------------
#NOTES:
     dance-single:
     Chewi:
     Hard:
     9:
     0.710,0.883,0.314,0.145,0.000: // measure 1
0000
0000
0000
0000
,  // measure 2
0000
0000
0000
0000
,  // measure 3
0000
0000
0000
0000
,  // measure 4
0000
0000
0000
0000
,  // measure 5
0010
1000
0100
0000
1000
0000
1100
0000
,  // measure 6
0010
0001
0100
0000
0001
0000
0101
0000
,  // measure 7
0100
0010
1000
0000
0001
0100
0010
0000
,  // measure 8
1000
0100
0010
0000
0100
0010
0001
0000
,  // measure 9
1000
0001
1000
0001
1000
0001
1000
0001
,  // measure 10
0100
0001
0100
0001
0100
0001
0100
0001
,  // measure 11
0100
0010
0100
0010
0100
0010
0100
0010
,  // measure 12
1000
0010
1000
0010
1000
0010
1000
0010
,  // measure 13
1000
0001
1000
0001
1000
0001
1000
0001
,  // measure 14
1000
0100
1000
0100
1000
0100
1000
0100
,  // measure 15
0010
0001
0010
0001
0010
0001
0010
0001
,  // measure 16
0010
0100
0010
0100
0010
0100
0010
0100
,  // measure 17
0020
1000
0001
1030
,  // measure 18
1000
0100
0010
0001
1000
0000
1100
0000
,  // measure 19
0002
0100
1000
0013
,  // measure 20
0001
0010
0100
1000
0010
1000
0001
0100
,  // measure 21
0002
0010
1000
0013
,  // measure 22
0001
0010
0100
1000
0010
0000
1001
0000
,  // measure 23
2000
0100
0001
3100
,  // measure 24
0001
0010
0100
1000
0001
0010
0100
1000
,  // measure 25
0001
1000
0100
0100
1000
0001
0100
0000
,  // measure 26
0001
1000
0010
0010
1000
0001
0010
0000
,  // measure 27
0001
0010
0100
0100
0010
0001
0010
0000
,  // measure 28
0001
0010
0100
0100
1000
0010
1000
0000
,  // measure 29
1000
0010
0100
0100
0001
0010
0100
0000
,  // measure 30
1000
0001
0010
0010
0001
1000
0100
0000
,  // measure 31
0010
0100
0010
0100
1000
0001
1000
0001
,  // measure 32
0100
0010
0100
0010
1000
0001
1000
0001
,  // measure 33
1001
1001
1001
0000
1010
1010
1010
0000
,  // measure 34
0101
0101
0101
0101
0101
0000
0000
0000
,  // measure 35
2001
0000
0000
0000
,  // measure 36
3020
0000
0230
0302
,  // measure 37
2003
0000
0000
0000
,  // measure 38
3002
0000
0000
0000
,  // measure 39
0023
0000
0000
0000
,  // measure 40
0230
0000
0000
0000
,  // measure 41
2300
0000
0000
3002
,  // measure 42
2003
3002
2003
3002
,  // measure 43
1003
0001
1000
0100
1000
0000
0000
0000
,  // measure 44
0001
1000
0001
0100
0001
0000
0000
0000
,  // measure 45
0100
0010
0100
0001
0100
0000
0000
0000
,  // measure 46
0100
0010
0100
1000
0100
0000
0000
0000
,  // measure 47
0010
0100
1000
0100
0010
0000
0000
0000
,  // measure 48
0010
0100
1000
0001
0010
0000
0000
0000
,  // measure 49
0010
0001
1000
0010
0100
0000
0000
0000
,  // measure 50
0001
0100
0010
1000
0001
0000
0000
0000
,  // measure 51
1100
1100
0110
0110
,  // measure 52
0011
0011
1001
1001
,  // measure 53
0010
0001
0100
0001
0010
0000
0010
0000
,  // measure 54
0010
0001
0100
0001
0010
0000
0010
0000
,  // measure 55
0010
0100
1000
0010
1000
0100
1000
0010
,  // measure 56
1000
0100
1000
0010
1000
0100
0010
0001
,  // measure 57
1000
0000
0000
1001
1001
1001
1001
1001
,  // measure 58
0000
0000
0000
0000
,  // measure 59
1000
0001
0100
0010
1000
0001
0010
0100
,  // measure 60
1000
0001
0100
0010
1000
0001
0010
0100
,  // measure 61
1000
0010
1000
0001
1000
0100
1000
1000
,  // measure 62
0001
0010
0001
0100
0001
0010
0001
0001
,  // measure 63
0001
0010
0100
1000
0010
1000
0100
1000
,  // measure 64
0010
0100
0001
1000
0010
0100
0001
1000
,  // measure 65
0001
0010
0001
0010
0100
1000
0100
1000
,  // measure 66
0001
0010
0100
1000
0001
0010
0100
1000
,  // measure 67
0010
0100
0001
0100
0010
0100
0001
0100
,  // measure 68
0010
1000
0100
1000
0010
1000
0100
1000
,  // measure 69
0010
0100
0001
1000
0100
0010
0001
1000
,  // measure 70
0100
0010
0001
0010
0100
1000
0001
1000
,  // measure 71
0100
1000
0100
1000
0100
1000
0100
1000
,  // measure 72
0001
0010
0001
0010
0001
0010
0001
0010
,  // measure 73
0100
1000
0001
0010
0100
1000
0001
0010
,  // measure 74
0100
1000
0001
0010
0100
1000
0001
0010
,  // measure 75
0100
0010
0001
0010
1000
1000
1000
1000
,  // measure 76
0001
0010
0100
1000
0010
0010
0010
0010
,  // measure 77
1000
0100
0010
0001
1000
1000
1000
1000
,  // measure 78
0001
0010
0100
1000
0010
0010
0010
0010
,  // measure 79
0100
0010
0100
0001
0100
0010
0100
0001
,  // measure 80
0010
0100
0010
0001
0010
0100
0010
0001
,  // measure 81
0010
0100
1000
0010
1000
0100
0010
0100
,  // measure 82
1000
0001
1000
0001
0100
0010
0100
0010
,  // measure 83
0100
0100
0100
0010
1000
0001
0010
0100
,  // measure 84
1000
1000
1000
0001
0010
0100
1000
0010
,  // measure 85
0100
0100
0100
0010
1000
0001
1000
0100
,  // measure 86
0001
0001
0001
0100
1000
0100
0001
0100
,  // measure 87
1000
0001
1000
0001
1000
0001
1000
0001
,  // measure 88
0100
0010
0100
0010
0100
0010
0100
0010
,  // measure 89
0100
0010
1000
0001
0010
0100
1000
0001
,  // measure 90
1000
1000
0001
0001
0010
0010
0100
0100
,  // measure 91
0110
0110
0110
0000
0011
0011
0011
0000
,  // measure 92
1100
1100
1100
0000
1001
0000
0000
0000
;
