#TITLE:Call Me Maybe;
#SUBTITLE:;
#ARTIST:Carly Rae Jepsen;
#TITLETRANSLIT:;
#SUBTITLETRANSLIT:;
#ARTISTTRANSLIT:;
#CREDIT:Chewi☆;
#BANNER:Call Me Maybe.png;
#BACKGROUND:Call Me Maybe-bg.png;
#LYRICSPATH:;
#CDTITLE:;
#MUSIC:Call Me Maybe.mp3;
#OFFSET:-4.319;
#SAMPLESTART:28.317;
#SAMPLELENGTH:15.000;
#SELECTABLE:YES;
#DISPLAYBPM:120.000;
#BPMS:0.000=120.000;
#STOPS:;
#BGCHANGES:;

//---------------dance-single - Chewi----------------
#NOTES:
     dance-single:
     Chewi:
     Easy:
     3:
     0.172,0.191,0.012,0.035,0.000: // measure 1
0000
0000
0000
0000
,  // measure 2
0000
0000
0000
0000
,  // measure 3
0000
0000
0000
0000
,  // measure 4
0000
0000
0000
0000
,  // measure 5
1000
1000
0100
0000
,  // measure 6
0001
0001
0100
0000
,  // measure 7
1000
1000
0010
0000
,  // measure 8
0001
0001
0010
0000
,  // measure 9
0010
0100
0010
0100
,  // measure 10
1000
0001
1000
0001
,  // measure 11
0100
0010
0100
0010
,  // measure 12
0020
0000
0000
0030
,  // measure 13
0010
0000
1000
0000
,  // measure 14
0010
0100
0001
0000
,  // measure 15
0010
0000
0001
0000
,  // measure 16
0010
0100
1000
0000
,  // measure 17
0001
0000
1000
0000
,  // measure 18
0001
1000
0100
0000
,  // measure 19
1000
0000
0100
0000
,  // measure 20
0010
0001
0010
0000
,  // measure 21
0001
0001
0001
0001
,  // measure 22
0010
0010
0010
0010
,  // measure 23
0100
0100
0100
0100
,  // measure 24
1000
1000
1000
1000
,  // measure 25
0001
0010
0001
0010
,  // measure 26
0100
1000
0100
1000
,  // measure 27
0001
0100
0001
0100
,  // measure 28
0010
1000
0010
1000
,  // measure 29
0020
0000
0000
0000
,  // measure 30
0130
0001
0100
0000
,  // measure 31
0001
0100
0001
0000
,  // measure 32
0100
0001
0100
0000
,  // measure 33
2000
0000
0000
0000
,  // measure 34
3001
1000
0001
0000
,  // measure 35
1000
0001
1000
0000
,  // measure 36
0001
1000
0001
0000
,  // measure 37
1001
0000
0000
0000
;

//---------------dance-single - Chewi----------------
#NOTES:
     dance-single:
     Chewi:
     Medium:
     6:
     0.219,0.296,0.236,0.000,0.000: // measure 1
0000
0000
0000
0000
,  // measure 2
0000
0000
0000
0000
,  // measure 3
0000
0000
0000
0000
,  // measure 4
0000
0000
0000
0000
,  // measure 5
1000
1000
1000
1000
,  // measure 6
0001
0001
0001
0001
,  // measure 7
0100
0100
0100
0100
,  // measure 8
0010
0010
0010
0010
,  // measure 9
1000
0010
0001
0100
,  // measure 10
1000
0010
0001
0100
,  // measure 11
1000
0100
0001
0010
,  // measure 12
1000
0100
0001
0010
,  // measure 13
0000
0000
0110
0000
0010
0100
0010
0000
,  // measure 14
0000
0000
0000
0000
0010
0100
0001
0000
,  // measure 15
0000
0000
0000
0000
0001
1000
0001
0000
,  // measure 16
0000
0000
0000
0000
1000
0001
1000
0000
,  // measure 17
0000
0000
1001
0000
1000
0100
1000
0000
,  // measure 18
0000
0000
0000
0000
0100
0010
0001
0000
,  // measure 19
0000
0000
0000
0000
0001
1000
0100
0000
,  // measure 20
0000
0000
0000
0000
1000
0001
0100
0000
,  // measure 21
0000
0000
0110
0000
0010
0100
0010
0000
,  // measure 22
0000
0000
0000
0000
0010
1000
0001
0000
,  // measure 23
0000
0000
0000
0000
1000
0100
1000
0000
,  // measure 24
0000
0000
0000
0000
0100
0010
0001
0000
,  // measure 25
0000
0000
0011
0000
0001
0010
0001
0000
,  // measure 26
0000
0000
0000
0000
1000
0100
1000
0000
,  // measure 27
0000
0000
0000
0000
0001
1000
0001
0000
,  // measure 28
0000
0000
0000
0000
1000
0001
1000
0000
,  // measure 29
0000
1000
0100
0010
,  // measure 30
0001
1100
0101
1100
,  // measure 31
0000
0101
1100
0101
,  // measure 32
0000
0101
0011
1100
,  // measure 33
1010
1000
0001
0010
,  // measure 34
0100
1000
1100
1010
,  // measure 35
0000
1100
0011
0101
,  // measure 36
0000
0000
1001
0010
;

//---------------dance-single - Chewi----------------
#NOTES:
     dance-single:
     Chewi:
     Hard:
     9:
     0.317,0.360,0.130,0.024,0.083: // measure 1
0000
0000
0000
0000
,  // measure 2
0000
0000
0000
0000
,  // measure 3
0000
0000
0000
0000
,  // measure 4
0000
0000
0000
0000
,  // measure 5
1000
0100
0010
0000
0100
0010
0001
0000
,  // measure 6
0010
0100
1000
0000
0100
1000
0001
0000
,  // measure 7
1000
0001
0100
0000
0001
1000
0010
0000
,  // measure 8
1000
0010
0100
0000
0010
0100
0001
0000
,  // measure 9
0100
0010
1000
0000
0010
1000
0001
0000
,  // measure 10
1000
0100
0010
0000
0100
0010
0001
0000
,  // measure 11
0010
0100
1000
0000
0100
1000
0001
0000
,  // measure 12
1000
1000
1000
1000
0001
0001
0001
0001
,  // measure 13
0000
0000
0000
0000
1000
0000
0000
0000
0001
1000
0000
0100
0000
0010
0000
0000
,  // measure 14
0000
0000
0000
0000
0000
0000
0001
0000
0010
0100
0000
1000
0000
0000
0010
0000
,  // measure 15
0000
0000
0000
1000
0010
0100
0010
1000
,  // measure 16
0000
0000
0000
0001
0100
0010
0100
0001
,  // measure 17
0000
0000
0000
0000
1000
0000
0000
0000
0001
0000
1000
0001
0000
0010
0000
0000
,  // measure 18
0000
0000
0000
0000
0100
1000
0020
0000
,  // measure 19
0000
1030
0000
0010
0100
0001
1000
0010
,  // measure 20
0000
0000
0000
1000
0001
0100
0001
1000
,  // measure 21
0000
0000
0000
0000
0001
0000
0000
0000
1000
0001
0000
0010
0000
0100
0000
0000
,  // measure 22
0000
0000
0000
0000
0000
0000
1000
0000
0010
1000
0000
0100
0000
0000
0010
0000
,  // measure 23
0000
0000
0000
0001
0010
0100
1000
0001
,  // measure 24
0000
0000
0000
1000
0100
0010
0001
1000
,  // measure 25
0000
0000
0000
0000
0001
0000
0000
0000
1000
0000
0001
1000
0000
0010
1000
0000
,  // measure 26
0000
0000
0000
0000
0010
0100
0002
0000
,  // measure 27
0000
0103
0000
0010
1000
0001
1000
0100
,  // measure 28
0000
0000
0000
1000
0001
0010
0001
1000
,  // measure 29
0000
0000
0001
0010
0100
1000
0001
0010
,  // measure 30
0100
1000
0001
0100
0101
0000
1100
0000
,  // measure 31
0000
1000
0100
0010
0011
0000
1010
0000
,  // measure 32
0000
0010
0100
0001
1001
0000
0101
0000
,  // measure 33
1001
0000
1000
0010
0100
0001
1000
0010
,  // measure 34
0100
0001
1000
0100
1100
0000
0011
0000
,  // measure 35
1000
0100
0010
0001
0101
0000
1010
0000
,  // measure 36
0000
0000
0000
1000
0001
0100
0010
0010
;

//---------------dance-single - Chewi----------------
#NOTES:
     dance-single:
     Chewi:
     Beginner:
     1:
     0.083,0.106,0.000,0.035,0.000: // measure 1
0000
0000
0000
0000
,  // measure 2
0000
0000
0000
0000
,  // measure 3
0000
0000
0000
0000
,  // measure 4
0000
0000
0000
0000
,  // measure 5
1000
0000
0000
0000
,  // measure 6
0001
0000
0000
0000
,  // measure 7
1000
0000
0000
0000
,  // measure 8
0001
0000
0000
0000
,  // measure 9
0010
0000
0010
0000
,  // measure 10
1000
0000
1000
0000
,  // measure 11
0100
0000
0100
0000
,  // measure 12
0200
0000
0000
0300
,  // measure 13
0100
0000
0000
0000
,  // measure 14
0010
0000
0000
0000
,  // measure 15
0010
0000
0000
0000
,  // measure 16
0010
0000
0000
0000
,  // measure 17
0001
0000
0000
0000
,  // measure 18
0001
0000
0000
0000
,  // measure 19
1000
0000
0000
0000
,  // measure 20
0010
0000
0000
0000
,  // measure 21
0001
0000
0001
0000
,  // measure 22
0010
0000
0010
0000
,  // measure 23
0100
0000
0100
0000
,  // measure 24
1000
0000
1000
0000
,  // measure 25
0001
0000
0001
0000
,  // measure 26
0100
0000
0100
0000
,  // measure 27
0001
0000
0001
0000
,  // measure 28
0010
0000
0010
0000
,  // measure 29
0020
0000
0000
0000
,  // measure 30
0030
0000
0000
0000
,  // measure 31
1000
0000
1000
0000
,  // measure 32
0001
0000
0001
0000
,  // measure 33
2000
0000
0000
0000
,  // measure 34
3000
0000
0000
0000
,  // measure 35
0010
0000
0010
0000
,  // measure 36
0100
0000
0100
0000
,  // measure 37
0100
0000
0000
0000
;
