#TITLE:California Gurls;
#SUBTITLE:;
#ARTIST:Katy Perry feat. Snoop Dogg;
#TITLETRANSLIT:;
#SUBTITLETRANSLIT:;
#ARTISTTRANSLIT:;
#GENRE:;
#CREDIT:Chewi☆;
#MENUCOLOR:;
#METERTYPE:DDR X;
#BANNER:California Gurls.png;
#BACKGROUND:California Gurls-bg.png;
#LYRICSPATH:;
#CDTITLE:;
#MUSIC:California Gurls.mp3;
#OFFSET:-0.096;
#SAMPLESTART:53.843;
#SAMPLELENGTH:15.000;
#SELECTABLE:YES;
#LISTSORT:;
#DISPLAYBPM:125.000;
#BPMS:0.000=125.000;
#STOPS:;
#BGCHANGES:;
#ATTACKS:;

//---------------dance-single - Chewi----------------
#NOTES:
     dance-single:
     Chewi:
     Hard:
     9:
     0.306,0.388,0.216,0.167,0.000:
0000
0000
0000
0000
,
0000
0000
0000
0000
,
0000
0000
0000
0000
,
0000
0000
0000
0000
,
1001
0000
0000
0000
0000
1000
0001
1000
,
0000
0000
0000
0001
,
0100
0010
1010
1001
,
0000
0000
0000
0000
,
0110
0000
0000
0000
0000
0100
0010
0100
,
0000
0000
0000
0100
,
0010
0001
0011
1100
,
1000
0100
0001
0010
,
1000
0000
0100
0000
0010
0100
1000
0000
,
0010
0101
0100
0001
,
0010
0000
0100
0000
1000
0001
0100
0000
,
0010
0101
1000
0100
,
0010
0000
0100
0000
1000
0001
0100
0000
,
0010
0101
0010
0100
,
1000
0000
0001
0000
1000
1000
1000
0000
,
1100
0011
0101
1010
,
1002
0100
0000
0100
,
2003
0010
0001
0100
,
3020
1000
0000
1000
,
2030
0100
0010
0001
,
3002
0010
0000
0010
,
0203
0010
0001
0010
,
0320
1000
0000
1000
,
1030
1100
0001
0101
,
0100
0010
1000
0001
,
1000
0100
0010
0000
0001
0010
0100
0000
,
1000
0100
1001
0000
,
0001
0100
0010
1000
0010
0000
0000
0000
,
1000
0010
0100
0001
,
0010
0100
1000
0000
0010
0100
0001
0000
,
1000
1100
1000
0000
,
0001
0000
0011
0000
0001
1000
0001
0000
,
0010
0100
0001
1000
,
0001
0010
0100
0000
1000
0100
0010
0000
,
0001
0010
1001
0000
,
1000
0010
0100
0001
0100
0000
0000
0000
,
0001
0100
0010
1000
,
0100
0010
0001
0000
0100
0010
1000
0000
,
0001
0011
0001
0000
,
1000
0000
1100
0000
1000
0001
1000
0000
,
2000
0000
0000
0002
0000
0000
0000
0000
,
3003
0000
0100
0010
,
2000
0000
0000
0010
0000
0000
0000
0002
,
0000
3003
1000
0100
,
0020
0000
0000
0002
0000
0000
0000
0000
,
0033
0000
0001
0100
,
0020
0000
0000
1000
0000
0000
0000
0200
,
0000
0000
0330
0000
0100
0000
0010
1000
,
0002
0000
0000
2000
0000
0000
3003
0000
;

//---------------dance-single - Chewi----------------
#NOTES:
     dance-single:
     Chewi:
     Medium:
     6:
     0.238,0.231,0.108,0.020,0.000:
0000
0000
0000
0000
,
0000
0000
0000
0000
,
0000
0000
0000
0000
,
0000
0000
0000
0000
,
1000
0000
0000
0000
0000
1000
0000
1100
,
0000
0000
0000
0100
,
0010
0001
0100
0110
,
0000
0000
0000
0000
,
0010
0000
0000
0000
0000
0010
0000
0110
,
0000
0000
0000
0100
,
0010
1000
0001
1000
,
1100
0000
0011
0000
,
0001
1000
0100
0100
,
1000
0001
0010
0000
,
0001
1000
0010
0010
,
1000
0001
0100
0000
,
0001
0100
0010
0001
,
0100
1000
0010
0000
,
0010
1000
0100
0001
,
0010
0100
0001
0000
,
1002
1000
0000
1000
,
0000
0100
0000
0100
,
0000
0010
0000
0010
,
0000
1000
0000
1003
,
2001
0001
0000
0001
,
0000
0100
0000
0100
,
0000
0010
0000
3010
,
0010
0000
0100
0000
0010
0100
0010
0000
,
1000
0100
0010
0001
,
0010
0100
1000
0010
,
0100
0100
0100
0000
,
0010
0100
0010
0000
0110
0000
0000
0000
,
0100
0010
1000
0001
,
0010
0100
1000
0010
,
0000
0000
0010
0000
0010
0010
0000
0000
,
0100
0000
0100
0000
0100
0100
0000
0000
,
0010
1000
0001
0100
,
0001
1000
0010
0001
,
1000
1000
1000
0000
,
0001
1000
0001
0000
1001
0000
0000
0000
,
1000
0001
0010
0100
,
0001
1000
0010
0001
,
0000
0000
0001
0000
0001
0001
0000
0000
,
1000
0000
1000
0000
1000
1000
0000
0000
,
0010
1000
0100
0001
,
0010
0010
0010
0000
,
0010
0001
0100
1000
,
0010
0010
0010
0000
,
0010
0100
0001
1000
,
0100
0010
0001
0000
,
0001
0010
0100
1000
,
0010
0100
0010
0000
,
1010
0000
0000
0101
0000
0000
0000
0000
;

//---------------dance-single - Chewi----------------
#NOTES:
     dance-single:
     Chewi:
     Beginner:
     1:
     0.070,0.102,0.029,0.000,0.000:
0000
0000
0000
0000
,
0000
0000
0000
0000
,
0000
0000
0000
0000
,
0000
0000
0000
0000
,
1000
0000
0000
0000
,
1000
0000
0000
0000
,
0001
0000
0000
0000
,
1000
0000
0000
0000
,
1000
0000
0000
0000
,
0010
0000
0000
0000
,
0100
0000
0000
0000
,
0100
0000
0000
0000
,
0110
0000
0000
0000
,
0010
0000
0000
0000
,
0010
0000
0000
0000
,
0100
0000
0000
0000
,
0110
0000
0000
0000
,
1000
0000
0000
0000
,
0100
0000
0000
0000
,
0110
0000
0000
0000
,
0100
0000
0000
0000
,
0010
0000
0000
0000
,
0001
0000
0000
0000
,
1000
0000
1000
0000
,
0010
0000
0000
0000
,
0100
0000
0000
0000
,
0001
0000
0000
0000
,
0001
0000
0001
0000
,
0001
0000
0000
0000
,
1000
0000
0000
0000
,
0001
0000
0000
0000
,
1000
0000
0000
0000
,
0010
0000
0000
0000
,
0100
0000
0000
0000
,
0010
0000
0000
0000
,
1000
0000
0000
0000
,
1000
0000
0000
0000
,
0001
0000
0000
0000
,
1000
0000
0000
0000
,
0001
0000
0000
0000
,
0100
0000
0000
0000
,
0010
0000
0000
0000
,
0100
0000
0000
0000
,
0001
0000
0000
0000
,
0010
0000
0000
0000
,
0000
0000
0000
0000
,
0010
0000
0000
0000
,
0000
0000
0000
0000
,
0010
0000
0000
0000
,
0000
0000
0000
0000
,
0001
0000
0000
0000
,
0000
0000
0000
0000
,
0100
0000
0000
0000
;

//---------------dance-single - Chewi----------------
#NOTES:
     dance-single:
     Chewi:
     Easy:
     4:
     0.191,0.230,0.039,0.137,0.000:
0000
0000
0000
0000
,
0000
0000
0000
0000
,
0000
0000
0000
0000
,
0000
0000
0000
0000
,
1000
0000
0000
1000
,
1000
0000
0000
0001
,
0001
0100
1000
0100
,
0000
0000
0000
0000
,
1000
0000
0000
0010
,
0010
0000
0000
0100
,
0100
0001
0010
1000
,
0100
0000
0100
0000
,
0110
0000
0000
0010
,
0010
0000
0000
0001
,
0010
0001
0100
0010
,
0000
0100
0000
0000
,
0110
0000
0000
0010
,
1000
0000
0000
1000
,
0100
0010
0001
0010
,
0110
0000
0110
0000
,
0200
0000
0000
0300
,
0020
0000
0000
0030
,
0002
0000
0000
0003
,
1000
1000
1000
0000
,
0020
0000
0000
0030
,
0200
0000
0000
0300
,
0002
0000
0000
0003
,
0001
0001
0001
0000
,
0001
0010
1000
0000
,
1000
0100
0001
0000
,
0001
1000
0001
0000
,
1000
0001
1000
0000
,
0010
0010
0010
0000
,
0100
0100
0100
0000
,
0010
0001
0100
1000
,
1000
0100
0001
0010
,
1000
0100
0001
0000
,
0001
0010
1000
0000
,
1000
0001
1000
0000
,
0001
1000
0001
0000
,
0100
0100
0100
0000
,
0010
0010
0010
0000
,
0100
1000
0010
0001
,
0001
0010
1000
0100
,
0020
0000
0002
0000
,
0033
0000
0001
0100
,
0020
0000
2000
0000
,
3030
0000
1000
0001
,
0020
0000
0200
0000
,
0330
0000
0100
0010
,
0002
0000
0200
0000
,
0303
0000
0100
0100
,
0100
0000
0000
0000
;
