#TITLE:Cagayake!GIRLS;
#SUBTITLE:;
#ARTIST:K-ON!;
#TITLETRANSLIT:;
#SUBTITLETRANSLIT:;
#ARTISTTRANSLIT:;
#GENRE:;
#CREDIT:Chewphoria~;
#MENUCOLOR:;
#METERTYPE:DDR;
#BANNER:Cagayake!GIRLS.png;
#BACKGROUND:;
#LYRICSPATH:;
#CDTITLE:;
#MUSIC:Cagayake!GIRLS.mp3;
#OFFSET:-8.303;
#SAMPLESTART:59.984;
#SAMPLELENGTH:15.000;
#SELECTABLE:YES;
#LISTSORT:;
#DISPLAYBPM:170.000;
#BPMS:0.000=170.040;
#STOPS:;
#BGCHANGES:-23.606=Cagayake!GIRLS.avi=1.000=1=1=0,
229.000=Cagayake!GIRLS-bg.png=1.000=1=0=1,
99999=-nosongbg-=1.000=0=0=0 // don't automatically add -songbackground-
;
#ATTACKS:;

//---------------dance-single - ----------------
#NOTES:
     dance-single:
     :
     Easy:
     3:
     0.269,0.313,0.145,0.123,0.000: // measure 1
1000
0010
1000
0010
,  // measure 2
1000
0010
1000
1000
,  // measure 3
0001
0010
0001
0010
,  // measure 4
0001
0010
0001
0001
,  // measure 5
1000
0100
1000
0100
,  // measure 6
1000
0100
1000
1000
,  // measure 7
0001
0100
0001
0100
,  // measure 8
0001
0100
0001
0001
,  // measure 9
2000
0000
0000
3000
,  // measure 10
0002
0000
0000
0003
,  // measure 11
0200
0000
0000
0300
,  // measure 12
0020
0000
0000
0030
,  // measure 13
0010
0010
0010
0000
,  // measure 14
0100
0100
0100
0000
,  // measure 15
1000
1000
1000
0000
,  // measure 16
0001
0001
0001
0000
,  // measure 17
0002
0000
1003
0000
,  // measure 18
2000
0000
3001
0000
,  // measure 19
1001
0000
0100
0000
,  // measure 20
0100
0100
0100
0000
,  // measure 21
0110
0000
0100
0000
,  // measure 22
0100
0100
0100
0000
,  // measure 23
0010
0000
0010
0000
,  // measure 24
0010
0010
0010
0000
,  // measure 25
1001
0000
0001
0000
,  // measure 26
0001
0001
0001
0000
,  // measure 27
0010
0000
0100
0000
,  // measure 28
0100
0100
0100
0000
,  // measure 29
2000
0000
0000
0000
,  // measure 30
3000
0000
0001
0000
,  // measure 31
0002
0000
0000
0000
,  // measure 32
0003
0000
1000
0000
,  // measure 33
2000
0000
0000
0000
,  // measure 34
3000
0000
0001
0000
,  // measure 35
0100
0010
0100
0010
,  // measure 36
1000
0010
1000
0010
,  // measure 37
1001
0000
0000
0000
,  // measure 38
0110
0000
0010
0000
,  // measure 39
1001
0000
1000
0000
,  // measure 40
0110
0000
0100
0000
,  // measure 41
1001
0000
0001
0000
,  // measure 42
0110
0000
0010
0000
,  // measure 43
1001
0000
1000
0000
,  // measure 44
0110
0000
0100
0000
,  // measure 45
1001
0000
0001
0000
,  // measure 46
1000
0010
1000
0010
,  // measure 47
1000
0010
1000
1000
,  // measure 48
0001
0010
0001
0010
,  // measure 49
0001
0010
0001
0001
,  // measure 50
1000
0100
1000
0100
,  // measure 51
1000
0100
1000
1000
,  // measure 52
0001
0100
0001
0100
,  // measure 53
0001
0001
1000
1000
,  // measure 54
2002
0000
0000
0000
,  // measure 55
0000
0000
0000
3003
,  // measure 56
1000
1000
0000
0000
,  // measure 57
0001
0001
0000
0000
;

//---------------dance-single - ----------------
#NOTES:
     dance-single:
     :
     Medium:
     5:
     0.473,0.439,0.479,0.067,0.000: // measure 1
1000
0000
0100
0000
0010
0000
0001
1000
,  // measure 2
0000
1000
0001
0000
1100
0000
0101
0000
,  // measure 3
1000
0010
0100
0001
,  // measure 4
0001
0010
0100
1000
,  // measure 5
0001
1000
0001
0000
1000
0000
1010
0000
,  // measure 6
0100
0001
0100
0000
0101
0000
1100
0000
,  // measure 7
1000
0001
1000
0000
0010
0000
0100
0000
,  // measure 8
0002
1003
2000
3001
,  // measure 9
0010
0000
0100
0010
0100
0000
1100
0000
,  // measure 10
0100
0101
0010
0110
,  // measure 11
0010
0000
0100
0010
0100
0000
0010
0000
,  // measure 12
1010
0100
0100
1001
,  // measure 13
1000
0100
1000
0000
0101
0000
1100
0000
,  // measure 14
1000
0010
0001
0010
0000
0000
0000
0000
,  // measure 15
0001
0010
0001
0000
0100
0000
1100
0000
,  // measure 16
1000
0100
1000
1000
0000
0000
0000
0000
,  // measure 17
0000
0000
1000
0000
0001
1000
0000
0000
,  // measure 18
0010
0000
0100
0000
0010
0100
0000
0000
,  // measure 19
0100
0000
0001
0000
0100
0001
0000
0000
,  // measure 20
1000
0000
0001
0000
1000
0001
0000
0000
,  // measure 21
0000
0000
0011
0000
0101
0000
1000
1000
,  // measure 22
0000
0001
1000
0001
0000
0000
0000
0000
,  // measure 23
0000
1000
1010
0001
,  // measure 24
1000
1000
0000
0001
0100
0000
0000
0000
,  // measure 25
0010
1000
0010
0000
0100
0000
0101
0000
,  // measure 26
0001
0010
0001
0000
0100
0000
1100
0000
,  // measure 27
1000
0001
1000
0000
0010
0000
0110
0000
,  // measure 28
0100
0010
0100
0000
0001
0000
0101
0000
,  // measure 29
1000
0000
0001
0000
1000
0000
0010
0100
,  // measure 30
0000
0010
0100
0000
0101
0000
1100
0000
,  // measure 31
0001
0000
0010
0000
0100
0000
1000
0100
,  // measure 32
0000
0100
1000
0000
1010
0000
0101
0000
,  // measure 33
1000
1001
0001
1001
,  // measure 34
1000
1010
0001
0011
,  // measure 35
1000
0000
1100
0000
0001
0000
0101
1000
,  // measure 36
0000
1000
0000
0001
0000
0001
1000
0001
,  // measure 37
2000
0000
0000
3000
,  // measure 38
0010
0100
0010
0000
0100
0000
0110
0000
,  // measure 39
0100
0010
0100
0010
0000
0000
0100
0000
,  // measure 40
0001
1000
0001
0000
1000
0000
1100
0000
,  // measure 41
1000
0001
1000
0000
0001
0000
0101
0000
,  // measure 42
1000
1010
0001
0011
,  // measure 43
1000
0000
1100
0000
0001
0001
0001
0000
,  // measure 44
1000
0000
0010
0000
0001
0000
0100
1000
,  // measure 45
0000
0000
0000
1000
0100
0000
1001
0000
,  // measure 46
1000
0010
1000
0000
0001
0000
0101
0000
,  // measure 47
1000
0001
1000
0000
0001
0000
0011
0000
,  // measure 48
1000
0100
1000
0000
0001
0100
0001
0000
,  // measure 49
1000
0010
0001
0100
,  // measure 50
1000
0100
1000
0000
0010
1000
0010
0000
,  // measure 51
0010
0001
0010
0000
0001
0100
0001
0000
,  // measure 52
1000
0100
1000
0000
0001
0100
0001
0200
,  // measure 53
0000
0000
0000
0320
0000
0000
0000
2030
,  // measure 54
0000
0000
0001
3000
1000
0100
1000
0000
,  // measure 55
0001
1001
1000
1010
,  // measure 56
1000
1001
0000
0000
,  // measure 57
1001
0001
0000
0000
;

//---------------dance-single - ----------------
#NOTES:
     dance-single:
     :
     Hard:
     7:
     0.546,0.537,0.279,0.123,0.000:
0001
0100
0001
0100
0010
1000
0010
1000
,
0001
1000
0001
1000
0100
0010
0100
0010
,
0001
1000
0001
1000
0010
0100
0010
0100
,
0001
1000
0001
1000
0100
1000
0100
0000
,
0010
0001
0010
0001
0100
1000
0100
1000
,
0010
0100
0010
0100
0001
0100
0001
0000
,
0100
0010
1000
0100
0010
0001
0100
2020
,
0000
0000
0030
0002
0000
0000
3000
0200
,
0000
0000
0000
0000
,
0000
0000
0000
0303
,
0010
0000
0011
0000
0100
0000
0010
1000
,
0000
0100
0000
1000
0100
0000
1001
0000
,
0000
1000
0010
0100
,
0001
0100
1000
0200
0000
0000
0300
0000
,
0000
0001
0010
0100
,
1000
0010
0001
0020
0000
0000
0030
0000
,
1000
1010
0100
0101
,
1000
0001
1000
0000
0001
1000
0001
0000
,
0010
0011
0100
1100
,
1000
0001
1000
0000
0001
1000
0001
0000
,
0000
0001
0100
0010
,
1000
0010
0001
0020
0000
0000
0030
0000
,
0000
0001
0010
0100
,
1000
0100
0001
0200
0000
0000
0300
0000
,
0010
1010
0100
0101
,
0001
1001
0010
0110
,
1000
1100
0001
0011
,
1000
0010
0100
0001
,
1000
0000
1100
0000
0010
0000
0001
0010
,
0000
0110
0000
1001
0000
0000
0000
0000
,
0000
0000
0001
0000
0100
0000
0010
1000
,
0000
0101
0000
1001
0000
0000
0000
0000
,
1000
0000
0100
0000
0010
0000
0001
0010
,
0100
1000
1010
0000
,
1000
0000
0010
0000
0100
0000
0001
0100
,
0010
1000
1001
0010
,
0220
0000
0000
0330
,
0001
0010
0001
0010
0100
1000
0100
1000
,
0001
1000
0001
1000
0010
0100
0010
0100
,
0001
1000
0001
1000
0100
0010
0100
0010
,
0001
0010
0001
0010
0100
1000
0100
1000
,
0001
1000
0001
1000
0010
0100
0010
0100
,
0001
0100
0001
0100
0010
0100
0010
0100
,
0010
1000
0010
1000
0001
1000
0100
1000
,
0001
1000
0010
0100
0001
0010
0100
0000
,
1000
0100
1000
0100
0010
0100
0010
0100
,
0010
0001
0010
0001
0100
0001
0100
0001
,
0100
0010
0100
0010
1000
0010
1000
0010
,
1000
0001
1000
0001
1000
0100
1000
0100
,
1000
0100
0010
0001
1000
0100
0010
0001
,
1000
0010
0100
0001
1000
0010
0100
0001
,
1000
0100
1000
0100
0001
0100
0001
0000
,
1001
0110
1001
0110
,
1000
0100
1000
0000
0001
0001
1000
0000
,
0010
0100
0001
0100
0010
1000
0001
0000
,
1000
0001
1000
0000
0001
0001
1000
0000
,
1000
0010
0100
0001
0200
0000
0310
0000
;
