#TITLE:CUTIE CHASER (都心 electro mix);
#SUBTITLE:;
#ARTIST:東京新幹線;
#TITLETRANSLIT:CUTIE CHASER (toshin electro mix);
#SUBTITLETRANSLIT:;
#ARTISTTRANSLIT:Tokyo Shinkansen;
#CREDIT:Chewi☆;
#BANNER:CUTIE CHASER (toshin electro mix).png;
#BACKGROUND:CUTIE CHASER (toshin electro mix)-bg.png;
#LYRICSPATH:;
#CDTITLE:;
#MUSIC:CUTIE CHASER (toshin electro mix).mp3;
#OFFSET:-0.525;
#SAMPLESTART:36.889;
#SAMPLELENGTH:15.000;
#SELECTABLE:YES;
#BPMS:0.000=132.000;
#STOPS:;
#BGCHANGES:;

//---------------dance-single - Chewi----------------
#NOTES:
     dance-single:
     Chewi:
     Easy:
     4:
     0.185,0.194,0.014,0.324,0.000:
0000
0000
0000
0000
,
0000
0000
0000
0000
,
0000
0000
0000
0000
,
0000
0000
0000
0000
,
2000
0000
0000
3100
,
0002
0000
0000
0103
,
2000
0000
0000
3010
,
0002
0000
0000
0013
,
0020
0000
0000
0130
,
0200
0000
0000
0310
,
0002
0000
0000
1003
,
2000
0000
0000
3001
,
0001
0001
0100
0000
,
1000
0000
1000
0000
,
1000
1000
0100
0000
,
0010
0000
0010
0000
,
0001
0010
0001
0000
,
1000
0100
1000
0000
,
0001
0100
0001
0000
,
1000
0010
1000
0000
,
2000
0000
0000
3001
,
0002
0000
0000
1003
,
2000
0000
0000
3100
,
0200
0000
0000
0310
,
0020
0000
0000
0031
,
0002
0000
0000
1003
,
2000
0000
0000
3010
,
0020
0000
0000
0130
,
0200
0000
0000
0301
,
0002
0000
0000
1003
,
2000
0000
0000
3001
,
0002
0000
0000
0013
,
0020
0000
0000
0130
,
0200
0000
0000
1300
,
2000
0000
0000
3001
,
0002
0000
0000
1003
,
1001
0000
0000
0000
;

//---------------dance-single - Chewi----------------
#NOTES:
     dance-single:
     Chewi:
     Hard:
     9:
     0.372,0.413,0.635,0.000,0.000: // measure 1
0000
0000
0000
0000
,  // measure 2
0000
0000
0000
0000
,  // measure 3
0000
0000
0000
0000
,  // measure 4
0000
0000
0000
0000
,  // measure 5
1000
0000
0100
0000
0010
0001
0100
0000
,  // measure 6
0001
0000
0100
0000
0010
1000
0100
0000
,  // measure 7
1000
0000
0001
0000
1000
0001
0010
0000
,  // measure 8
0001
0000
1000
0000
0001
1000
0100
0000
,  // measure 9
1000
0000
0010
0000
0100
0001
0010
0000
,  // measure 10
0001
0000
0010
0000
0100
1000
0010
0000
,  // measure 11
1000
0000
0010
0000
1000
0001
0100
0000
,  // measure 12
0001
0000
0010
0000
0001
1000
0100
0000
,  // measure 13
0010
0100
1000
0000
0010
0000
0101
0000
,  // measure 14
0010
0001
0100
0000
0010
0000
0101
0000
,  // measure 15
1000
0100
0001
0000
0010
0000
1000
0000
,  // measure 16
0100
0001
0010
0000
1000
0000
0100
0000
,  // measure 17
0001
0010
0100
0000
0001
0000
0011
0000
,  // measure 18
0010
0100
1000
0000
0010
0000
1010
0000
,  // measure 19
1000
0100
0010
0000
0100
0000
1100
0000
,  // measure 20
1000
0001
1000
0000
0001
1000
0001
0000
,  // measure 21
0000
1000
0000
0100
0000
0010
0000
0001
,  // measure 22
0000
1100
0000
0011
0000
1100
0000
0011
,  // measure 23
0000
0001
0000
1000
0000
0001
0000
1000
,  // measure 24
0000
0101
0000
1010
0000
0101
0000
1010
,  // measure 25
0000
0010
0000
0100
0000
0001
0000
1000
,  // measure 26
0000
1001
0000
1100
0000
1001
0000
0101
,  // measure 27
0000
0100
0000
0010
0000
1000
0000
0001
,  // measure 28
0000
1001
0000
1001
0000
0011
0000
0011
,  // measure 29
0000
0010
0000
0100
0000
1000
0000
1100
,  // measure 30
0000
1100
0000
0101
0000
1100
0000
0101
,  // measure 31
0000
1000
0000
0010
0000
0101
0000
0011
,  // measure 32
0000
1001
0000
1001
0000
0110
0000
0110
,  // measure 33
0000
1000
0000
1010
0000
1001
0000
1100
,  // measure 34
0000
1001
0000
0011
0000
1001
0000
0101
,  // measure 35
0000
1010
0000
0101
0000
0011
0000
1100
,  // measure 36
0000
1001
0000
0011
0000
1100
0000
1001
,  // measure 37
1000
0000
0000
0000
;

//---------------dance-single - Chewi----------------
#NOTES:
     dance-single:
     Chewi:
     Medium:
     7:
     0.243,0.243,0.014,0.000,0.000:
0000
0000
0000
0000
,
0000
0000
0000
0000
,
0000
0000
0000
0000
,
0000
0000
0000
0000
,
1000
0100
0010
0000
,
0001
0010
0100
0000
,
1000
0001
1000
0001
,
0100
0010
0100
0010
,
1000
0010
0100
0000
,
0001
0100
0010
0000
,
1000
0010
1000
0010
,
1000
0100
0010
0001
,
0010
0100
0010
0001
,
0010
0100
0010
0001
,
0100
0010
0100
0001
,
0100
0010
0100
0001
,
0100
0010
1000
0001
,
0010
0100
1000
0001
,
0010
0100
0010
0001
,
0010
0100
1000
0010
,
0000
1000
0000
1000
0000
0001
0000
0001
,
0000
1000
0000
0100
0000
0010
0000
0001
,
0000
1000
0000
1000
0000
0001
0000
0001
,
0000
1000
0000
0010
0000
0100
0000
0001
,
0000
0100
0000
0100
0000
0010
0000
0010
,
0000
1000
0000
0001
0000
1000
0000
0100
,
0000
0010
0000
0010
0000
0001
0000
0001
,
0000
0010
0000
0001
0000
0010
0000
0001
,
0000
0010
0000
0100
0000
1000
0000
0001
,
0000
0010
0000
0100
0000
1000
0000
0001
,
0000
1000
0000
0001
0000
0100
0000
0010
,
0000
1000
0000
0001
0000
0010
0000
0100
,
0000
1000
0000
0010
0000
1000
0000
0001
,
0000
0001
0000
0010
0000
0001
0000
1000
,
0000
1000
0000
0001
0000
0100
0000
0010
,
0000
0100
0000
0100
0000
0010
0000
0010
,
0110
0000
0000
0000
;

//---------------dance-single - Chewi----------------
#NOTES:
     dance-single:
     Chewi:
     Beginner:
     1:
     0.089,0.122,0.014,0.162,0.000:
0000
0000
0000
0000
,
0000
0000
0000
0000
,
0000
0000
0000
0000
,
0000
0000
0000
0000
,
2000
0000
0000
3000
,
1000
0000
0000
0000
,
0002
0000
0000
0003
,
0001
0000
0000
0000
,
0020
0000
0000
0030
,
0010
0000
0000
0000
,
0200
0000
0000
0300
,
0100
0000
0000
0000
,
0001
0000
0000
0000
,
1000
0000
0000
0000
,
1000
0000
0000
0000
,
0010
0000
0000
0000
,
0001
0000
0000
0000
,
1000
0000
0000
0000
,
0001
0000
0000
0000
,
1000
0000
0000
0000
,
2000
0000
0000
3000
,
1000
0000
0000
0000
,
0002
0000
0000
0003
,
0001
0000
0000
0000
,
0020
0000
0000
0030
,
0010
0000
0000
0000
,
0200
0000
0000
0300
,
0100
0000
0000
0000
,
0020
0000
0000
0030
,
0010
0000
0000
0000
,
0002
0000
0000
0003
,
0001
0000
0000
0000
,
2000
0000
0000
3000
,
1000
0000
0000
0000
,
0002
0000
0000
0003
,
0001
0000
0000
0000
,
1001
0000
0000
0000
;
