#TITLE:CRAZY♥LOVE;
#SUBTITLE:;
#ARTIST:jun;
#TITLETRANSLIT:CRAZY LOVE;
#SUBTITLETRANSLIT:;
#ARTISTTRANSLIT:;
#GENRE:;
#CREDIT:Chewi☆;
#MENUCOLOR:#00FFFF;
#METERTYPE:DDR X;
#BANNER:CRAZY LOVE.png;
#BACKGROUND:CRAZY LOVE-bg.png;
#LYRICSPATH:;
#CDTITLE:;
#MUSIC:CRAZY LOVE.mp3;
#OFFSET:-1.394;
#SAMPLESTART:39.370;
#SAMPLELENGTH:15.000;
#SELECTABLE:YES;
#LISTSORT:;
#DISPLAYBPM:88.000:177.000;
#BPMS:0.000=177.000,240.000=88.500,256.000=177.000;
#STOPS:;
#BGCHANGES:;
#ATTACKS:;

//---------------dance-single - Chewi----------------
#NOTES:
     dance-single:
     Chewi:
     Hard:
     13:
     0.701,0.972,0.089,0.063,0.112:
0000
0000
0000
0000
,
0000
0000
0000
0000
,
0000
0000
0000
0000
,
0000
0000
0000
0000
,
1000
0100
0010
0001
0000
1000
0100
0010
,
0001
1000
0010
0100
0000
0001
0100
0010
,
1000
0001
0010
0100
0000
1000
0100
0010
,
0001
0001
1000
1000
0001
0000
1001
0000
,
0001
0010
0100
1000
0001
0010
0100
0000
,
1000
0100
0010
0001
1000
0100
0010
0000
,
0001
1000
0010
0100
0001
1000
0100
0010
,
0001
0001
0010
0010
0001
0001
0010
0100
,
1000
0000
0100
0001
0000
0100
1000
0010
,
0100
0000
0001
0100
0000
0010
1000
0001
,
0010
0000
0100
0100
0000
0010
0001
0010
,
0100
1000
0010
0001
0010
0100
1000
0001
,
0010
0100
1000
0010
0000
0100
0100
0010
,
1000
0001
0010
0100
0000
1000
0100
0010
,
0001
0100
0010
0000
0100
0001
0010
0000
,
0100
0010
0100
0010
0001
1000
0001
1000
,
0010
0100
0001
0010
0100
0010
1000
0000
,
0001
0010
0100
0010
0100
1000
0010
0000
,
0100
0010
0100
0010
1000
0001
1000
0001
,
0010
0100
1000
0001
0010
0100
1000
0001
,
1000
0001
1000
0001
0010
0100
0010
0100
,
0010
0001
0100
1000
0010
1000
0100
0001
,
0010
0100
0010
0100
1000
0001
1000
0001
,
1000
0010
0100
0001
0100
0010
1010
0000
,
0001
0010
0100
1000
0001
0010
0100
1000
,
0001
0100
0010
1000
0001
0100
0010
1000
,
0001
1000
0100
0010
0001
1000
0010
0100
,
0001
0100
0001
0100
0010
1000
0010
1000
,
0001
0010
0100
1000
0001
0010
0100
1000
,
0001
0100
0010
1000
0001
0100
0010
1000
,
0001
0010
0100
1000
0001
0010
0100
1000
,
0001
1000
0010
0100
0001
0000
0101
0000
,
1000
0010
0100
0001
1000
0010
0100
0001
,
1000
0100
0010
0001
1000
0100
0010
0001
,
1000
0100
1000
0100
0010
0001
0010
0001
,
0001
0100
0001
0100
0010
1000
0010
1000
,
0010
0100
0010
0100
0001
1000
0001
1000
,
0100
0010
0100
0010
0001
0010
0001
0010
,
0001
0010
0100
1000
0001
0010
0100
1000
,
0001
0001
1000
1000
0010
0000
0110
0000
,
0010
1000
0100
2000
0000
3010
0100
0001
,
0010
0100
1000
0020
0000
1030
0100
0010
,
0001
0010
0100
2000
0000
3001
1000
0010
,
0100
0100
0010
0010
1010
0000
0101
0000
,
0001
0010
0100
2000
0000
3100
0010
0001
,
0100
0010
0100
0002
0000
0013
0100
1000
,
0010
0100
0010
0200
0000
0310
1000
0001
,
0010
0010
0100
0100
0010
0001
0100
0010
,
1000
0001
0010
0100
0000
0010
0001
0100
,
1000
0010
1000
0100
0000
1000
0100
0010
,
0001
1000
0100
0010
0000
0001
1000
0010
,
0100
0100
0010
0010
1000
0001
0010
0100
,
1000
0100
0010
0001
0000
0001
0010
0100
,
1000
0001
0100
0010
0000
1000
0010
0100
,
0001
0100
0010
1000
0001
0010
0100
1000
,
0001
1000
0001
1000
0010
0100
0010
0100
,
1010
0000
0010
0010
0000
0000
0000
0000
0010
1000
0001
0010
0000
0100
0100
0010
,
0001
0010
0100
1000
0010
0100
0001
0100
0010
0010
0100
0100
0001
1000
0001
0000
,
0001
0010
0100
1000
0000
0100
1000
0000
0100
1000
0010
0100
0000
0001
0100
0010
,
1000
0001
1000
0001
0010
0100
0010
0100
0010
0001
0010
0100
1000
0000
1100
0000
,
0001
1000
0100
0010
0001
1000
0100
0000
,
1000
0001
0100
0010
1000
0001
0010
0000
,
0100
0010
0100
0010
0001
1000
0001
1000
,
0001
0100
0010
1000
0001
0100
0010
1000
,
0001
1000
0001
1000
0010
0100
0010
0100
,
0010
0001
0010
0001
0100
0001
0100
0001
,
0101
0000
0000
0010
1000
0001
0010
0100
,
1100
0000
0000
0000
1000
0100
0010
0001
,
0100
0010
0100
0000
0001
1000
0001
1000
,
0000
0001
0010
0100
1000
0000
0020
0000
,
0000
0000
0000
0000
,
0030
0000
0000
0000
;

//---------------dance-single - Chewi----------------
#NOTES:
     dance-single:
     Chewi:
     Beginner:
     3:
     0.189,0.235,0.036,0.009,0.000:
0000
0000
0000
0000
,
0000
0000
0000
0000
,
0000
0000
0000
0000
,
0000
0000
0000
0000
,
1000
0000
0010
0000
,
0001
0000
0100
0000
,
0001
0000
0010
0000
,
1000
0000
0000
0000
,
0001
0000
0100
0000
,
1000
0000
0100
0000
,
0010
0000
0001
0000
,
0100
0000
0001
0000
,
0010
0000
1000
0000
,
0001
0000
0010
0000
,
0010
0000
1000
0000
,
0100
0000
1000
0000
,
1000
0000
0001
0000
,
0100
0000
0100
0000
,
0010
0000
0100
0000
,
0001
0000
1000
0000
,
0001
0000
1000
0000
,
0001
0000
1000
0000
,
0010
0000
0100
0000
,
0010
0000
0010
0000
,
0100
0000
0100
0000
,
0100
0000
0010
0000
,
0010
0000
0010
0000
,
0100
0000
0001
0000
,
0001
0000
0010
0000
,
0001
0000
0100
0000
,
0001
0000
0010
0000
,
0001
0000
0100
0000
,
0001
0000
0100
0000
,
0001
0000
1000
0000
,
0100
0000
0010
0000
,
1000
0000
1000
0000
,
1000
0000
0010
0000
,
1000
0000
0001
0000
,
1000
0000
0100
0000
,
1000
0000
0001
0000
,
0010
0000
0100
0000
,
1000
0000
0001
0000
,
1000
0000
0001
0000
,
0100
0000
0010
0000
,
0001
0000
1000
0000
,
0001
0000
0100
0000
,
0010
0000
0001
0000
,
0110
0000
0010
0000
,
0001
0000
1000
0000
,
1000
0000
0001
0000
,
0100
0000
0001
0000
,
1001
0000
0001
0000
,
0010
0000
0100
0000
,
0010
0000
0010
0000
,
0010
0000
0100
0000
,
0100
0000
0010
0000
,
0001
0000
1000
0000
,
0001
0000
1000
0000
,
0001
0000
1000
0000
,
0001
0001
0001
0001
,
0010
0010
0000
0000
,
0001
0001
0000
0000
,
1000
1000
0000
0000
,
0100
0100
0000
0000
,
1000
0000
0100
0000
,
0010
0000
1000
0000
,
1000
0000
0001
0000
,
1000
0000
0100
0000
,
0001
0000
1000
0000
,
0010
0000
0100
0000
,
0110
0000
0100
0000
,
1001
0000
0010
0000
,
1000
0000
0001
0000
,
1000
1000
1000
2000
,
0000
0000
0000
0000
,
3000
0000
0000
0000
;

//---------------dance-single - Chewi----------------
#NOTES:
     dance-single:
     Chewi:
     Easy:
     6:
     0.441,0.503,0.322,0.304,0.000:
0000
0000
0000
0000
,
0000
0000
0000
0000
,
0000
0000
0000
0000
,
0000
0000
0000
0000
,
2000
0000
3020
0000
,
0032
0000
0203
0000
,
0302
0000
0023
0000
,
2030
0000
0100
3100
,
0001
0010
0100
1100
,
1000
0010
0100
0101
,
0010
0100
0001
1000
,
0100
0010
0001
1000
,
0010
0010
1000
0010
,
0001
0001
0010
0001
,
0010
0100
1000
0001
,
0100
0010
1000
0001
,
1000
1100
0001
0101
,
0100
0010
1000
0001
,
0010
0110
0100
0110
,
0001
0010
0100
1000
,
0002
0103
2000
3100
,
0002
0013
2000
3010
,
0020
0130
0200
0310
,
0020
1030
0020
0031
,
0100
0001
0100
1000
,
0100
0001
0010
1000
,
0010
1000
0010
0001
,
0100
1000
0001
0101
,
0001
0100
0010
1000
,
0001
0010
0100
1000
,
0001
1000
0010
0100
,
0001
1000
0100
0010
,
0001
0010
0100
1000
,
0001
0100
1000
0010
,
0100
0001
0010
0100
,
1000
0001
1000
1010
,
1000
0001
0010
0100
,
1000
0100
0001
0100
,
1000
0001
0100
0010
,
1000
0010
0001
0100
,
0010
0011
0100
1100
,
1000
1001
0001
1001
,
1000
0010
0001
0010
,
0100
0001
0010
0011
,
0001
1001
1000
0101
,
0001
0110
0100
1010
,
0010
1000
0001
0010
,
0110
1001
0110
1001
,
0001
0100
1000
0010
,
1000
0100
0001
0010
,
0100
0010
0001
1000
,
1001
1001
0110
0010
,
0020
1030
0200
0301
,
0020
0031
0020
0130
,
0020
0031
0200
0301
,
0200
0310
0020
1030
,
0002
1003
2000
3001
,
0002
0013
2000
3010
,
0002
0103
2000
3100
,
0002
0023
0230
2300
,
3010
0100
0010
0000
0100
0010
1000
0000
,
0001
1100
1000
0101
,
1000
0010
0001
0000
0100
0100
0100
0000
,
0010
0001
0100
0000
0100
0100
0100
0000
,
1000
0010
0100
0001
,
0010
0100
1000
0001
,
1000
1100
0001
0101
,
1000
0010
0100
1000
,
0001
1001
1000
1001
,
0010
0110
0100
0110
,
1010
0000
0100
0001
,
0011
0000
0001
0010
,
1100
0000
1001
0000
,
1000
0010
0001
0200
,
0000
0000
0000
0000
,
0300
0000
0000
0000
;

//---------------dance-single - Chewi----------------
#NOTES:
     dance-single:
     Chewi:
     Medium:
     10:
     0.490,0.536,0.340,0.009,0.045:
0000
0000
0000
0000
,
0000
0000
0000
0000
,
0000
0000
0000
0000
,
0000
0000
0000
0000
,
1000
0000
0100
0000
0010
0001
0100
0000
,
0001
0000
0100
0000
0010
1000
0100
0000
,
0010
0000
0100
0000
0010
0100
0010
0000
,
0110
1001
0110
1001
,
1000
0010
0100
0001
0100
0000
0010
0000
,
0001
0010
0100
1000
0010
0000
0100
0000
,
0001
1000
0100
0001
,
0010
0100
0001
0010
,
0100
0011
0100
1010
,
0001
1100
1000
0101
,
0010
0100
0010
0000
0100
0010
0100
0000
,
0010
1000
0100
0001
,
0010
0101
0010
1100
,
0001
1000
0100
0000
1000
0001
0100
0000
,
0010
1000
0010
0001
,
0100
1000
0100
0001
,
0100
1001
0010
1001
,
1000
1100
0001
0101
,
0010
1000
0100
0000
0010
0001
0100
0000
,
0010
0010
0100
0100
,
0010
1100
0010
0101
,
1000
0101
0001
1100
,
0001
1000
0100
0000
1000
0001
0100
0000
,
0010
0010
0100
0100
0010
0010
0100
0100
,
0010
0000
1000
0100
0010
0000
0001
0000
,
0010
0100
1000
0001
,
0100
1000
0010
0001
,
0100
0001
0010
1000
,
0100
0000
0001
0010
0001
0000
0100
0000
,
1000
0010
0100
0001
,
0010
1000
0100
0001
,
0010
0001
0100
1001
,
0100
0010
1000
0001
0010
0000
0100
0000
,
1000
0001
0010
0100
,
1000
1100
0001
0101
,
0100
0100
0100
0000
0010
0010
0010
0000
,
1000
0100
0010
0001
0010
0000
0010
0000
,
0100
1000
0010
0001
,
0100
0100
0100
0000
0010
0010
0010
0000
,
0001
0010
0100
1100
,
1000
0001
1000
0001
1000
0000
0010
0000
,
0100
0001
0100
0001
0100
0000
0010
0000
,
1000
0001
1000
0001
1000
0000
0001
0000
,
0001
0010
0100
1000
0001
0000
0010
0000
,
1000
0100
1000
0100
1000
0000
0001
0000
,
0100
0001
0100
0001
0100
0000
0100
0000
,
0010
0100
0010
0100
0010
0000
0010
0000
,
0010
1000
0100
1000
0010
0000
0000
0000
,
0101
0010
0101
0010
,
1100
0010
1100
0010
,
0001
1000
0001
0000
1000
0001
1000
0000
,
0001
1100
1000
0101
,
0101
0010
0101
0010
,
1100
0010
1100
0010
,
0001
1000
0100
0000
1000
0001
0100
0000
,
0010
1000
0100
0001
,
0100
0000
0000
0010
0000
0000
0000
0000
0010
0000
0000
0100
0000
0000
0000
0000
,
0001
0000
0001
0000
1000
0000
1000
0000
0010
0100
0010
0100
0010
0100
0010
0000
,
0010
0000
0000
0100
0000
0000
0000
0000
0100
0000
0000
0010
0000
0000
0000
0000
,
1000
0000
1000
0000
0001
0000
0001
0000
0001
1000
0001
1000
0001
1000
0001
0000
,
0001
0010
0100
0000
1000
0000
0100
0000
,
0010
0001
0100
1000
,
0010
0100
0010
0000
0100
0000
0110
0000
,
0010
0100
0010
0000
0100
0000
0110
0000
,
1000
0100
0010
0000
0001
0000
0010
0000
,
1000
0100
1000
0000
0010
0000
0100
0000
,
0101
0000
0001
1000
,
1010
0000
1000
0001
,
0011
0000
0110
0000
,
0100
1000
0010
0001
0100
0000
0020
0000
,
0000
0000
0000
0000
,
0030
0000
0000
0000
;

//---------------dance-double - Chewi----------------
#NOTES:
     dance-double:
     Chewi:
     Easy:
     5:
     0.341,0.335,0.089,0.018,0.000: // measure 1
00000000
00000000
00000000
00000000
,  // measure 2
00000000
00000000
00000000
00000000
,  // measure 3
00000000
00000000
00000000
00000000
,  // measure 4
00000000
00000000
00000000
00000000
,  // measure 5
10000000
01000000
00010000
01000000
,  // measure 6
10000000
00100000
00010000
00100000
,  // measure 7
10000000
00010000
10000000
00010000
,  // measure 8
10010000
00000000
10010000
00000000
,  // measure 9
00100000
00010000
00001000
00000100
,  // measure 10
00000010
00000001
00000100
00000000
,  // measure 11
00000010
00001000
00000100
00000000
,  // measure 12
00001001
00000000
00001001
00000000
,  // measure 13
00000001
00000100
00001000
00000010
,  // measure 14
00000100
00000000
00000010
00000000
,  // measure 15
00001000
00010000
00001000
01000000
,  // measure 16
01000000
00000000
10000000
00000000
,  // measure 17
00100000
10000000
00010000
00100000
,  // measure 18
01000000
00000000
01000000
00000000
,  // measure 19
01000000
00100000
00010000
01000000
,  // measure 20
00010000
00100000
00001000
00010000
,  // measure 21
00000100
00001000
00000010
00001000
,  // measure 22
00000100
00000001
00000010
00000001
,  // measure 23
00000100
00000010
00001000
00000001
,  // measure 24
00000010
00000100
00001000
00000001
,  // measure 25
00001000
00000100
00001000
00000100
,  // measure 26
00010000
00000100
00010000
00000100
,  // measure 27
00010000
00001000
00010000
00001000
,  // measure 28
00100000
00001000
00100000
00001000
,  // measure 29
00100000
10000000
01000000
00000000
,  // measure 30
01000000
00010000
00100000
00000000
,  // measure 31
01000000
00100000
01000000
00100000
,  // measure 32
00010000
10000000
00010000
10000000
,  // measure 33
00010000
00100000
00001000
00000000
,  // measure 34
00001000
00001000
00010000
00000000
,  // measure 35
00010000
00000100
00000001
00000010
,  // measure 36
00001000
00000010
00000100
00000001
,  // measure 37
00000100
00000100
00000100
00000000
,  // measure 38
00000010
00001000
00000001
00000000
,  // measure 39
00000100
00000100
00001000
00000010
,  // measure 40
00001000
00000100
00010000
00001000
,  // measure 41
00100000
00100000
00100000
00100000
,  // measure 42
10000000
10000000
10000000
10000000
,  // measure 43
01000000
00010000
01000000
10000000
,  // measure 44
00100000
00010000
00100000
01100000
,  // measure 45
01000000
00100000
00010000
01000000
,  // measure 46
00010000
00100000
00001000
00010000
,  // measure 47
00000100
00001000
00000010
00001000
,  // measure 48
00000001
00000001
00000001
00000001
,  // measure 49
00000001
00000100
00000001
00000010
,  // measure 50
00000100
00001000
00000010
00001000
,  // measure 51
00000100
00010000
00001000
00100000
,  // measure 52
01000000
01000000
01000000
01000000
,  // measure 53
00100000
00010000
01000000
00010000
,  // measure 54
00100000
01000000
10000000
00100000
,  // measure 55
10000000
01000000
00100000
00010000
,  // measure 56
00001000
00000100
00000010
00000001
,  // measure 57
00000100
00000001
00000010
00000001
,  // measure 58
00000100
00001000
00000010
00001000
,  // measure 59
00000100
00000010
00000100
00001000
,  // measure 60
00000010
00001000
00010000
00001000
,  // measure 61
00011000
00000000
00010000
00000000
,  // measure 62
00001000
00010000
00100000
01000000
,  // measure 63
00010000
00000000
00001000
00000000
,  // measure 64
00000100
00001000
00000010
00000100
,  // measure 65
00001000
00000010
00000100
00000001
,  // measure 66
00000100
00000010
00001000
00000001
,  // measure 67
00001000
00000100
00010000
00001000
,  // measure 68
00100000
00010000
01000000
00100000
,  // measure 69
10000000
10000000
00100000
00100000
,  // measure 70
01000000
01000000
00010000
00010000
,  // measure 71
10010000
00000000
01000000
00100000
,  // measure 72
00110000
00000000
00100000
00001000
,  // measure 73
00011000
00000000
00001000
00000010
,  // measure 74
00000100
00000001
00001000
00002002
,  // measure 75
00000000
00000000
00000000
00000000
,  // measure 76
00003003
00000000
00000000
00000000
;

//---------------dance-double - Chewi----------------
#NOTES:
     dance-double:
     Chewi:
     Medium:
     9:
     0.425,0.436,0.250,0.009,0.000: // measure 1
00000000
00000000
00000000
00000000
,  // measure 2
00000000
00000000
00000000
00000000
,  // measure 3
00000000
00000000
00000000
00000000
,  // measure 4
00000000
00000000
00000000
00000000
,  // measure 5
00010000
00000000
01000000
00010000
00000000
00000000
00100000
00000000
,  // measure 6
00001000
00000000
00010000
00001000
00000000
00000000
00001000
00000000
,  // measure 7
00000010
00000000
00001000
00000010
00000000
00000000
00000100
00000000
,  // measure 8
00000101
00001100
00000101
00001100
,  // measure 9
00000001
00000000
00001000
00000001
00000000
00000000
00001000
00000000
,  // measure 10
00000010
00000000
00001000
00010000
00000000
00000000
00001000
00000000
,  // measure 11
00010000
00000000
00001000
00010000
00000000
00000000
01000000
00000000
,  // measure 12
11000000
01010000
11000000
01010000
,  // measure 13
10000000
00100000
10000000
00000000
00010000
00000000
01000000
00000000
,  // measure 14
00100000
01000000
00010000
00100000
,  // measure 15
00001000
00010000
00001000
00000000
00000000
00000000
00000100
00000000
,  // measure 16
00000001
00001000
00000100
00000010
,  // measure 17
00000001
00000010
00000001
00000000
00001000
00000000
00000010
00000000
,  // measure 18
00000100
00000010
00001000
00000100
,  // measure 19
00010000
00001000
00010000
00000000
00001000
00000000
00010000
00000000
,  // measure 20
01000000
10000000
01000000
00100000
,  // measure 21
00010000
01010000
10000000
10100000
,  // measure 22
01000000
01000000
01000000
00000000
00100000
00100000
00100000
00000000
,  // measure 23
10000000
11000000
00100000
00110000
,  // measure 24
00100000
00010000
00100000
00000000
00100000
00001000
00100000
00000000
,  // measure 25
00010000
00011000
00001000
00001010
,  // measure 26
00000010
00000010
00000010
00000000
00000100
00000100
00000100
00000000
,  // measure 27
00000010
00001000
00000001
00000010
,  // measure 28
00000100
00000010
00000100
00000000
00000110
00000000
00000000
00000000
,  // measure 29
00000001
00000000
00000100
00000010
00001000
00000000
00000000
00000000
,  // measure 30
00000001
00000001
00001000
00001000
,  // measure 31
00000001
00000100
00000010
00001000
,  // measure 32
00010000
01000000
10000000
00100000
,  // measure 33
01000000
00000000
00100000
01000000
00100000
00000000
00000000
00000000
,  // measure 34
01000000
00010000
00100000
01000000
,  // measure 35
00100000
00010000
00001000
00000100
,  // measure 36
00000001
00000100
00000010
00001001
,  // measure 37
00001000
00000000
00000100
00001000
00000010
00000000
00000000
00000000
,  // measure 38
00000100
00000100
00000010
00000010
,  // measure 39
00001000
00000100
00010000
00001000
,  // measure 40
00100000
10000000
01000000
00010000
,  // measure 41
00100000
01000000
00100000
00000000
01000000
00000000
01000000
00000000
,  // measure 42
01000000
00100000
01000000
00000000
00100000
00000000
00100000
00000000
,  // measure 43
00010000
00100000
00001000
00010000
,  // measure 44
00001000
00000010
00000100
00000110
,  // measure 45
00000010
00000100
00000010
00000000
00001000
00000000
00000001
00000000
,  // measure 46
00001000
00000100
00001000
00000000
00000100
00000000
00001000
00000000
,  // measure 47
00000001
00001000
00000100
00000000
00010000
00000000
00001000
00000000
,  // measure 48
00011000
01000000
01010000
00100000
,  // measure 49
01000000
00100000
01000000
00000000
10000000
00000000
00100000
00000000
,  // measure 50
01000000
00010000
01000000
00000000
00010000
00000000
00100000
00000000
,  // measure 51
01000000
00100000
00010000
00000000
00100000
00000000
00001000
00000000
,  // measure 52
00010000
00011000
00001010
00000000
,  // measure 53
00001000
00000000
00000010
00000100
00000001
00000000
00001000
00000000
,  // measure 54
00000010
00000000
00001000
00000010
00000100
00000000
00000010
00000000
,  // measure 55
00001000
00000100
00010000
00001000
,  // measure 56
00100000
00010000
01000000
00010000
,  // measure 57
00100000
00000000
01000000
10000000
00100000
00000000
01000000
00000000
,  // measure 58
00010000
00000000
10000000
00010000
00100000
00000000
01000000
00000000
,  // measure 59
00100000
00010000
00001000
00000100
,  // measure 60
00000001
00000100
00000010
00001000
,  // measure 61
00001001
00000000
00001000
00000000
00001000
00000001
00000100
00000000
,  // measure 62
00001000
01010000
01000000
00010000
,  // measure 63
00100000
01000000
00100000
00000000
00010000
00000000
00011000
00000000
,  // measure 64
00001000
00000000
00010000
00000000
00001000
00000010
00000100
00000001
,  // measure 65
00000100
00000010
00001000
00000001
,  // measure 66
00000010
00000001
00000010
00000000
00001000
00000100
00001000
00000000
,  // measure 67
00000001
00000100
00000010
00001000
,  // measure 68
00010000
01000000
00010000
00100000
,  // measure 69
10000000
01000000
10000000
00000000
00100000
00000000
00100000
00000000
,  // measure 70
01000000
00010000
01000000
00000000
00100000
00000000
00100000
00000000
,  // measure 71
01100000
00000000
00010000
00100000
,  // measure 72
00101000
00000000
00010000
00001000
,  // measure 73
00001010
00000000
00001001
00000000
,  // measure 74
00000001
00000100
00000010
00002000
,  // measure 75
00000000
00000000
00000000
00000000
,  // measure 76
00003000
00000000
00000000
00000000
;

//---------------dance-double - Chewi----------------
#NOTES:
     dance-double:
     Chewi:
     Hard:
     12:
     0.549,0.603,0.107,0.018,0.027:
00000000
00000000
00000000
00000000
,
00000000
00000000
00000000
00000000
,
00000000
00000000
00000000
00000000
,
00000000
00000000
00000000
00000000
,
10000000
01000000
00100000
00010000
00000000
00100000
00010000
00000000
,
00100000
00010000
00001000
00000100
00000000
00001000
00000100
00000000
,
00001000
00000100
00000001
00000010
00000000
00000001
00000100
00000000
,
00001010
00000101
00000011
00001100
,
00000001
00000010
00000100
00001000
00000000
00000010
00001000
00000000
,
00000100
00010000
00001000
00100000
00000000
00010000
01000000
00000000
,
00100000
10000000
00010000
00100000
00000000
01000000
00100000
00000000
,
01000000
01000000
00100000
00100000
00010000
00000000
10010000
00000000
,
10000000
00100000
10000000
00000000
00010000
00100000
00010000
00000000
,
01000000
00100000
00010000
00001000
,
00000100
00001000
00000100
00000000
00001000
00000001
00001000
00000000
,
00001000
00000010
00000001
00000100
,
00001000
00000010
00001000
00000000
00000001
00000100
00000001
00000000
,
00001000
00000100
00010000
00001000
,
00100000
00010000
00100000
00000000
00010000
01000000
00010000
00000000
,
01000000
10000000
01000000
00000000
10000000
00100000
10000000
00000000
,
00100000
10000000
01000000
00100000
00000000
00010000
00100000
00000000
,
01000000
00100000
00010000
01000000
00000000
01000000
00010000
00000000
,
00100000
00001000
00010000
00000100
00000000
00010000
00001000
00000000
,
00000010
00000001
00000100
00001000
00000000
00000010
00001000
00000000
,
00000010
00000100
00000010
00001000
00000000
00000001
00001000
00000000
,
00000001
00000100
00000010
00001000
00000000
00000100
00001000
00000000
,
00000001
00001000
00000010
00000000
00001000
00000100
00010000
00000000
,
00001000
00010000
01000000
00000000
10000000
01000000
00010000
00000000
,
10000000
01000000
10000000
01000000
10000000
00000000
10100000
00000000
,
01000000
00010000
00100000
01000000
,
10000000
00010000
00100000
00000000
01000000
00001000
00010000
00000000
,
00010000
00001000
00000010
00000000
00001000
00000001
00000010
00000000
,
00000001
00000100
00000010
00001000
00000001
00000000
00000100
00000000
,
00001000
00000010
00001000
00000000
00000001
00000100
00000001
00000000
,
00001000
00000100
00010000
00000000
00001000
00010000
01000000
00000000
,
10000000
01000000
00010000
00100000
01000000
00000000
00100000
00000000
,
00010000
01000000
00100000
00000000
01000000
00010000
00100000
00000000
,
01000000
10000000
00100000
00000000
01000000
00100000
01000000
00000000
,
01000000
00010000
00100000
00000000
00100000
00001000
00010000
00000000
,
00010000
00000100
00001000
00000001
00000100
00000000
00000010
00000000
,
00000100
00000010
00000100
00000000
00000001
00001000
00000001
00000000
,
00000001
00000010
00000100
00000000
00001000
00000010
00000100
00000000
,
00000001
00000100
00000001
00000000
00001000
00000000
00000100
00000000
,
00000001
00000010
00000100
00001000
00000010
00000000
00000110
00000000
,
00000010
00001000
00000100
00010000
00000000
00001000
00010000
00001000
,
00010000
01000000
10000000
01000000
00000000
10000000
01000000
00100000
,
00010000
10000000
00100000
01000000
00000000
01000000
00010000
01000000
,
00100000
00100000
10000000
10000000
00010000
00000000
10010000
00000000
,
10000000
00100000
01000000
00010000
00000000
00100000
01000000
00100000
,
00010000
00010000
00001000
00000010
00000000
00000100
00000001
00000100
,
00000010
00001000
00000001
00000010
00000000
00000100
00000010
00000001
,
00000010
00000001
00000010
00001000
00000010
00001000
00000010
00000000
,
00000010
00000000
00000100
00000001
00000000
00000100
00000010
00001000
,
00000100
00000000
00010000
00001000
00000000
00001000
00010000
01000000
,
10000000
00000000
01000000
10000000
00000000
00100000
01000000
00010000
,
00100000
00000000
01000000
00100000
00000000
00010000
00100000
01000000
,
10000000
00000000
00100000
01000000
00000000
00010000
00100000
00001000
,
00010000
00000000
00000100
00001000
00000000
00001000
00000010
00000100
,
00000001
00000000
00000100
00000010
00000000
00000100
00000001
00000010
,
00000100
00000000
00001000
00000010
00000100
00000001
00000100
00000000
,
00000101
00000000
00000100
00000100
00000000
00000000
00000000
00000000
00000010
00000000
00000000
00001000
00000000
00000010
00001000
00000000
,
00000100
00010000
00001000
00100000
10000000
01000000
00010000
00100000
,
01000000
00000000
00100000
01000000
00000000
00000000
00000000
00000000
01000000
00100000
00000000
00010000
00000000
00000000
01000000
00000000
,
00100000
01000000
00010000
00100000
00001000
00010000
00000100
00001100
,
00000101
00000000
00000100
00000000
00000010
00001000
00000100
00000000
,
00000010
00000001
00000010
00000000
00000100
00001000
00000100
00000000
,
00000100
00010000
00001000
00000000
00001000
00100000
00010000
00000000
,
00010000
01000000
10000000
00000000
10000000
01000000
00010000
00000000
,
00100000
00000000
01000000
00000000
00100000
00010000
01000000
00000000
,
00100000
00000000
01000000
00000000
00100000
10000000
01000000
00100000
,
00010000
00000000
00000000
00100000
00100000
00000000
00010000
00100000
,
00001000
00000000
00000000
00010000
00010000
00000000
00010000
00001000
,
00000010
00000000
00000000
00000001
00001000
00000000
00000010
00000100
,
00000000
00000001
00000100
00000010
00001000
00000000
00002002
00000000
,
00000000
00000000
00000000
00000000
,
00003003
00000000
00000000
00000000
;
