#VERSION:0.83;
#TITLE:COME ON OVER BABY;
#SUBTITLE:(ALL I WANT IS YOU);
#ARTIST:christina aguilera;
#TITLETRANSLIT:;
#SUBTITLETRANSLIT:;
#ARTISTTRANSLIT:;
#GENRE:;
#ORIGIN:;
#CREDIT:;
#BANNER:COME ON OVER BABY (ALL I WANT IS YOU).png;
#BACKGROUND:COME ON OVER BABY (ALL I WANT IS YOU)-bg.png;
#PREVIEWVID:;
#JACKET:COME ON OVER BABY (ALL I WANT IS YOU)-jacket.png;
#CDIMAGE:;
#DISCIMAGE:;
#LYRICSPATH:;
#CDTITLE:cdtitle.png;
#MUSIC:COME ON OVER BABY (ALL I WANT IS YOU).ogg;
#OFFSET:0.000000;
#SAMPLESTART:47.000000;
#SAMPLELENGTH:12.000000;
#SELECTABLE:YES;
#BPMS:0.000=120.000;
#STOPS:;
#DELAYS:;
#WARPS:;
#TIMESIGNATURES:0.000=4=4;
#TICKCOUNTS:0.000=4;
#COMBOS:0.000=1;
#SPEEDS:0.000=1.000=0.000=0;
#SCROLLS:0.000=1.000;
#FAKES:;
#LABELS:0.000=Song Start;
#BGCHANGES:-0.500=COME ON OVER BABY (ALL I WANT IS YOU).avi=1.000=1=0=1===CrossFade==,
99999=-nosongbg-=1.000=0=0=0 // don't automatically add -songbackground-
;
#KEYSOUNDS:;
#ATTACKS:
;

//---------------dance-single - ----------------
#NOTEDATA:;
#CHARTNAME:;
#STEPSTYPE:dance-single;
#DESCRIPTION:;
#CHARTSTYLE:;
#DIFFICULTY:Hard;
#METER:10;
#RADARVALUES:0.445566,0.438869,0.310954,0.047114,0.065960,331.000000,298.000000,33.000000,5.000000,0.000000,0.000000,0.000000,0.000000,0.000000,0.445566,0.438869,0.310954,0.047114,0.065960,331.000000,298.000000,33.000000,5.000000,0.000000,0.000000,0.000000,0.000000,0.000000;
#CREDIT:chewi;
#NOTES:
// measure 0
0000
0000
0000
0000
,  // measure 1
0000
0000
0000
0000
,  // measure 2
0000
0000
0000
0000
,  // measure 3
0000
0000
0000
0000
,  // measure 4
1001
0000
1000
0100
0001
0100
0000
1000
,  // measure 5
0000
0001
0100
1000
0100
0001
0100
0000
,  // measure 6
0010
0010
0000
0100
0000
0001
0000
1000
,  // measure 7
0000
0000
0010
0100
0010
0000
0100
0010
0100
0010
0100
0010
0100
0000
1000
0000
,  // measure 8
0200
0000
0320
0000
3031
0001
0001
0000
,  // measure 9
1000
0010
0100
0001
1000
0000
0001
1000
,  // measure 10
0100
0010
0010
0000
0010
0100
0100
0000
,  // measure 11
1000
0000
0001
0000
0100
0000
0001
0000
0010
0000
0001
0010
0001
0000
0010
0000
,  // measure 12
0001
0100
0001
0100
0010
0010
0010
0010
,  // measure 13
0100
0001
1000
0010
1000
0000
0010
1000
,  // measure 14
0010
0100
0100
0000
0100
0010
0010
0000
,  // measure 15
1000
0000
0010
0000
1000
0000
0100
0000
1000
0000
0100
1000
0100
0000
0100
0000
,  // measure 16
1000
0000
0001
0100
0000
1000
0100
0000
,  // measure 17
0000
0000
0001
0100
0010
0001
0010
0100
,  // measure 18
0000
0000
0001
0100
0000
1000
0100
1000
,  // measure 19
0000
0000
1000
0100
0010
1000
0010
0100
,  // measure 20
0000
0000
0100
1000
0000
0001
0010
0100
,  // measure 21
0000
1000
0010
0100
0001
1000
0000
0001
,  // measure 22
0000
0000
1000
0010
1000
0000
0001
0000
,  // measure 23
1100
0000
0101
0000
1000
0100
1000
0010
,  // measure 24
1000
1100
0001
0101
,  // measure 25
1000
0000
1100
0000
0100
0010
0001
1000
,  // measure 26
0010
0110
0100
0110
,  // measure 27
0010
0000
0110
0000
1000
0001
0100
0001
,  // measure 28
1000
0000
0000
1000
0100
0000
1000
0000
0001
0000
1000
0000
1001
0000
0000
0000
,  // measure 29
0001
0000
0000
0001
0010
0000
0001
0000
1000
0000
0001
0000
1000
0000
0000
0000
,  // measure 30
1000
0010
0001
0000
1000
0100
0001
0000
,  // measure 31
0101
0011
1001
1100
,  // measure 32
1001
0000
0001
0010
1000
0010
0000
0001
,  // measure 33
0000
1000
0010
0001
0010
1000
0010
0000
,  // measure 34
0100
0000
0001
0100
1000
0100
0000
0100
,  // measure 35
0000
0000
0100
0010
0100
0000
0010
0100
0010
0000
0001
0000
1000
0000
0010
0000
,  // measure 36
2000
0100
0010
0000
0001
0001
3001
3000
,  // measure 37
0001
1000
0001
0000
0101
0000
1100
0000
,  // measure 38
0002
0100
0010
0000
1000
1000
1003
0000
,  // measure 39
0100
0010
0103
0000
1100
0000
0101
0000
,  // measure 40
0100
0000
0100
0001
0100
0000
0001
0000
1000
0000
0100
0000
1100
0000
0000
0000
,  // measure 41
0000
0000
0100
0000
0100
1000
0100
0000
1000
0000
0001
0000
1000
0000
0000
0000
,  // measure 42
0001
0100
0001
1000
0010
1000
0100
0010
,  // measure 43
0101
0000
0011
0000
1001
0000
1100
1000
,  // measure 44
0002
0010
0100
0000
1000
1000
1003
0003
,  // measure 45
1000
0001
1000
0000
1010
0000
0011
0000
,  // measure 46
1000
0010
0100
0000
0001
0001
3001
0000
,  // measure 47
0010
0100
3010
0000
0011
0000
1010
0000
,  // measure 48
0010
0000
0010
1000
0010
0000
1000
0000
0001
0000
0010
0000
0011
0000
0000
0000
,  // measure 49
0000
0000
0010
0000
0010
0001
0010
0000
0001
0000
1000
0000
1000
0000
0000
0000
,  // measure 50
1000
0100
1000
0010
0100
0010
0100
0001
,  // measure 51
0011
1010
1100
0101
;

//---------------dance-single - ----------------
#NOTEDATA:;
#CHARTNAME:;
#STEPSTYPE:dance-single;
#DESCRIPTION:;
#CHARTSTYLE:;
#DIFFICULTY:Medium;
#METER:7;
#RADARVALUES:0.306916,0.339694,0.273263,0.000000,0.000000,228.000000,199.000000,29.000000,0.000000,0.000000,0.000000,0.000000,0.000000,0.000000,0.306916,0.339694,0.273263,0.000000,0.000000,228.000000,199.000000,29.000000,0.000000,0.000000,0.000000,0.000000,0.000000,0.000000;
#CREDIT:chewi;
#NOTES:
// measure 0
0000
0000
0000
0000
,  // measure 1
0000
0000
0000
0000
,  // measure 2
0000
0000
0000
0000
,  // measure 3
0000
0000
0000
0000
,  // measure 4
1001
0100
0001
0010
,  // measure 5
0100
1000
0100
0000
1000
0100
1000
0000
,  // measure 6
0001
0000
1000
0000
0001
0100
0010
1000
,  // measure 7
0000
0001
0000
1000
0001
0000
0010
0000
,  // measure 8
1001
0000
0001
0000
0100
0010
0100
0000
,  // measure 9
0100
0001
0010
0100
,  // measure 10
0110
0000
0000
0000
,  // measure 11
1001
0000
0110
1010
,  // measure 12
0101
0000
0100
0000
0010
1000
0010
0000
,  // measure 13
1000
0100
0010
0100
,  // measure 14
0110
0000
0000
0000
,  // measure 15
1001
0000
1010
0110
,  // measure 16
0101
0000
0001
0001
0000
1000
1000
0000
,  // measure 17
0000
0001
0010
0100
,  // measure 18
1000
0000
1000
1000
0000
0001
0001
0000
,  // measure 19
0001
0100
1000
0010
,  // measure 20
0001
0000
0010
0010
0000
0100
0100
0100
,  // measure 21
0000
1000
0010
0100
,  // measure 22
0010
1000
0100
0010
,  // measure 23
1001
1001
0110
0000
,  // measure 24
0010
0000
0010
0000
0010
0000
0010
0001
,  // measure 25
0100
0000
0100
0000
0100
0000
0100
0010
,  // measure 26
1000
0000
1000
0000
1000
0000
1000
0100
,  // measure 27
0010
0000
0010
0000
0010
0000
0010
0001
,  // measure 28
1000
0000
0000
0001
0000
1000
1001
0000
,  // measure 29
1000
0000
0010
0000
0100
0001
0100
0000
,  // measure 30
0001
1000
0001
0100
,  // measure 31
0010
0010
0100
0100
,  // measure 32
1001
0010
1000
0100
,  // measure 33
0010
0001
0010
0000
0001
0010
0001
0000
,  // measure 34
1000
0000
0001
0000
1000
0010
0100
0001
,  // measure 35
0000
1000
0000
0001
1000
0000
0100
0000
,  // measure 36
1000
0100
0001
0010
,  // measure 37
1000
0000
0100
0000
0001
0100
1000
0000
,  // measure 38
0001
0100
1000
0010
,  // measure 39
0001
0000
0100
0000
1000
0100
0001
0100
,  // measure 40
0010
0000
0000
0010
0000
0000
1100
0000
,  // measure 41
0010
0000
0000
0010
0000
0000
0101
0000
,  // measure 42
1000
0000
0000
0001
0000
0000
1001
0000
,  // measure 43
1100
0101
1100
0101
,  // measure 44
0001
0010
1000
0100
,  // measure 45
0001
0000
0010
0000
1000
0010
0001
0000
,  // measure 46
1000
0010
0001
0100
,  // measure 47
1000
0000
0010
0000
0001
0010
1000
0010
,  // measure 48
0100
0000
0000
0100
0000
0000
0101
0000
,  // measure 49
0100
0000
0000
0100
0000
0000
1010
0000
,  // measure 50
0001
0000
0000
1000
0000
0000
0001
0000
,  // measure 51
0011
1010
0011
0000
;

//---------------dance-single - ----------------
#NOTEDATA:;
#CHARTNAME:;
#STEPSTYPE:dance-single;
#DESCRIPTION:;
#CHARTSTYLE:;
#DIFFICULTY:Easy;
#METER:5;
#RADARVALUES:0.204610,0.243816,0.028269,0.028269,0.000000,152.000000,149.000000,3.000000,3.000000,0.000000,0.000000,0.000000,0.000000,0.000000,0.204610,0.243816,0.028269,0.028269,0.000000,152.000000,149.000000,3.000000,3.000000,0.000000,0.000000,0.000000,0.000000,0.000000;
#CREDIT:chewi;
#NOTES:
// measure 0
0000
0000
0000
0000
,  // measure 1
0000
0000
0000
0000
,  // measure 2
0000
0000
0000
0000
,  // measure 3
0000
0000
0000
0000
,  // measure 4
1001
1000
0001
0000
,  // measure 5
0001
1000
0001
0000
,  // measure 6
0100
0010
0100
0010
,  // measure 7
0100
0000
0000
0000
,  // measure 8
0010
0000
1000
0000
,  // measure 9
0010
1000
0100
0000
,  // measure 10
0010
0000
0001
0000
,  // measure 11
0010
0001
0100
0000
,  // measure 12
0001
0000
1000
0000
,  // measure 13
0100
0010
0100
0000
,  // measure 14
1000
0000
0001
0000
,  // measure 15
0100
0010
0100
0000
,  // measure 16
0020
0000
0000
0030
,  // measure 17
0010
1000
0001
0100
,  // measure 18
0200
0000
0000
0300
,  // measure 19
0100
0001
1000
0010
,  // measure 20
2000
0000
0000
3000
,  // measure 21
1000
0100
0010
0001
,  // measure 22
0001
0000
1000
0000
,  // measure 23
0001
0000
0100
0000
,  // measure 24
0100
0010
0100
0010
,  // measure 25
1000
0001
1000
0000
,  // measure 26
0100
0010
0100
0010
,  // measure 27
0001
1000
0001
0000
,  // measure 28
1000
0100
0001
0000
,  // measure 29
1000
0010
0001
0000
,  // measure 30
1000
0100
0001
0000
,  // measure 31
1000
0010
0001
0010
,  // measure 32
1001
1000
0001
0000
,  // measure 33
0001
1000
0001
0000
,  // measure 34
0100
0010
0100
0010
,  // measure 35
0100
0000
0100
0100
,  // measure 36
0100
0001
0010
1000
,  // measure 37
0100
0001
0010
0000
,  // measure 38
0010
0001
0100
1000
,  // measure 39
0010
0001
0100
0000
,  // measure 40
1000
0100
1000
0100
,  // measure 41
0010
0001
0010
0001
,  // measure 42
0001
1000
1000
0001
,  // measure 43
1000
0000
0100
0100
,  // measure 44
0010
1000
0100
0001
,  // measure 45
0010
1000
0100
0000
,  // measure 46
0100
1000
0010
0001
,  // measure 47
0100
1000
0010
0000
,  // measure 48
0001
0010
0001
0010
,  // measure 49
0100
1000
0100
1000
,  // measure 50
1000
0001
0001
1000
,  // measure 51
0001
1000
0001
1001
;

//---------------dance-single - ----------------
#NOTEDATA:;
#CHARTNAME:;
#STEPSTYPE:dance-single;
#DESCRIPTION:;
#CHARTSTYLE:;
#DIFFICULTY:Beginner;
#METER:1;
#RADARVALUES:0.069998,0.120141,0.037691,0.028269,0.000000,52.000000,48.000000,4.000000,3.000000,0.000000,0.000000,0.000000,0.000000,0.000000,0.069998,0.120141,0.037691,0.028269,0.000000,52.000000,48.000000,4.000000,3.000000,0.000000,0.000000,0.000000,0.000000,0.000000;
#CREDIT:chewi;
#NOTES:
// measure 0
0000
0000
0000
0000
,  // measure 1
0000
0000
0000
0000
,  // measure 2
0000
0000
0000
0000
,  // measure 3
0000
0000
0000
0000
,  // measure 4
1001
0000
0000
0000
,  // measure 5
0001
0000
0000
0000
,  // measure 6
0110
0000
0000
0000
,  // measure 7
0100
0000
0000
0000
,  // measure 8
0010
0000
0000
0000
,  // measure 9
0010
0000
0000
0000
,  // measure 10
0100
0000
0000
0000
,  // measure 11
0100
0000
0000
0000
,  // measure 12
0001
0000
0000
0000
,  // measure 13
0001
0000
0000
0000
,  // measure 14
1000
0000
0000
0000
,  // measure 15
1000
0000
0000
0000
,  // measure 16
0020
0000
0000
0030
,  // measure 17
0010
0000
0000
0000
,  // measure 18
0200
0000
0000
0300
,  // measure 19
0100
0000
0000
0000
,  // measure 20
2000
0000
0000
3000
,  // measure 21
1000
0000
0000
0000
,  // measure 22
0001
0000
0000
0000
,  // measure 23
0001
0000
0000
0000
,  // measure 24
0100
0000
0000
0000
,  // measure 25
1000
0000
0000
0000
,  // measure 26
0100
0000
0000
0000
,  // measure 27
0001
0000
0000
0000
,  // measure 28
1000
0000
0000
0000
,  // measure 29
0001
0000
0000
0000
,  // measure 30
1000
0000
0000
0000
,  // measure 31
0001
0000
0000
0000
,  // measure 32
1001
0000
0000
0000
,  // measure 33
1000
0000
0000
0000
,  // measure 34
0110
0000
0000
0000
,  // measure 35
0100
0000
0000
0000
,  // measure 36
0100
0000
0000
0000
,  // measure 37
0001
0000
0000
0000
,  // measure 38
0010
0000
0000
0000
,  // measure 39
1000
0000
0000
0000
,  // measure 40
0100
0000
0000
0000
,  // measure 41
0001
0000
0000
0000
,  // measure 42
0010
0000
0000
0000
,  // measure 43
1000
0000
0000
0000
,  // measure 44
0010
0000
0000
0000
,  // measure 45
0001
0000
0000
0000
,  // measure 46
0100
0000
0000
0000
,  // measure 47
1000
0000
0000
0000
,  // measure 48
0010
0000
0000
0000
,  // measure 49
0001
0000
0000
0000
,  // measure 50
0100
0000
0000
0000
,  // measure 51
1000
0000
0000
0000
;
