#TITLE:CELEBRATE NITE (Z-Scorpius Remix);
#SUBTITLE:;
#ARTIST:remixed by dj eiden;
#TITLETRANSLIT:;
#SUBTITLETRANSLIT:;
#ARTISTTRANSLIT:;
#GENRE:;
#CREDIT:Chewi☆;
#MENUCOLOR:#FFFFFF;
#METERTYPE:DDR X;
#BANNER:CELEBRATE NITE (Z-Scorpius Remix).png;
#BACKGROUND:CELEBRATE NITE (Z-Scorpius Remix)-bg.png;
#LYRICSPATH:;
#CDTITLE:./CDTITLES/DanceDanceRevolution skyMIX2 -FREEDOM-.png;
#MUSIC:CELEBRATE NITE (Z-Scorpius Remix).mp3;
#OFFSET:-0.080;
#SAMPLESTART:26.670;
#SAMPLELENGTH:13.440;
#SELECTABLE:YES;
#LISTSORT:;
#DISPLAYBPM:144.000;
#BPMS:0.000=144.000;
#STOPS:;
#BGCHANGES:-12.000=X2_Alice.avi=1.000=0=0=1,
99999=-nosongbg-=1.000=0=0=0 // don't automatically add -songbackground-
;
#ATTACKS:;

//---------------dance-single - Chewi----------------
#NOTES:
     dance-single:
     Chewi:
     Easy:
     6:
     0.350,0.473,0.387,0.000,0.000:
0000
0000
0000
0000
,
0000
0000
0000
0000
,
0000
0000
0000
0000
,
0000
0000
0000
0000
,
0100
0100
0100
0100
,
0100
0100
0100
0100
,
0001
0001
1000
1000
,
0001
0001
0010
0010
,
1000
0010
0001
0010
,
1000
0010
0001
0010
,
1000
0100
0001
0100
,
1000
0010
0001
0110
,
1000
0100
0001
0010
,
1000
0100
0001
0010
,
1000
0100
0001
0010
,
1000
0000
0000
1001
,
0001
0010
0001
0110
,
1000
0100
1000
0110
,
0001
0100
1000
0100
,
1001
0110
1001
0000
,
0010
0001
0010
1001
,
0010
1000
0010
1001
,
0001
0100
1000
0100
,
1001
0110
1001
0000
,
1000
1000
1000
1000
,
1000
1000
1000
0100
,
0001
0001
0001
0010
,
1000
1000
1000
0010
,
0001
0100
1000
0100
,
0001
0100
1000
0100
,
0001
0000
0100
0000
,
1000
0000
0010
0000
,
0100
1001
0010
1001
,
0010
0110
1000
0110
,
0001
0100
1000
0110
,
1000
0100
0001
0110
,
1001
0100
0010
0110
,
1001
0100
0010
0110
,
0001
0010
1000
0100
,
0001
0000
0000
0110
,
0001
1000
0100
0110
,
1000
0001
0100
0110
,
0010
0001
0010
0010
,
1000
0100
1000
1000
,
0001
0100
1000
0010
,
0001
0100
1000
0010
,
1001
0110
1001
0110
,
1001
0110
0001
1001
,
1000
1000
1000
1000
,
0010
0000
0000
0000
;

//---------------dance-single - Chewi----------------
#NOTES:
     dance-single:
     Chewi:
     Medium:
     8:
     0.431,0.503,0.676,0.000,0.000:
0000
0000
0000
0000
,
0000
0000
0000
0000
,
0000
0000
0000
0000
,
0000
0000
0000
0000
,
0001
0000
0010
0000
1000
0000
1000
0100
,
0001
0000
0010
0000
1000
0000
1000
0100
,
0001
0100
1000
0100
,
0001
0001
0001
0001
1000
1000
1000
1000
,
0100
1001
0010
1001
,
0100
0000
0100
0000
1001
0010
0100
0000
,
0001
0110
1000
0110
,
0001
0000
0001
0000
0110
1000
0001
0000
,
0001
0000
1100
0000
0001
0100
1000
0000
,
1000
0000
0101
0000
1000
0100
0001
0000
,
1000
0100
0001
0010
,
0110
0000
0000
0000
0110
0001
1000
0000
,
0100
0011
0100
0011
,
0100
1010
0100
1010
,
1100
0011
1100
0011
,
1001
0110
1001
0000
,
0100
1010
0100
1010
,
0100
0011
0100
0011
,
0101
1010
0101
1010
,
0100
0001
1000
0010
0001
0000
0110
0000
,
1000
0000
0000
0000
,
0001
0000
0000
0000
,
0100
0000
0100
0000
,
0010
0010
0010
0010
,
1000
0100
0001
0000
1000
0010
1000
0000
,
0001
0100
1000
0000
0001
0010
0001
0000
,
0100
0100
0100
0100
,
0010
0000
0000
0000
0000
1001
0110
0000
,
0001
0000
0001
0000
1000
0100
0001
0000
,
1000
0000
1000
0000
0001
0100
1000
0000
,
0010
0101
0010
1100
,
1000
0100
0001
0110
,
1000
0000
1000
0000
0001
0010
1000
0000
,
0001
0000
0001
0000
1000
0010
0001
0000
,
0011
1001
1100
0110
,
1001
0000
0000
0000
0110
0001
1000
0000
,
0001
0010
1000
0010
,
1010
0011
1010
0011
,
1000
0010
0001
0010
,
1010
0011
1010
0011
,
0100
0000
0100
0000
0100
0001
0010
0000
,
0100
0000
0100
0000
0100
1000
0100
0000
,
0011
1100
1010
0101
,
0110
0000
1001
0000
0110
0001
1000
0000
,
0001
0001
0001
0001
,
0010
0000
0000
0000
;

//---------------dance-single - Chewi----------------
#NOTES:
     dance-single:
     Chewi:
     Hard:
     11:
     0.528,0.503,0.387,0.000,0.048: // measure 1
0000
0000
0000
0000
,  // measure 2
0000
0000
0000
0000
,  // measure 3
0000
0000
0000
0000
,  // measure 4
0000
0000
0000
0000
,  // measure 5
0010
1000
0100
0000
0010
0001
0100
0001
,  // measure 6
1000
0001
0010
0000
0100
1000
0001
1000
,  // measure 7
0100
0001
0011
0000
0100
1000
1100
0000
,  // measure 8
0110
0000
0000
0000
0000
0000
0000
0000
0100
1000
0100
1000
0100
0000
0000
0000
,  // measure 9
1000
0100
1000
0000
1000
0100
1000
0010
,  // measure 10
0001
0010
0001
0000
0001
0010
0001
0000
,  // measure 11
1010
0000
0101
0000
0010
1000
0100
0000
,  // measure 12
1100
0000
0011
0000
0100
1000
0001
0010
,  // measure 13
0100
0001
0100
0000
0100
1000
0100
0001
,  // measure 14
1000
0100
0001
0000
0001
0010
1000
0100
,  // measure 15
0011
0000
1100
0000
0001
0010
1000
0100
,  // measure 16
0010
0000
0000
0000
0000
0000
0000
0000
0000
0000
0001
0010
0001
0000
0000
0000
,  // measure 17
0001
0100
1000
0000
0001
0100
1000
0010
,  // measure 18
1000
0100
0001
0000
1000
0100
0001
0010
,  // measure 19
1000
1000
1100
0000
0001
0001
0011
0000
,  // measure 20
1001
0000
0110
0000
1001
0000
0100
0010
,  // measure 21
1000
0001
0010
0000
0001
1000
0100
0010
,  // measure 22
0100
0010
1000
0000
0100
0010
0001
0000
,  // measure 23
0110
0000
0110
0000
0100
0010
0100
0010
,  // measure 24
0100
1000
0010
0001
1000
0000
0110
0000
,  // measure 25
0001
0010
1000
0010
,  // measure 26
0001
0010
1000
0010
,  // measure 27
0001
0100
1000
0100
,  // measure 28
0001
0000
0000
0000
0001
0000
0000
0000
0100
0010
0100
0010
0100
0000
0000
0000
,  // measure 29
1000
0100
0001
0000
0001
0010
1000
0100
,  // measure 30
0001
0010
1000
0000
1000
0100
0001
0010
,  // measure 31
1100
0101
0011
1010
,  // measure 32
0110
0000
0000
0000
0000
0000
0000
0000
0001
1000
0001
1000
0001
0000
0000
0000
,  // measure 33
1000
0100
1000
0000
0100
1000
0001
0010
,  // measure 34
0001
0100
0001
0000
0100
0001
1000
0010
,  // measure 35
0100
0000
0011
0000
0100
0000
1010
0001
,  // measure 36
0100
0000
0011
0000
0100
0001
1010
0000
,  // measure 37
0001
0010
1000
0000
1000
0100
0001
0000
,  // measure 38
0100
1000
0010
0000
0010
0001
0100
0000
,  // measure 39
1100
0000
1100
0000
0001
0010
0001
0010
,  // measure 40
1000
0000
0000
0000
0000
0000
0000
0000
0000
0000
0010
0100
0010
0000
0000
0000
,  // measure 41
1000
0100
0010
0000
0010
0100
0001
0010
,  // measure 42
0001
1000
0100
0000
0100
0001
0010
1000
,  // measure 43
0100
0001
0010
1000
0100
0001
0010
0000
,  // measure 44
0101
0000
1010
0000
0001
0100
0010
1000
,  // measure 45
0001
0100
0010
0000
1000
0100
0010
0100
,  // measure 46
0001
1000
0100
0000
0001
1000
0100
0010
,  // measure 47
0001
0001
0100
0000
1000
1000
0100
0000
,  // measure 48
0110
0000
1001
0000
0100
1000
0010
0000
,  // measure 49
0010
0001
0010
0100
1000
0100
1000
0010
,  // measure 50
0001
0000
0000
0000
;

//---------------dance-single - Chewi----------------
#NOTES:
     dance-single:
     Chewi:
     Beginner:
     3:
     0.185,0.237,0.181,0.000,0.000:
0000
0000
0000
0000
,
0000
0000
0000
0000
,
0000
0000
0000
0000
,
0000
0000
0000
0000
,
0100
0100
0100
0000
,
0100
0100
0100
0000
,
0001
0000
1000
0000
,
0010
0000
0000
0000
,
0010
0000
0010
0000
,
0010
0000
0010
0000
,
0100
0000
0100
0000
,
0010
0000
0000
0110
,
0000
0100
0000
0010
,
0000
0100
0000
0010
,
0000
0100
0000
0010
,
0000
0000
0000
1001
,
0000
0010
0000
0110
,
0000
0100
0000
0110
,
0000
0100
0000
0100
,
0000
0110
0000
0000
,
0010
0000
0000
0000
,
0010
0000
0000
0000
,
0001
0000
1000
0000
,
1001
0000
1001
0000
,
1000
1000
1000
0000
,
1000
1000
1000
0000
,
0001
0001
0001
0000
,
1000
1000
1000
0000
,
0001
0000
1000
0000
,
0001
0000
1000
0000
,
0001
0000
0100
0000
,
1000
0000
0010
0000
,
0100
0000
0010
0000
,
0010
0000
1000
0000
,
0001
0000
1000
0000
,
1000
0000
0001
0000
,
1001
0000
0010
0000
,
1001
0000
0010
0000
,
0001
0000
1000
0000
,
0001
0000
0000
0110
,
0000
1000
0000
0110
,
0000
0001
0000
0110
,
0000
0001
0000
0010
,
0000
0100
0000
1000
,
1000
0000
0000
0000
,
0100
0000
0000
0000
,
0110
0000
0110
0000
,
0100
0100
0000
1001
,
0000
1000
1000
1000
,
1000
0000
0000
0000
;

//---------------dance-single - Chewi----------------
#NOTES:
     dance-single:
     Chewi:
     Challenge:
     12:
     0.644,0.621,0.085,0.000,0.157:
0000
0000
0000
0000
,
0000
0000
0000
0000
,
0000
0000
0000
0000
,
0000
0000
0000
0000
,
1000
0100
0010
0000
0001
0010
0100
0000
,
1000
0001
0100
1000
0010
0001
0100
0000
,
0001
1000
0100
0000
1000
0001
0100
0000
,
1000
0001
0100
0010
0001
0100
0010
0000
,
1000
0010
1000
0010
1000
0100
1000
0100
,
0010
0100
0010
0100
0010
0001
0010
0001
,
0010
0001
0010
0001
0100
0001
0100
0001
,
0100
0010
1000
0001
0010
0100
1000
0001
,
0010
0100
1100
0000
0100
0001
0100
1000
,
0010
0100
0101
0000
0001
0100
0010
1000
,
0001
0010
0110
0000
0010
0001
0100
1000
,
0010
0000
0100
0000
0001
0000
0010
0000
0100
0000
0010
0100
0010
0000
0000
0000
,
0001
0010
0100
0000
1000
0000
0010
0000
0100
0000
0001
0000
0100
0000
0010
0000
,
1000
0001
0010
0100
0010
0001
0100
0010
,
0100
0001
0010
0000
0100
0000
1000
0000
0010
0000
0100
0000
0001
0000
0100
0000
,
0010
1000
0001
0010
0100
1000
0001
0000
,
1000
0100
0010
0000
0001
0000
0010
0000
0100
0000
1000
0000
0001
0000
0100
0000
,
1000
0010
0001
0010
1000
0100
0001
0010
,
0100
0010
0001
0000
0100
0000
0010
0000
0100
0000
0001
0000
0010
0000
0100
0000
,
1000
0010
0100
0001
0100
0010
1000
0001
,
1000
0001
0010
0100
0000
1000
0100
0001
,
0100
1000
0010
0100
0001
0100
0100
0000
,
0001
0100
0010
1000
0000
0001
0010
1000
,
0100
0001
0010
0100
0010
0010
0100
0100
,
0010
0001
0100
0000
0010
0000
0100
0000
0001
0010
0001
0000
0010
0000
0100
0000
,
1000
0100
0010
0000
1000
0000
0100
0000
0010
0100
0010
0000
0100
0000
0100
0000
,
1000
0100
0010
0000
0100
0000
1000
0000
0010
0100
0001
0000
0001
0000
0100
0000
,
0010
0100
0001
0000
0010
0000
0100
0000
1000
0001
1000
0001
1000
0000
0000
0000
,
1000
0010
1000
0000
0001
0000
0010
0000
0100
0000
1000
0000
0010
0000
0100
0000
,
0001
0100
0001
0000
0010
0000
1000
0000
0001
0000
0010
0000
0100
0000
1000
0000
,
0100
1000
0100
0000
0010
0000
0001
0000
0010
0000
0100
0000
1000
0000
0001
0000
,
0100
0001
0100
0000
0010
0000
1000
0000
0001
0000
0010
0000
0110
0000
0000
0000
,
0010
0001
0100
0000
0010
0000
0100
0000
0001
0000
0010
0000
0100
0000
1000
0000
,
0010
1000
0100
0000
0010
0000
0001
0000
0100
0000
0010
0000
0100
0000
0001
0000
,
1000
0001
0100
0000
0010
0000
0001
0000
0100
0000
0010
0000
0100
0000
0001
0000
,
1000
0001
1000
0000
0001
0000
1000
0000
1000
0010
0100
0001
0100
0000
0000
0000
,
0001
1000
0010
1000
0001
1000
0010
0000
,
0100
0001
0010
1000
0100
0010
1000
0100
,
0010
0001
1000
0010
1000
0001
0010
0100
,
1001
1000
1000
0010
0100
0010
0011
0000
,
0001
0010
0100
1000
0001
0010
0100
1000
,
0001
0100
1000
0010
1000
0100
0001
0010
,
0100
0010
0001
0100
0010
0100
0001
0010
,
0100
1000
0001
0010
0100
1000
0001
0100
,
0010
0000
0100
0000
0001
0010
0000
0000
0100
0000
1000
0000
0010
0100
0000
0000
,
0110
0000
0000
0000
;
