#TITLE:CANDY CANDY;
#SUBTITLE:;
#ARTIST:きゃりーぱみゅぱみゅ;
#TITLETRANSLIT:;
#SUBTITLETRANSLIT:;
#ARTISTTRANSLIT:Kyarypamyupamyu;
#CREDIT:Chewi☆;
#BANNER:CANDY CANDY.png;
#BACKGROUND:CANDY CANDY-bg.png;
#LYRICSPATH:;
#CDTITLE:;
#MUSIC:CANDY CANDY.mp3;
#OFFSET:-0.755;
#SAMPLESTART:45.006;
#SAMPLELENGTH:15.000;
#SELECTABLE:YES;
#BPMS:0.000=130.000;
#STOPS:;
#BGCHANGES:;

//---------------dance-single - Chewi----------------
#NOTES:
     dance-single:
     Chewi:
     Easy:
     4:
     0.145,0.178,0.049,0.000,0.000: // measure 1
0000
0000
0000
0000
,  // measure 2
0000
0000
0000
0000
,  // measure 3
0000
0000
0000
0000
,  // measure 4
0000
0000
0000
0000
,  // measure 5
1000
0000
1000
0000
,  // measure 6
0001
0000
0001
0000
,  // measure 7
1000
0000
1000
0000
,  // measure 8
0001
0000
0001
0000
,  // measure 9
1001
0000
1000
0000
,  // measure 10
0001
0000
1000
0000
,  // measure 11
1001
0000
0001
0000
,  // measure 12
1000
0000
0001
0000
,  // measure 13
0110
0000
0100
0000
,  // measure 14
0010
0000
0100
0000
,  // measure 15
0110
0000
0010
0000
,  // measure 16
0100
0000
0010
0000
,  // measure 17
0010
0000
1000
0000
,  // measure 18
0010
0000
1000
0000
,  // measure 19
0001
0000
0100
0000
,  // measure 20
0001
0000
0100
0000
,  // measure 21
0001
0000
1000
0000
,  // measure 22
0001
0000
1000
0000
,  // measure 23
1000
0000
0001
0000
,  // measure 24
1001
0000
0000
0000
,  // measure 25
1000
1000
1000
0000
,  // measure 26
1000
0000
1000
0000
,  // measure 27
0001
0000
0001
0000
,  // measure 28
0100
0000
0100
0000
,  // measure 29
0010
0010
0010
0000
,  // measure 30
0100
0000
0100
0000
,  // measure 31
0001
0000
0001
0000
,  // measure 32
1000
0000
1000
0000
,  // measure 33
1000
1000
1000
0000
,  // measure 34
0001
0000
1000
0000
,  // measure 35
0100
0000
0010
0000
,  // measure 36
0001
0000
1000
0000
,  // measure 37
0001
0001
0001
0000
,  // measure 38
1000
0000
0001
0000
,  // measure 39
0100
0000
0010
0000
,  // measure 40
0010
0010
0010
0000
,  // measure 41
1000
0000
0010
0000
,  // measure 42
0001
0000
0010
0000
,  // measure 43
1000
0000
0100
0000
,  // measure 44
0001
0000
0100
0000
,  // measure 45
1000
0000
0001
0000
,  // measure 46
0001
0000
1000
0000
,  // measure 47
0010
0000
0100
0000
,  // measure 48
0100
0000
0010
0000
,  // measure 49
0110
0000
0000
0000
,  // measure 50
0010
0010
0010
0000
,  // measure 51
0000
0000
0000
0000
,  // measure 52
0000
0000
0000
0000
,  // measure 53
1001
0000
0000
0000
,  // measure 54
1000
1000
1000
0000
,  // measure 55
0000
0000
0000
0000
,  // measure 56
0000
0000
0000
0000
,  // measure 57
1000
1000
1000
0000
,  // measure 58
1000
0000
0001
0000
,  // measure 59
0100
0000
0010
0000
,  // measure 60
1000
0000
0001
0000
,  // measure 61
1000
1000
1000
0000
,  // measure 62
0001
0000
1000
0000
,  // measure 63
0100
0000
0100
0000
,  // measure 64
0010
0000
0010
0000
,  // measure 65
1000
1000
1000
0000
,  // measure 66
0001
0000
1000
0000
,  // measure 67
0001
0000
0100
0000
,  // measure 68
0010
0000
1000
0000
,  // measure 69
0001
0001
0001
0000
,  // measure 70
0001
0000
1000
0000
,  // measure 71
1000
0000
0100
0000
,  // measure 72
0000
0000
0010
0010
,  // measure 73
0010
0000
0000
0000
;

//---------------dance-single - Chewi----------------
#NOTES:
     dance-single:
     Chewi:
     Hard:
     11:
     0.453,0.458,0.247,0.396,0.060:
0000
0000
0000
0000
,
0000
0000
0000
0000
,
0000
0000
0000
0000
,
0000
0000
0000
0000
0000
0000
0000
0000
0000
0000
0000
0000
0000
0000
0001
0100
,
0010
0000
0100
0000
0001
0000
0010
0000
0100
0000
1000
0000
0000
0000
0010
1000
,
0100
0000
1000
0000
0010
0000
0100
0000
0001
0000
1000
0000
0000
0000
0001
0010
,
0100
0000
1000
0000
0010
0000
1000
0000
0100
0000
0010
0000
0000
0000
0001
0010
,
0100
1000
0001
1000
0010
0100
0001
0100
,
0020
0000
0030
0100
0020
0000
0030
0100
,
0001
1000
0001
1000
0100
0100
0100
0000
,
0020
0000
0030
0001
0020
0000
0030
0001
,
1000
1000
0010
1000
0010
0100
0001
0010
,
0200
0000
0300
0010
0200
0000
0300
1000
,
0001
0010
0100
1000
0010
0010
0010
0000
,
2000
0000
3000
0100
2000
0000
3000
0100
,
0010
0001
1000
0010
0100
0010
0100
0010
,
2000
0000
3000
0100
2000
0000
3000
0100
,
0010
0001
0010
1000
0100
0100
0100
0000
,
0020
0000
0030
0100
0020
0000
0030
0100
,
1000
0001
0100
0010
1000
0001
1000
1000
,
0002
0000
0003
0100
0002
0000
0003
0100
,
0010
1000
0100
1000
0010
0010
0010
0000
,
1000
0000
0000
1000
0100
0000
0000
0100
0010
0000
0000
0010
0001
0000
0000
0001
,
1000
0000
0000
0000
0000
0000
0000
0000
1000
0000
0001
1000
0001
0000
0000
0000
,
1001
1001
0110
0110
,
0100
0010
1000
0001
0010
0100
1000
0000
,
1100
0101
1100
0101
,
2000
3002
2003
3000
,
0001
0000
0000
0001
0010
0000
0000
0000
1000
0000
0000
1000
0010
0000
0000
0000
,
0100
0001
1000
0010
0200
0000
0302
0000
,
1003
0010
1000
0000
0001
0100
0001
0000
,
0000
0100
0100
0100
0100
0010
0100
0000
,
1001
1001
0110
0110
,
0010
0100
0001
1000
0100
0010
0001
0000
,
0011
1010
0011
1010
,
0002
2003
3002
0003
,
1000
0000
0000
1000
0100
0000
0000
0000
0001
0000
0000
0001
0100
0000
0000
0000
,
0010
1000
0001
0100
0020
0000
2030
0000
,
3001
0100
0001
0000
1000
0010
1000
0000
,
0000
0000
0000
0010
0010
0010
0010
0000
,
0000
1000
0100
0001
0000
1000
0010
0001
,
0000
2000
3200
0302
0003
2000
3020
0032
,
0003
0001
1000
0010
0000
1000
0001
0010
,
0000
0002
2003
3020
0030
2000
3002
0023
,
0030
0001
0010
0100
0000
1000
0100
0010
,
0000
0002
0023
0230
0300
2000
3200
0320
,
0030
0001
1000
0100
0000
1000
0001
0100
,
0000
0100
0100
0100
0010
0010
0010
0000
,
1000
1000
0001
0001
,
1000
0100
0010
0001
0020
0000
0002
0000
,
0033
0000
0000
0000
,
0000
0000
0000
0000
,
0001
0001
1000
1000
,
0001
1000
0010
0100
0020
0000
0200
0000
,
0330
0000
0000
0000
,
0000
0000
0000
0000
,
1001
1001
0110
0110
,
0100
0010
1000
0001
0010
0100
1000
0000
,
1100
0101
1100
0101
,
2000
3002
2003
3000
,
0001
0000
0000
0001
0010
0000
0000
0000
1000
0000
0000
1000
0010
0000
0000
0000
,
0100
0001
1000
0010
0200
0000
0302
0000
,
1003
0010
1000
0000
0001
0100
0001
0000
,
0000
0100
0100
0100
0100
0010
0100
0000
,
1001
1001
0110
0110
,
0010
0100
0001
1000
0100
0010
0001
0000
,
0011
1010
0011
1010
,
0002
2003
3002
0003
,
1000
0000
0000
1000
0100
0000
0000
0000
0001
0000
0000
0001
0100
0000
0000
0000
,
0010
1000
0001
0100
0020
0000
2030
0000
,
3001
0100
0001
0000
1000
0010
1000
0000
,
0000
0000
1001
0110
,
1001
0000
0000
0000
;

//---------------dance-single - Chewi----------------
#NOTES:
     dance-single:
     Chewi:
     Medium:
     6:
     0.215,0.229,0.021,0.304,0.000:
0000
0000
0000
0000
,
0000
0000
0000
0000
,
0000
0000
0000
0000
,
0000
0000
0000
0000
,
1000
0001
0100
0000
,
0001
1000
0100
0000
,
1000
0001
0010
0000
,
0001
1000
0010
0000
,
0010
0000
0010
0000
,
0010
0100
0010
0100
,
0001
0000
1000
0000
,
0001
1000
0001
0000
,
1000
0000
0100
0000
,
1000
0100
1000
0100
,
0010
0000
0010
0000
,
0100
0010
0100
0000
,
0110
0000
0100
0000
,
1000
0001
0100
0010
,
0100
0000
0010
0000
,
0100
0010
1000
0000
,
1001
0000
0001
0000
,
1000
0001
1000
0100
,
0010
0010
0010
0010
,
0010
0000
0000
0000
,
2000
3000
2000
3000
,
1000
0001
1000
0000
,
0002
0003
0002
0003
,
0001
1000
0001
0000
,
0200
0300
0200
0300
,
0100
0010
0100
0000
,
0020
0030
0020
0030
,
0000
0100
0100
0100
,
0020
0030
0200
0300
,
0010
0100
0010
0000
,
2000
3000
0002
0003
,
1000
0001
1000
0000
,
0002
0003
2000
3000
,
0001
1000
0001
0000
,
2000
3000
0200
0300
,
0020
0030
0002
0003
,
0001
0000
0001
0000
,
0002
0003
0002
0003
,
0100
0000
0100
0000
,
0200
0300
0200
0300
,
0010
0000
0010
0000
,
0020
0030
0020
0030
,
1000
0000
1000
0000
,
2000
3000
2000
3000
,
1000
1000
0001
0000
,
0001
0010
0100
1000
,
0000
0000
0000
0000
,
0000
0000
0000
0000
,
0001
0001
1000
0000
,
1000
0010
0100
0001
,
0000
0000
0000
0000
,
1001
0000
0000
0000
,
2000
3000
2000
3000
,
1000
0001
1000
0000
,
0002
0003
0002
0003
,
0001
1000
0001
0000
,
0200
0300
0200
0300
,
0100
0010
0100
0000
,
0020
0030
0020
0030
,
0000
0100
0100
0100
,
0020
0030
0200
0300
,
0010
0100
0010
0000
,
2000
3000
0002
0003
,
1000
0001
1000
0000
,
0002
0003
2000
3000
,
0001
1000
0001
0000
,
2000
3000
0200
0300
,
0020
0030
0001
0001
,
0001
0000
0000
0000
;

//---------------dance-single - Chewi----------------
#NOTES:
     dance-single:
     Chewi:
     Beginner:
     1:
     0.093,0.153,0.049,0.000,0.000: // measure 1
0000
0000
0000
0000
,  // measure 2
0000
0000
0000
0000
,  // measure 3
0000
0000
0000
0000
,  // measure 4
0000
0000
0000
0000
,  // measure 5
1000
0000
0000
0000
,  // measure 6
0001
0000
0000
0000
,  // measure 7
1000
0000
0000
0000
,  // measure 8
0001
0000
0000
0000
,  // measure 9
1001
0000
0000
0000
,  // measure 10
0001
0000
0000
0000
,  // measure 11
1001
0000
0000
0000
,  // measure 12
1000
0000
0000
0000
,  // measure 13
0110
0000
0000
0000
,  // measure 14
0010
0000
0000
0000
,  // measure 15
0110
0000
0000
0000
,  // measure 16
0100
0000
0000
0000
,  // measure 17
0010
0000
0000
0000
,  // measure 18
0010
0000
0000
0000
,  // measure 19
0001
0000
0000
0000
,  // measure 20
0001
0000
0000
0000
,  // measure 21
0001
0000
0000
0000
,  // measure 22
0001
0000
0000
0000
,  // measure 23
1000
0000
0000
0000
,  // measure 24
1001
0000
0000
0000
,  // measure 25
1000
0000
1000
0000
,  // measure 26
1000
0000
0000
0000
,  // measure 27
0001
0000
0001
0000
,  // measure 28
0001
0000
0000
0000
,  // measure 29
0010
0000
0010
0000
,  // measure 30
0010
0000
0000
0000
,  // measure 31
0100
0000
0100
0000
,  // measure 32
0100
0000
0000
0000
,  // measure 33
1000
0000
1000
0000
,  // measure 34
1000
0000
0000
0000
,  // measure 35
0100
0000
0100
0000
,  // measure 36
0100
0000
0000
0000
,  // measure 37
0001
0000
0001
0000
,  // measure 38
0001
0000
0000
0000
,  // measure 39
0010
0000
0010
0000
,  // measure 40
0010
0000
0000
0000
,  // measure 41
1000
0000
0000
0000
,  // measure 42
0001
0000
0000
0000
,  // measure 43
1000
0000
0000
0000
,  // measure 44
0001
0000
0000
0000
,  // measure 45
1000
0000
0000
0000
,  // measure 46
0001
0000
0000
0000
,  // measure 47
0010
0000
0000
0000
,  // measure 48
0100
0000
0000
0000
,  // measure 49
0110
0000
0000
0000
,  // measure 50
0010
0000
0010
0000
,  // measure 51
0000
0000
0000
0000
,  // measure 52
0000
0000
0000
0000
,  // measure 53
1001
0000
0000
0000
,  // measure 54
1000
0000
1000
0000
,  // measure 55
0000
0000
0000
0000
,  // measure 56
0000
0000
0000
0000
,  // measure 57
1000
0000
1000
0000
,  // measure 58
1000
0000
0000
0000
,  // measure 59
0100
0000
0100
0000
,  // measure 60
0100
0000
0000
0000
,  // measure 61
0001
0000
0001
0000
,  // measure 62
0001
0000
0000
0000
,  // measure 63
0100
0000
0100
0000
,  // measure 64
0100
0000
0000
0000
,  // measure 65
1000
0000
1000
0000
,  // measure 66
1000
0000
0000
0000
,  // measure 67
0001
0000
0001
0000
,  // measure 68
0001
0000
0000
0000
,  // measure 69
0100
0000
0100
0000
,  // measure 70
0100
0000
0000
0000
,  // measure 71
0010
0000
0010
0000
,  // measure 72
0010
0000
0010
0010
,  // measure 73
0010
0000
0000
0000
;
