#TITLE:CAN'T NOBODY;
#SUBTITLE:;
#ARTIST:2NE1;
#TITLETRANSLIT:;
#SUBTITLETRANSLIT:;
#ARTISTTRANSLIT:;
#GENRE:;
#CREDIT:yamamoto_;
#MENUCOLOR:;
#METERTYPE:DDR X;
#BANNER:CAN'T NOBODY.png;
#BACKGROUND:CAN'T NOBODY-bg.png;
#LYRICSPATH:;
#CDTITLE:;
#MUSIC:CAN'T NOBODY.mp3;
#OFFSET:-0.380;
#SAMPLESTART:59.457;
#SAMPLELENGTH:15.000;
#SELECTABLE:YES;
#LISTSORT:;
#DISPLAYBPM:130.000;
#BPMS:0.000=130.000,208.000=260.000,232.000=130.000;
#STOPS:;
#BGCHANGES:;
#ATTACKS:;

//---------------dance-single - yamamoto_----------------
#NOTES:
     dance-single:
     yamamoto_:
     Hard:
     10:
     0.402,0.508,0.148,0.338,0.025: // measure 1
0000
0000
0000
0000
,  // measure 2
0000
0000
0000
0000
,  // measure 3
0000
0000
0000
0000
,  // measure 4
0000
0000
0000
0000
,  // measure 5
2100
0000
3100
0000
1000
0100
1000
0000
,  // measure 6
0102
0000
0103
0000
0001
0100
0001
0000
,  // measure 7
0200
0320
2030
3002
,  // measure 8
1003
0100
0010
0001
0020
0000
0000
0000
,  // measure 9
0031
0000
0010
0000
0100
1000
0010
0000
,  // measure 10
1000
0000
0100
0000
0010
0001
1000
0000
,  // measure 11
0010
0000
0100
0000
0001
0100
0010
0000
,  // measure 12
1000
0000
0001
0000
1000
0100
1000
0000
,  // measure 13
0100
0000
0010
0000
0100
1000
0010
0000
,  // measure 14
0100
0000
0001
0000
0010
0100
0010
0000
,  // measure 15
0001
0000
0010
0000
0100
1000
0100
0000
,  // measure 16
1000
0000
0001
0000
1000
0010
0100
0000
,  // measure 17
0002
0000
0103
0000
0010
1000
0001
1000
,  // measure 18
0020
0000
0130
0000
0001
1000
0100
1000
,  // measure 19
0002
0000
0103
0000
0010
1000
0100
1000
,  // measure 20
0020
0000
0130
0000
0001
0010
0100
0010
,  // measure 21
0001
0000
0100
0000
1000
0010
0001
0000
,  // measure 22
0010
0000
1000
0000
0100
0001
0010
0000
,  // measure 23
1000
0000
0010
0000
0001
0100
1000
0000
,  // measure 24
0010
0000
1000
0000
0100
0010
0100
0000
,  // measure 25
2000
0000
3100
0000
0010
0100
1100
0000
,  // measure 26
0002
0000
0103
0000
0010
0100
0101
0000
,  // measure 27
0200
0000
0310
0000
0100
0010
0110
0000
,  // measure 28
0020
0000
0130
0000
0010
0100
0110
0000
,  // measure 29
1000
0000
0100
0000
0010
0001
0100
0000
,  // measure 30
0001
0000
0100
0000
0010
1000
0100
0000
,  // measure 31
1000
0000
0001
0000
1000
0100
0010
0000
,  // measure 32
0001
0000
1000
0000
0001
0100
0010
0000
,  // measure 33
2000
3020
0230
0302
,  // measure 34
1003
0000
0000
0100
0000
0000
0010
0000
0000
0000
0000
0000
0000
0000
0000
0000
,  // measure 35
0002
0023
0230
2300
,  // measure 36
3010
0000
0000
1000
0000
0000
0010
0000
0000
0000
1000
0000
0100
0000
1000
0000
,  // measure 37
0100
0010
0100
2000
0000
3001
0000
0000
,  // measure 38
0001
0100
0010
0200
0000
0301
1000
0001
,  // measure 39
2000
0010
0001
3100
,  // measure 40
0002
1000
0100
1003
,  // measure 41
1000
0001
1000
0001
0100
0010
0100
0010
,  // measure 42
0100
0000
0000
0100
0000
0000
0100
0000
0000
0000
0000
0000
0000
0000
0000
0000
,  // measure 43
0010
1000
0010
1000
0100
1000
0100
1000
,  // measure 44
0100
0000
0000
0010
0000
0000
0001
0000
0000
0000
0000
0000
0000
0000
0000
0000
,  // measure 45
1000
0100
0010
0100
1000
0100
0010
0100
,  // measure 46
1000
0000
0000
1000
0000
0000
1000
0000
0000
0000
0000
0000
0000
0000
0000
0000
,  // measure 47
1001
0000
0000
1000
0000
0000
1000
0000
0000
0000
0010
0000
0000
0000
0100
0000
,  // measure 48
0101
0000
0000
0100
0000
0000
0100
0000
0010
0000
1000
0000
0001
0000
0000
0000
,  // measure 49
0020
0000
2030
0000
,  // measure 50
3200
0000
0302
0000
,  // measure 51
0023
0000
2030
0000
,  // measure 52
3200
0000
0320
0000
,  // measure 53
0032
0000
0000
0000
,  // measure 54
0000
0000
0000
0000
,  // measure 55
0000
0000
0000
0000
,  // measure 56
0000
0000
0000
0000
,  // measure 57
0000
0000
0000
0000
,  // measure 58
0000
0000
0000
0000
,  // measure 59
1003
0000
1000
0000
0001
0100
0010
1000
,  // measure 60
0001
0000
0001
0000
0100
0010
0100
0001
,  // measure 61
0010
0000
0010
0000
0100
1000
0010
1000
,  // measure 62
0200
0302
0023
2030
,  // measure 63
3100
0000
0010
0000
0100
1000
0010
1000
,  // measure 64
0100
0000
1000
0000
0010
0100
0001
0100
,  // measure 65
0010
0000
0100
0000
0001
1000
0100
0010
,  // measure 66
0002
0023
0230
2300
,  // measure 67
3001
0000
1000
0000
0010
0100
0001
1000
,  // measure 68
0100
0000
0010
0000
0100
1000
0010
1000
,  // measure 69
0100
0000
0010
0000
0001
0100
0010
0100
,  // measure 70
0002
2003
3200
0320
,  // measure 71
0031
0000
0010
0000
0100
0010
0001
0100
,  // measure 72
0010
0000
0100
0000
0010
1000
0100
1000
,  // measure 73
0010
0000
0100
0000
0001
0100
0010
1000
,  // measure 74
1010
0101
1010
0101
,  // measure 75
0011
0000
1100
0000
0011
0000
1100
0100
,  // measure 76
1100
1010
0011
0101
,  // measure 77
0110
0000
0000
0000
;

//---------------dance-single - yamamoto_----------------
#NOTES:
     dance-single:
     yamamoto_:
     Medium:
     7:
     0.338,0.508,0.218,0.211,0.000: // measure 1
0000
0000
0000
0000
,  // measure 2
0000
0000
0000
0000
,  // measure 3
0000
0000
0000
0000
,  // measure 4
0000
0000
0000
0000
,  // measure 5
0010
1000
0100
0000
,  // measure 6
0100
0001
0010
0000
,  // measure 7
0110
0000
0110
0000
,  // measure 8
0100
0000
0010
0000
0100
0010
0100
0010
,  // measure 9
0100
1000
0010
0100
,  // measure 10
0001
0100
0110
0000
,  // measure 11
0010
1000
0001
0010
,  // measure 12
0100
1000
1100
0000
,  // measure 13
1000
0001
0100
0010
,  // measure 14
1000
0100
1100
0000
,  // measure 15
1000
0100
0010
0001
,  // measure 16
0100
0001
0101
0000
,  // measure 17
0001
1000
0100
0000
0010
0100
0010
0000
,  // measure 18
0001
1001
0010
0110
,  // measure 19
0010
0100
0001
0000
0001
0001
1000
0000
,  // measure 20
1000
1100
0001
0011
,  // measure 21
1000
0000
0100
0000
0010
0100
1000
0000
,  // measure 22
0010
0000
0100
0000
0001
0100
0010
0000
,  // measure 23
1000
1000
0001
0001
,  // measure 24
1000
0100
1000
0000
0001
0010
0001
0000
,  // measure 25
0200
0310
0020
0130
,  // measure 26
0100
0001
0010
0100
,  // measure 27
2000
3100
0002
0103
,  // measure 28
1000
0010
0100
0001
,  // measure 29
2000
3010
0002
0013
,  // measure 30
1000
0100
0010
0001
,  // measure 31
0002
0103
2000
3010
,  // measure 32
0010
0100
0001
1000
,  // measure 33
0002
0203
0320
2030
,  // measure 34
0001
0000
0000
3001
0000
0000
0000
0000
,  // measure 35
2000
3200
0320
0032
,  // measure 36
1000
0000
0000
1003
0000
0000
1000
0000
,  // measure 37
0001
1000
0001
0000
1001
0000
0000
0000
,  // measure 38
1000
0001
1000
0000
1001
0000
0000
0000
,  // measure 39
1000
0010
0001
0100
,  // measure 40
1000
0100
0001
0010
,  // measure 41
0200
2300
3020
2030
,  // measure 42
0100
0000
0000
3100
0000
0000
0000
0000
,  // measure 43
0200
0320
0032
0203
,  // measure 44
0010
0000
0000
0310
0000
0010
0010
0000
,  // measure 45
0200
0320
2030
3002
,  // measure 46
2003
0000
0001
0000
0000
3001
0000
0000
,  // measure 47
0001
0000
0000
1001
0000
0010
0000
0000
,  // measure 48
0110
0000
0000
0100
0000
0000
0010
0000
,  // measure 49
0001
0010
0100
1000
,  // measure 50
0001
0010
0100
1000
,  // measure 51
0001
0000
1000
0000
0010
0100
0010
0000
,  // measure 52
0100
0000
0010
0000
1000
1000
0001
0000
,  // measure 53
2000
0000
0000
0000
,  // measure 54
0000
0000
0000
0000
,  // measure 55
0000
0000
0000
0000
,  // measure 56
0000
0000
0000
0000
,  // measure 57
0000
0000
0000
0000
,  // measure 58
0000
0000
0000
0000
,  // measure 59
3001
0000
1000
0000
0010
0010
0100
0000
,  // measure 60
0010
1000
0100
0001
,  // measure 61
0010
0000
1000
0000
0100
0100
1000
0000
,  // measure 62
0010
0100
0001
0101
,  // measure 63
1000
0000
0100
0000
0010
0001
0010
0000
,  // measure 64
0100
1000
0010
0001
,  // measure 65
0100
0100
0010
0000
0001
0000
1000
0000
,  // measure 66
0001
0010
1000
1100
,  // measure 67
0010
0000
0011
0000
0001
0010
0100
1000
,  // measure 68
0010
1000
0100
0010
,  // measure 69
0001
1000
0001
0000
1000
0001
1000
0000
,  // measure 70
1000
0010
0100
0001
,  // measure 71
0100
0000
0101
0000
0001
0100
0010
1000
,  // measure 72
0001
1000
0100
0001
,  // measure 73
0010
1000
0010
0000
1000
0100
0010
0000
,  // measure 74
0011
0011
0011
0011
,  // measure 75
1100
0000
1100
0000
1100
0000
1100
1000
,  // measure 76
1001
1001
1001
1001
,  // measure 77
0110
0000
0000
0000
;

//---------------dance-single - yamamoto_----------------
#NOTES:
     dance-single:
     yamamoto_:
     Beginner:
     3:
     0.145,0.241,0.035,0.042,0.000: // measure 1
0000
0000
0000
0000
,  // measure 2
0000
0000
0000
0000
,  // measure 3
0000
0000
0000
0000
,  // measure 4
0000
0000
0000
0000
,  // measure 5
2000
0000
3000
0000
,  // measure 6
0002
0000
0003
0000
,  // measure 7
0100
0000
0010
0000
,  // measure 8
1000
0000
0001
0000
,  // measure 9
1000
0000
1000
0000
,  // measure 10
0001
0000
0001
0000
,  // measure 11
0001
0000
0010
0000
,  // measure 12
1000
0000
0000
0000
,  // measure 13
0010
0000
0010
0000
,  // measure 14
1000
0000
0001
0000
,  // measure 15
1000
0000
0010
0000
,  // measure 16
0001
0000
0010
0000
,  // measure 17
0100
0000
0100
0000
,  // measure 18
0010
0000
0010
0000
,  // measure 19
0001
0000
0001
0000
,  // measure 20
1000
0000
1000
0000
,  // measure 21
0010
0000
0100
0000
,  // measure 22
0010
0000
0100
0000
,  // measure 23
0100
0000
1000
0000
,  // measure 24
0100
0000
0001
0000
,  // measure 25
0001
0000
0001
0000
,  // measure 26
1000
0000
1000
0000
,  // measure 27
0010
0000
0010
0000
,  // measure 28
0100
0000
0100
0000
,  // measure 29
0001
0000
0100
0000
,  // measure 30
0001
0000
1000
0000
,  // measure 31
0100
0000
0010
0000
,  // measure 32
1000
0000
0010
0000
,  // measure 33
0001
0000
0001
0000
,  // measure 34
0010
0000
0100
0000
,  // measure 35
0100
0000
1000
0000
,  // measure 36
1000
0000
0010
0000
,  // measure 37
1000
0000
1001
0000
,  // measure 38
0001
0000
1001
0000
,  // measure 39
0010
0000
0001
0000
,  // measure 40
0100
0000
0001
0000
,  // measure 41
1000
0000
0100
0000
,  // measure 42
0100
0000
0010
0000
,  // measure 43
1000
0000
0010
0000
,  // measure 44
1000
0000
0001
0000
,  // measure 45
0001
0000
0010
0000
,  // measure 46
0001
0000
1000
0000
,  // measure 47
1000
0000
0010
0000
,  // measure 48
0001
0000
0001
0000
,  // measure 49
0200
0000
0000
0300
,  // measure 50
0020
0000
0000
0030
,  // measure 51
0200
0000
0000
0300
,  // measure 52
0020
0000
0000
0030
,  // measure 53
1000
0000
0000
0000
,  // measure 54
0000
0000
0000
0000
,  // measure 55
0000
0000
0000
0000
,  // measure 56
0000
0000
0000
0000
,  // measure 57
0000
0000
0000
0000
,  // measure 58
0000
0000
0000
0000
,  // measure 59
0001
0000
0001
0000
,  // measure 60
0010
0000
1000
0000
,  // measure 61
0010
0000
0000
1000
,  // measure 62
0001
0000
0010
0000
,  // measure 63
1001
0000
1000
0000
,  // measure 64
0100
0000
0001
0000
,  // measure 65
0100
0000
1000
0000
,  // measure 66
0001
0000
1000
0000
,  // measure 67
0110
0000
0100
0000
,  // measure 68
0010
0000
0100
0000
,  // measure 69
0010
0000
1000
0000
,  // measure 70
0001
0000
1000
0000
,  // measure 71
1001
0000
0100
0000
,  // measure 72
0001
0000
0001
0000
,  // measure 73
0100
0000
1000
0000
,  // measure 74
0010
0010
0010
0010
,  // measure 75
0001
0001
0001
0001
,  // measure 76
1000
1000
1000
1000
,  // measure 77
1000
0000
0000
0000
;

//---------------dance-single - yamamoto_----------------
#NOTES:
     dance-single:
     yamamoto_:
     Easy:
     5:
     0.249,0.321,0.056,0.310,0.000: // measure 1
0000
0000
0000
0000
,  // measure 2
0000
0000
0000
0000
,  // measure 3
0000
0000
0000
0000
,  // measure 4
0000
0000
0000
0000
,  // measure 5
2000
0000
3100
0000
,  // measure 6
0002
0000
0103
0000
,  // measure 7
0100
0100
0010
0010
,  // measure 8
1000
1000
0001
0001
,  // measure 9
1000
0100
0010
0000
,  // measure 10
0001
0000
0001
0000
,  // measure 11
0001
0100
0010
0000
,  // measure 12
1000
0000
1000
0000
,  // measure 13
0010
0100
0010
0000
,  // measure 14
1000
0000
0001
0000
,  // measure 15
1000
0100
0010
0000
,  // measure 16
0001
0000
0010
0000
,  // measure 17
0100
0100
0200
0300
,  // measure 18
0010
0010
0020
0030
,  // measure 19
0001
0001
0002
0003
,  // measure 20
1000
1000
2000
3000
,  // measure 21
0010
1000
0100
0000
,  // measure 22
0010
0001
0100
0000
,  // measure 23
0100
0010
1000
0000
,  // measure 24
0100
0010
0001
0000
,  // measure 25
0001
0001
0002
0000
,  // measure 26
1003
1000
2000
0000
,  // measure 27
3010
0010
0020
0000
,  // measure 28
0130
0100
0200
0000
,  // measure 29
0301
0010
0200
0300
,  // measure 30
0001
0010
2000
3000
,  // measure 31
0100
0001
0020
0030
,  // measure 32
1000
0100
0020
0030
,  // measure 33
0002
2003
3002
2003
,  // measure 34
3020
0000
0130
0000
,  // measure 35
0200
0320
2030
3002
,  // measure 36
2003
0000
3010
0000
,  // measure 37
1000
1000
1001
0000
,  // measure 38
0001
0001
1001
0000
,  // measure 39
0010
0100
0001
1000
,  // measure 40
0100
0010
0001
1000
,  // measure 41
2000
3002
0203
0320
,  // measure 42
0230
0000
0310
0000
,  // measure 43
2000
3200
0320
0032
,  // measure 44
2003
0000
3001
0000
,  // measure 45
0002
0203
0320
2030
,  // measure 46
3002
0000
1003
0000
,  // measure 47
1000
0100
0010
0000
,  // measure 48
0001
1000
0001
0000
,  // measure 49
0200
0000
0000
0000
,  // measure 50
0320
0000
0000
0000
,  // measure 51
0230
0000
0000
0000
,  // measure 52
0320
0000
0000
0000
,  // measure 53
2030
0000
0000
0000
,  // measure 54
0000
0000
0000
0000
,  // measure 55
0000
0000
0000
0000
,  // measure 56
0000
0000
0000
0000
,  // measure 57
0000
0000
0000
0000
,  // measure 58
0000
0000
0000
0000
,  // measure 59
3001
0000
0001
0010
,  // measure 60
0010
0000
1000
0010
,  // measure 61
0010
0000
1000
1000
,  // measure 62
0001
0100
0010
1000
,  // measure 63
1001
0000
1000
0100
,  // measure 64
0100
0000
0001
0100
,  // measure 65
0100
0000
1000
0100
,  // measure 66
0001
0010
1000
0010
,  // measure 67
0110
0000
0100
0010
,  // measure 68
0010
0000
0100
0010
,  // measure 69
0010
0000
1000
0100
,  // measure 70
0001
0010
1000
0100
,  // measure 71
1100
0000
0100
0010
,  // measure 72
0001
0000
0001
0010
,  // measure 73
0100
0000
1000
0100
,  // measure 74
0010
0010
0010
0110
,  // measure 75
0010
0010
0010
0011
,  // measure 76
0001
0001
0001
1001
,  // measure 77
1000
0000
0000
0000
;

//---------------dance-single - yamamoto_----------------
#NOTES:
     dance-single:
     yamamoto_:
     Challenge:
     13:
     0.581,0.561,0.288,0.204,0.225: // measure 1
0000
0000
0000
0000
,  // measure 2
0000
0000
0000
0000
,  // measure 3
0000
0000
0000
0000
,  // measure 4
0000
0000
0000
0000
,  // measure 5
2010
0000
3001
0000
1000
0100
1100
0000
,  // measure 6
0102
0000
1003
0000
0001
0100
0101
0000
,  // measure 7
0100
0100
0010
0010
1000
1000
0001
0001
,  // measure 8
1000
0000
0100
0000
0010
0000
0001
0000
0010
0001
0010
0001
0010
0001
0010
0001
,  // measure 9
0010
1100
0010
0101
,  // measure 10
0100
0010
1000
0001
0010
0100
1000
0010
,  // measure 11
1000
1010
0001
0101
,  // measure 12
0100
0000
0010
0000
0100
0000
0001
0000
0010
0001
0010
0000
0011
0000
0000
0000
,  // measure 13
0001
0010
0100
1000
0010
1000
1100
0000
,  // measure 14
1000
0010
0100
0001
0100
0010
0101
0000
,  // measure 15
0100
0010
1000
0001
0010
0100
1100
0000
,  // measure 16
1000
0100
0000
0100
1000
0000
0001
0000
0100
0000
0010
0000
1010
0000
0000
0000
,  // measure 17
0010
0000
0100
0000
0010
0000
1000
0000
0001
1000
0001
0000
1000
0001
1000
0000
,  // measure 18
1000
0000
0100
0000
0010
0000
0001
0000
0010
0001
0010
0000
0001
0010
0001
0000
,  // measure 19
0001
0000
0010
0000
0100
0000
1000
0000
0010
1000
0010
0000
1000
0010
1000
0000
,  // measure 20
1000
0000
0001
0000
0100
0000
0010
0000
1000
0001
0000
0001
1000
0000
0010
0000
,  // measure 21
0100
0000
0001
0000
0100
0000
0010
0000
1000
0010
1000
0000
0001
0100
0001
0000
,  // measure 22
1000
0000
0100
0000
0010
0000
0001
0000
0010
0001
0010
0000
0100
1000
0100
0000
,  // measure 23
1000
0000
0001
0000
0100
0000
0010
0000
0100
0010
0100
0000
0010
0100
0010
0000
,  // measure 24
0100
0010
0000
0010
0100
0000
0001
0000
1000
0100
0000
0100
1000
0000
0001
0000
,  // measure 25
1000
0000
0100
0000
0010
0000
0001
0000
1000
0000
0100
1000
0000
1000
0100
0000
,  // measure 26
1000
0000
0001
0000
0100
0000
0010
0000
0100
0000
0001
0100
0000
0100
0001
0000
,  // measure 27
0010
0000
0100
0000
1000
0000
0001
0000
0100
0000
0010
0100
0000
0100
0010
0000
,  // measure 28
1000
0000
0010
0000
0100
0000
0001
0000
0010
0000
0001
0010
0000
0010
0001
0000
,  // measure 29
0010
0000
0100
0000
1000
0000
0001
0000
1000
0000
0010
1000
0000
1000
0010
0000
,  // measure 30
1000
0000
0001
0000
0010
0000
0100
0000
1000
0000
0010
1000
0000
1000
0100
0000
,  // measure 31
1000
0000
0010
0000
0100
0000
0001
0000
0010
0000
0100
0010
0000
0010
0100
0000
,  // measure 32
0010
0000
0001
0000
0100
0000
0010
0000
0100
0000
0001
0100
0000
0100
0001
0000
,  // measure 33
1001
1100
1001
0101
,  // measure 34
1000
0100
0001
0010
1000
0100
0001
0000
,  // measure 35
1001
0101
1001
1100
,  // measure 36
1000
0010
0001
0100
1000
0010
0100
0001
,  // measure 37
0100
0001
0010
0000
0100
0000
1000
0000
0010
0000
1000
0000
1100
0000
0000
0000
,  // measure 38
1000
0100
0010
0000
0001
0000
0010
0000
0100
0000
1000
0000
1001
0000
0000
0000
,  // measure 39
1000
1000
0001
0001
0100
0100
0010
0010
,  // measure 40
1000
0010
1000
0000
0001
0100
0001
0000
1000
0100
1000
0000
0100
1000
0100
0000
,  // measure 41
1000
0010
0100
0001
1000
0010
0100
0001
,  // measure 42
1002
0000
0000
0010
0000
0000
0200
0000
0303
0000
0010
0000
0100
0000
0010
0000
,  // measure 43
1000
1000
0001
0001
0010
0010
0100
0100
,  // measure 44
2100
0000
0000
0001
0000
0000
0020
0000
3030
0000
0010
0000
0010
0000
0000
0000
,  // measure 45
0001
0010
0100
1000
0001
0010
0100
1000
,  // measure 46
2001
0000
0000
0010
0000
0000
0200
0000
3300
0000
0010
0000
0001
0000
0010
0000
,  // measure 47
1100
0000
0000
0011
0000
0000
1100
0000
0000
0000
0001
0000
0000
0000
1000
0000
,  // measure 48
1010
0000
0000
0101
0000
0000
1010
0000
0000
0000
0010
0000
1000
0000
0010
0000
,  // measure 49
1000
0100
0001
0100
1000
0100
0001
0100
,  // measure 50
1000
0010
0001
0010
1000
0010
0001
0010
,  // measure 51
1000
0100
0001
0010
1000
0100
0001
0010
,  // measure 52
1000
0100
0010
0001
1000
0100
0010
0001
,  // measure 53
2000
0000
0000
0000
,  // measure 54
0000
0000
0000
0000
,  // measure 55
0000
0000
0000
0000
,  // measure 56
0000
0000
0000
0000
,  // measure 57
0000
0000
0000
0000
,  // measure 58
0000
0000
0000
0000
,  // measure 59
3002
1000
1003
0000
1000
0001
0100
0010
,  // measure 60
2010
0000
3001
0000
1000
0100
0001
0010
,  // measure 61
2000
0100
3100
0000
0010
0100
1000
0010
,  // measure 62
1000
0010
1000
0000
0001
0100
0001
0000
1000
0100
1000
0000
0001
0010
0001
0000
,  // measure 63
0020
0100
0130
0000
1000
0001
0100
0010
,  // measure 64
1002
0000
0103
0000
0100
0010
1000
0001
,  // measure 65
2000
0100
3100
0000
1000
0100
0010
0001
,  // measure 66
0001
0010
0001
0000
1000
0100
1000
0000
0001
0100
0001
0000
1000
0010
1000
0000
,  // measure 67
0020
1000
1030
0000
1000
0100
0010
0001
,  // measure 68
0102
0000
0013
0000
0001
0010
0100
1000
,  // measure 69
2000
0100
3100
0000
1000
0010
0001
0010
,  // measure 70
1000
0100
1000
0000
0100
0010
0100
0000
0010
0001
0010
0000
0001
1000
0001
0000
,  // measure 71
0002
0100
0103
0000
0010
1000
0100
0001
,  // measure 72
0021
0000
1030
0000
0010
0001
0010
0100
,  // measure 73
2000
0100
3100
0000
0001
0100
0010
1000
,  // measure 74
2010
3001
0012
1003
,  // measure 75
2100
0000
3010
0000
0102
0000
0013
0010
,  // measure 76
1200
0302
0023
2030
,  // measure 77
3001
0000
0000
0000
;
