#VERSION:0.83;
#TITLE:CAN'T DANCE;
#SUBTITLE:;
#ARTIST:Meghan Trainor;
#TITLETRANSLIT:;
#SUBTITLETRANSLIT:;
#ARTISTTRANSLIT:;
#GENRE:Pop;
#ORIGIN:;
#CREDIT:chewi;
#BANNER:CAN'T DANCE.png;
#BACKGROUND:CAN'T DANCE-bg.png;
#PREVIEWVID:;
#JACKET:CAN'T DANCE-jacket.png;
#CDIMAGE:;
#DISCIMAGE:;
#LYRICSPATH:;
#CDTITLE:cdtitle.png;
#MUSIC:CAN'T DANCE.ogg;
#OFFSET:-0.419000;
#SAMPLESTART:22.559000;
#SAMPLELENGTH:15.000000;
#SELECTABLE:YES;
#DISPLAYBPM:107.000000;
#BPMS:0.000=107.000;
#STOPS:;
#DELAYS:;
#WARPS:;
#TIMESIGNATURES:0.000=4=4;
#TICKCOUNTS:0.000=4;
#COMBOS:0.000=1;
#SPEEDS:0.000=1.000=0.000=0;
#SCROLLS:0.000=1.000;
#FAKES:;
#LABELS:0.000=Song Start;
#BGCHANGES:;
#KEYSOUNDS:;
#ATTACKS:
;

//---------------dance-single - ----------------
#NOTEDATA:;
#CHARTNAME:;
#STEPSTYPE:dance-single;
#DESCRIPTION:;
#CHARTSTYLE:;
#DIFFICULTY:Beginner;
#METER:2;
#RADARVALUES:0.101014,0.171724,0.067343,0.033671,0.000000,84.000000,76.000000,8.000000,4.000000,0.000000,0.000000,0.000000,0.000000,0.000000,0.101014,0.171724,0.067343,0.033671,0.000000,84.000000,76.000000,8.000000,4.000000,0.000000,0.000000,0.000000,0.000000,0.000000;
#CREDIT:;
#DISPLAYBPM:130.000000;
#NOTES:
// measure 0
0000
0000
0000
0000
,  // measure 1
0000
0000
0000
0000
,  // measure 2
0000
0000
0000
0000
,  // measure 3
0000
0000
0000
0000
,  // measure 4
1000
0000
0000
0000
,  // measure 5
0001
0000
0000
0000
,  // measure 6
0100
0000
0000
0000
,  // measure 7
0010
0000
0000
0000
,  // measure 8
0110
0000
0000
0000
,  // measure 9
1001
0000
0000
0000
,  // measure 10
0000
1000
0000
1000
,  // measure 11
0000
1000
1000
0000
,  // measure 12
0000
0001
0000
0001
,  // measure 13
0000
0001
0001
0000
,  // measure 14
0000
0100
0000
0100
,  // measure 15
0000
0100
0100
0000
,  // measure 16
0000
0010
0000
0010
,  // measure 17
0000
0010
0010
0000
,  // measure 18
0110
0000
0000
0000
,  // measure 19
1001
0000
0000
0000
,  // measure 20
1000
0000
0000
0000
,  // measure 21
1000
0000
0000
0000
,  // measure 22
1000
0000
0000
0000
,  // measure 23
0010
0000
0000
0000
,  // measure 24
0001
0000
0000
0000
,  // measure 25
0100
0000
0000
0000
,  // measure 26
1000
0000
0000
0000
,  // measure 27
0100
0000
0000
0000
,  // measure 28
0001
0000
0000
0000
,  // measure 29
0010
0000
0000
0000
,  // measure 30
1000
0000
0000
0000
,  // measure 31
1000
0000
0000
0000
,  // measure 32
0002
0000
0000
0003
,  // measure 33
0001
0000
0001
0000
,  // measure 34
2000
0000
0000
3000
,  // measure 35
1000
0000
1000
0000
,  // measure 36
0020
0000
0000
0030
,  // measure 37
0010
0000
0010
0000
,  // measure 38
0200
0000
0000
0300
,  // measure 39
0100
0000
0100
0000
,  // measure 40
0110
0000
0000
0000
,  // measure 41
1001
0000
0000
0000
,  // measure 42
0000
0001
0001
0001
,  // measure 43
0001
0001
0001
0000
,  // measure 44
0000
1000
1000
1000
,  // measure 45
1000
1000
1000
0000
,  // measure 46
0000
0010
0010
0010
,  // measure 47
0010
0010
0010
0000
,  // measure 48
0000
0100
0100
0100
,  // measure 49
0100
0100
0100
0000
,  // measure 50
0110
0000
0000
0000
,  // measure 51
1001
0000
0000
0000
;

//---------------dance-single - ----------------
#NOTEDATA:;
#CHARTNAME:;
#STEPSTYPE:dance-single;
#DESCRIPTION:;
#CHARTSTYLE:;
#DIFFICULTY:Easy;
#METER:4;
#RADARVALUES:0.156332,0.215182,0.000000,0.016836,0.000000,130.000000,130.000000,0.000000,2.000000,0.000000,0.000000,0.000000,0.000000,0.000000,0.156332,0.215182,0.000000,0.016836,0.000000,130.000000,130.000000,0.000000,2.000000,0.000000,0.000000,0.000000,0.000000,0.000000;
#CREDIT:;
#DISPLAYBPM:130.000000;
#NOTES:
// measure 0
0000
0000
0000
0000
,  // measure 1
0000
0000
0000
0000
,  // measure 2
0000
0000
0000
0000
,  // measure 3
0000
0000
0000
0000
,  // measure 4
1000
1000
0001
0001
,  // measure 5
0100
0100
0010
0010
,  // measure 6
1000
1000
0001
0001
,  // measure 7
0010
0000
0010
0000
0100
0100
0100
0000
,  // measure 8
0010
0010
0000
0000
0000
0000
0000
0000
,  // measure 9
0010
0010
0000
0000
0000
0000
0000
0000
,  // measure 10
0010
0100
1000
0000
,  // measure 11
1000
0000
1000
0000
,  // measure 12
0010
0100
0001
0000
,  // measure 13
0001
0000
0001
0000
,  // measure 14
0001
1000
0001
0000
,  // measure 15
1000
0000
0001
0000
,  // measure 16
1000
0001
1000
0000
,  // measure 17
0001
0000
0010
0000
,  // measure 18
0010
0010
0000
0000
0000
0000
0000
0000
,  // measure 19
0010
0010
0000
0000
0000
0000
0000
0000
,  // measure 20
0020
0000
0000
0000
,  // measure 21
0200
0000
0000
0330
,  // measure 22
0010
0100
0010
0000
,  // measure 23
0100
0010
0100
0000
,  // measure 24
0010
0001
0010
0000
,  // measure 25
0001
0010
0001
0000
,  // measure 26
0010
0100
1000
0000
,  // measure 27
0100
1000
0100
0000
,  // measure 28
1000
0100
1000
0000
,  // measure 29
1000
0001
0100
0000
,  // measure 30
0100
0100
0000
0000
0000
0000
0000
0000
,  // measure 31
0100
0100
0000
0000
0000
0000
0000
0000
,  // measure 32
0010
1000
0010
0000
,  // measure 33
0010
0000
0010
0000
,  // measure 34
0100
0001
0100
0000
,  // measure 35
0100
0000
0100
0000
,  // measure 36
0010
1000
0001
0000
,  // measure 37
1000
0000
0001
0000
,  // measure 38
0010
0001
0010
0000
,  // measure 39
0001
0000
0001
0000
,  // measure 40
0001
0001
0000
0000
0000
0000
0000
0000
,  // measure 41
0001
0001
0000
0000
0000
0000
0000
0000
,  // measure 42
0000
0010
0010
0010
,  // measure 43
0100
1000
0100
0000
,  // measure 44
1000
1000
1000
1000
,  // measure 45
0010
0100
0001
0000
,  // measure 46
0100
0100
0100
0100
,  // measure 47
0001
0010
0100
0000
,  // measure 48
0010
0010
0010
0010
,  // measure 49
0100
0010
0100
0000
,  // measure 50
0100
0100
0000
0000
0000
0000
0000
0000
,  // measure 51
0100
0100
0000
0000
0000
0000
0000
0000
;

//---------------dance-single - ----------------
#NOTEDATA:;
#CHARTNAME:;
#STEPSTYPE:dance-single;
#DESCRIPTION:;
#CHARTSTYLE:;
#DIFFICULTY:Medium;
#METER:6;
#RADARVALUES:0.228485,0.322772,0.218864,0.075761,0.000000,190.000000,164.000000,26.000000,9.000000,0.000000,0.000000,0.000000,0.000000,0.000000,0.228485,0.322772,0.218864,0.075761,0.000000,190.000000,164.000000,26.000000,9.000000,0.000000,0.000000,0.000000,0.000000,0.000000;
#CREDIT:;
#DISPLAYBPM:130.000000;
#NOTES:
// measure 0
0000
0000
0000
0000
,  // measure 1
0000
0000
0000
0000
,  // measure 2
0000
0000
0000
0000
,  // measure 3
0000
0000
0000
0000
,  // measure 4
1000
0100
0001
0010
,  // measure 5
1000
0100
0001
0000
,  // measure 6
0010
1000
0100
0001
,  // measure 7
0010
1000
0100
0000
,  // measure 8
0010
0010
0000
0000
0000
0000
0000
0000
,  // measure 9
0100
0100
0000
0000
0000
0000
0000
0000
,  // measure 10
0100
0000
0010
0000
0200
0010
0310
0000
,  // measure 11
0200
0010
0310
0000
0200
0010
0310
0000
,  // measure 12
0010
0000
0100
0000
2000
0001
3001
0000
,  // measure 13
0001
1000
1001
0000
,  // measure 14
0001
0000
0100
0000
0020
0100
0130
0000
,  // measure 15
0020
0100
0130
0000
0020
0100
0130
0000
,  // measure 16
0010
0100
0001
0000
,  // measure 17
1000
0001
1001
0000
,  // measure 18
0010
0010
0000
0000
0000
0000
0000
0000
,  // measure 19
0100
0100
0000
0000
0000
0000
0000
0000
,  // measure 20
2000
0000
0000
0000
,  // measure 21
0002
0000
0000
3003
,  // measure 22
1000
0000
0001
1000
0001
0000
0000
0000
,  // measure 23
0001
0000
1000
0001
1000
0000
0000
0000
,  // measure 24
0010
0000
0100
0010
0100
0000
0000
0000
,  // measure 25
0100
0000
0010
0100
0010
0000
0000
0000
,  // measure 26
0010
0000
1000
0001
1000
0000
0000
0000
,  // measure 27
1000
0000
0100
0010
0100
0000
0000
0000
,  // measure 28
0001
0000
0100
0010
0100
0000
0000
0000
,  // measure 29
0100
0000
0001
1000
0001
0000
0000
0000
,  // measure 30
0001
0001
0000
0000
0000
0000
0000
0000
,  // measure 31
1000
1000
0000
0000
0000
0000
0000
0000
,  // measure 32
0010
0001
0100
1000
,  // measure 33
0010
0001
0100
1000
,  // measure 34
0010
1000
0100
0001
,  // measure 35
0010
1000
0100
0001
,  // measure 36
0010
0100
0001
1000
,  // measure 37
0100
0010
0001
1000
,  // measure 38
0010
0100
0001
1000
,  // measure 39
0001
0001
1000
1000
,  // measure 40
1000
1000
0000
0000
0000
0000
0000
0000
,  // measure 41
0100
0100
0000
0000
0000
0000
0000
0000
,  // measure 42
0010
0011
0101
0011
,  // measure 43
1001
1001
1001
0000
,  // measure 44
0010
1010
1100
1010
,  // measure 45
1100
1100
1100
0000
,  // measure 46
0100
0110
0011
1001
,  // measure 47
1010
1010
1010
0000
,  // measure 48
0010
0110
0101
0110
,  // measure 49
1001
1001
1001
0000
,  // measure 50
0001
0001
0000
0000
0000
0000
0000
0000
,  // measure 51
1000
1000
0000
0000
0000
0000
0000
0000
;

//---------------dance-single - ----------------
#NOTEDATA:;
#CHARTNAME:;
#STEPSTYPE:dance-single;
#DESCRIPTION:;
#CHARTSTYLE:;
#DIFFICULTY:Hard;
#METER:10;
#RADARVALUES:0.337917,0.415842,0.168357,0.168357,0.151522,281.000000,261.000000,20.000000,20.000000,38.000000,0.000000,0.000000,0.000000,0.000000,0.337917,0.415842,0.168357,0.168357,0.151522,281.000000,261.000000,20.000000,20.000000,38.000000,0.000000,0.000000,0.000000,0.000000;
#CREDIT:;
#DISPLAYBPM:130.000000;
#NOTES:
// measure 0
0000
0000
0000
0000
,  // measure 1
0000
0000
0000
0000
,  // measure 2
0000
0000
0000
0000
,  // measure 3
0000
0000
0000
0000
,  // measure 4
1000
0100
0010
0M10
,  // measure 5
0100
0001
0100
0000
,  // measure 6
0001
0100
0010
0M10
,  // measure 7
0100
1000
0100
0000
,  // measure 8
1100
2200
0000
3000
0300
0000
0000
0000
,  // measure 9
0101
0202
0000
0003
0300
0000
0000
0000
,  // measure 10
0100
0010
1000
0001
1000
1000
0001
0000
,  // measure 11
1000
1000
0001
0000
1000
1000
0100
0000
,  // measure 12
0010
0001
0100
0001
0010
0010
0100
0000
,  // measure 13
1000
0000
0000
0001
0000
0000
1000
0000
0001
0000
0100
0000
0010
0000
1000
0000
,  // measure 14
0001
0100
0010
0100
0001
0001
0100
0000
,  // measure 15
0001
0001
1000
0000
0001
0001
0010
0000
,  // measure 16
0001
0010
0100
1000
1000
1000
0010
0000
,  // measure 17
1000
0000
0000
1000
0000
0000
1000
0000
0100
0000
0010
0000
0100
0000
1000
0000
,  // measure 18
1001
2002
0000
3000
0003
0000
0000
0000
,  // measure 19
0110
0220
0000
0030
0300
0000
0000
0000
,  // measure 20
MMMM
MMMM
MMMM
MMMM
,  // measure 21
MMMM
MMMM
MMMM
MMMM
,  // measure 22
1000
0000
1000
0000
0001
0000
0001
0000
1000
0000
0000
1000
0000
0000
0000
0000
,  // measure 23
0001
0000
0010
0000
1000
0000
0001
0000
0100
0000
0000
1000
0000
1000
0100
0000
,  // measure 24
0010
0000
0010
0000
0001
0000
0001
0000
0100
0000
0000
0100
0000
0000
0000
0000
,  // measure 25
0010
0000
1000
0000
0001
0000
0100
0000
0001
0000
0000
0100
0000
0100
0001
0000
,  // measure 26
0001
0000
0001
0000
1000
0000
1000
0000
0001
0000
0000
0001
0000
0000
0000
0000
,  // measure 27
1000
0000
0100
0000
0001
0000
1000
0000
0010
0000
0000
0001
0000
0001
0010
0000
,  // measure 28
0100
0000
0100
0000
1000
0000
1000
0000
0010
0000
0000
0010
0000
0000
0000
0000
,  // measure 29
0100
0000
0001
0000
1000
0000
0010
0000
1000
0000
0000
0010
0000
0010
0100
0000
,  // measure 30
0101
0202
0000
0003
0300
0000
0000
0000
,  // measure 31
1010
2020
0000
3000
0030
0000
0000
0000
,  // measure 32
0010
0100
0001
1000
0001
0001
1000
0000
,  // measure 33
0001
0001
1000
0000
0001
0001
0010
0000
,  // measure 34
0100
1000
0010
1000
0100
0100
0010
0000
,  // measure 35
0001
0000
0000
1000
0000
0000
0001
0000
1000
0000
0010
0000
0100
0000
0001
0000
,  // measure 36
1000
0010
0100
0010
1000
1000
0010
0000
,  // measure 37
1000
1000
0001
0000
1000
1000
0100
0000
,  // measure 38
1000
0100
0010
0001
0001
0001
0100
0000
,  // measure 39
0001
0000
0000
0001
0000
0000
0001
0000
0010
0000
0100
0000
0010
0000
0001
0000
,  // measure 40
1001
2002
0000
0003
3000
0000
0000
0000
,  // measure 41
0110
0220
0000
0300
0030
0000
0000
0000
,  // measure 42
0010
0000
0010
0000
1000
0000
0000
0001
0100
0000
0000
0100
1000
0000
0000
1000
,  // measure 43
0100
0000
0000
0100
0001
0000
0000
0001
0010
0000
0010
0000
0100
0000
0000
0000
,  // measure 44
1000
0000
1000
0000
0010
0000
0000
0100
0001
0000
0000
0001
0010
0000
0000
0010
,  // measure 45
1000
0000
0000
1000
0010
0000
0000
0010
0001
0000
0001
0000
1000
0000
1000
0000
,  // measure 46
0010
0000
0010
0000
1000
0000
0000
0001
0010
0000
0000
0010
0001
0000
0000
0001
,  // measure 47
0100
0000
0000
0100
0010
0000
0000
0010
0100
0000
0100
0000
0010
0000
0010
0000
,  // measure 48
1000
0000
1000
0000
0010
0000
0000
0100
0001
0000
0000
0010
0100
0000
0000
1000
,  // measure 49
0001
0000
0000
0100
0010
0000
0000
1000
0100
0000
0100
0000
1000
0000
0100
0000
,  // measure 50
1100
2200
0000
3000
0300
0000
0000
0000
,  // measure 51
0101
0202
0000
0003
0300
0000
0000
0000
,  // measure 52
MMMM
0000
0000
0000
;
