#TITLE:C'est La Vie;
#SUBTITLE:;
#ARTIST:B*Witched;
#TITLETRANSLIT:;
#SUBTITLETRANSLIT:;
#ARTISTTRANSLIT:;
#GENRE:;
#CREDIT:Chewi☆;
#MENUCOLOR:;
#METERTYPE:DDR X;
#BANNER:C'est La Vie.png;
#BACKGROUND:C'est La Vie-bg.png;
#LYRICSPATH:;
#CDTITLE:;
#MUSIC:C'est La Vie.mp3;
#OFFSET:-0.049;
#SAMPLESTART:53.100;
#SAMPLELENGTH:15.000;
#SELECTABLE:YES;
#LISTSORT:;
#BPMS:0.000=109.000;
#STOPS:;
#BGCHANGES:;
#ATTACKS:;

//---------------dance-single - Chewi----------------
#NOTES:
     dance-single:
     Chewi:
     Hard:
     9:
     0.322,0.337,0.109,0.059,0.000:
0000
0000
0000
0000
,
0000
0000
0000
0000
,
0000
0000
0000
0000
,
0000
0000
0000
0000
,
1000
0000
0100
0000
0010
0001
0010
0000
,
0001
0100
0001
0100
,
0010
0000
1000
0000
0100
0010
0001
0000
,
0010
0100
1000
0001
,
1000
1000
1000
0000
0001
1000
0010
0000
,
0100
0100
0100
0000
0010
0100
0001
0000
,
1000
0100
1000
0000
0100
0010
0100
0000
,
0010
0001
0010
0000
0001
0100
0001
0000
,
0100
0100
0010
0000
1000
0100
1000
0000
,
0100
0010
0001
0000
0100
0001
0100
0000
,
0010
1000
0001
0000
1000
0100
1000
0000
,
0100
0010
0001
0000
0001
0100
0001
0000
,
0102
1000
0010
2000
,
3003
1001
1001
1001
,
2100
0001
0010
0002
,
3003
0000
0220
0000
,
0330
0000
0100
0010
1000
0010
0100
0000
,
0001
0000
0011
0000
0110
0000
1100
1000
,
0100
0000
0000
1000
0100
0000
0000
1000
,
0100
1000
0100
0010
0001
0010
0001
0010
,
0000
0100
1000
0100
0000
1000
0001
1000
,
0000
0001
1000
0001
0000
0100
0001
0100
,
0000
0010
1000
0010
0000
0000
0000
0000
,
0000
1000
0100
0010
0000
0001
0010
0001
,
0000
0010
0100
0010
0000
0100
1000
0100
,
0000
1000
0100
1000
0000
1000
0001
1000
,
0000
0001
1000
0001
0000
0000
0000
0000
,
0000
0100
0010
0100
0000
0010
1000
0010
,
1000
0100
0001
0010
,
1000
0000
1000
0000
1000
0100
1100
0000
,
0001
0010
0100
1000
,
0001
0000
0001
0000
0001
0100
0101
0000
,
0100
0010
1000
0001
,
1000
0000
0100
0000
0010
0001
0011
0000
,
0001
0010
0100
1000
,
0001
0000
0100
0000
0010
0100
0101
0000
,
0010
0000
0100
0000
1000
0100
1000
0100
,
0000
1000
0100
1000
0000
0100
0010
0001
,
0000
0100
0010
0100
0000
0010
1000
0010
,
0000
1000
0100
0010
0000
0001
1000
0001
,
0000
0100
0100
0100
0000
0010
0100
0001
,
0000
1000
0100
0010
0000
0001
0010
0001
,
0000
0010
0100
1000
0000
0001
1000
0001
,
0000
1000
0001
1000
0000
0000
0000
0000
,
0000
0100
0100
0100
0000
0010
1000
0010
,
1000
0100
0001
0010
,
1000
0000
0100
0000
0010
0010
0010
0000
,
0001
0010
0100
1000
,
0001
0000
0100
0000
0010
0100
0001
0010
,
0200
0000
0300
0000
;

//---------------dance-single - Chewi----------------
#NOTES:
     dance-single:
     Chewi:
     Medium:
     6:
     0.241,0.267,0.092,0.000,0.000:
0000
0000
0000
0000
,
0000
0000
0000
0000
,
0000
0000
0000
0000
,
0000
0000
0000
0000
,
1000
0100
0001
0010
,
1000
0001
1000
0000
,
0001
0100
1000
0010
,
0001
1000
0001
0000
,
1001
0000
1000
0000
,
1000
0000
0001
0000
1000
0001
1000
0000
,
0110
0000
0100
0000
,
0010
0000
0100
0000
0010
0100
0010
0000
,
1000
0100
0001
0100
,
1000
0010
0100
1000
,
1000
0010
0001
0010
,
0001
0100
0010
0001
,
0000
0000
0001
0000
1000
0001
1000
0000
,
0000
1001
0101
1001
,
0000
0000
1000
0000
0001
1000
0001
0000
,
0000
0000
1001
0000
,
0000
0000
1000
0000
0100
0010
0100
0000
,
0000
0000
0110
0000
0110
0000
0110
0010
,
0010
0000
0000
0010
0010
0000
0000
0010
,
0010
0001
0001
0010
0100
1000
0010
0100
,
0000
0001
0000
0100
0000
0010
0000
1000
,
0000
0001
0000
1000
0000
0100
0000
0010
,
0000
0100
0000
1000
0000
0000
0000
0000
,
0000
0100
0000
0010
0000
0001
0000
0100
,
0000
0010
0000
0100
0000
0001
0000
0010
,
0000
0100
0000
1000
0000
0010
0000
1000
,
0000
0100
0000
0010
0000
0000
0000
0000
,
0000
0100
0000
0100
0000
1000
0000
1000
,
1000
0001
1000
1001
,
1000
0010
0001
0100
,
1000
0010
0001
0100
,
1000
0100
0001
0010
,
1000
0100
0001
0010
,
1000
0100
0010
0001
,
1000
0100
0010
0001
,
1000
0010
0100
0001
,
1000
0000
0010
0000
0100
0000
0001
0010
,
0000
0100
0000
1000
0000
0010
0000
1000
,
0000
0100
0000
0010
0000
0001
0000
0010
,
0000
0100
0000
1000
0000
0001
0000
1000
,
0000
0010
0000
0100
0000
0010
0000
0100
,
0000
0001
0000
0010
0000
0100
0000
1000
,
0000
0010
0000
1000
0000
0100
0000
0010
,
0000
0001
0000
1000
0000
0000
0000
0000
,
0000
0100
0000
0010
0000
0100
1000
0000
,
0100
0100
0001
0010
,
1000
0000
0100
0000
0010
0001
0010
0000
,
0001
0100
0010
0001
,
0100
0000
1000
0000
0010
0100
0010
0000
,
0110
0000
0000
0000
;

//---------------dance-single - Chewi----------------
#NOTES:
     dance-single:
     Chewi:
     Beginner:
     2:
     0.122,0.178,0.042,0.109,0.000: // measure 1
0000
0000
0000
0000
,  // measure 2
0000
0000
0000
0000
,  // measure 3
0000
0000
0000
0000
,  // measure 4
0000
0000
0000
0000
,  // measure 5
2000
0000
3000
0000
,  // measure 6
0002
0000
0003
0000
,  // measure 7
2000
0000
3000
0000
,  // measure 8
0002
0000
0003
0000
,  // measure 9
0010
0000
0010
0000
,  // measure 10
0010
0000
0000
0000
,  // measure 11
1000
0000
1000
0000
,  // measure 12
1000
0000
0000
0000
,  // measure 13
0100
0000
0100
0000
,  // measure 14
0100
0000
0000
0000
,  // measure 15
1000
0000
0001
0000
,  // measure 16
1000
0000
0000
0000
,  // measure 17
1001
0000
0000
0000
,  // measure 18
0000
0100
0100
0100
,  // measure 19
0110
0000
0000
0000
,  // measure 20
0100
0100
0100
0000
,  // measure 21
1001
0000
0000
0000
,  // measure 22
0000
0001
0001
0001
,  // measure 23
1001
0000
0100
0000
,  // measure 24
0010
0010
0010
0010
,  // measure 25
0010
0000
1000
0000
,  // measure 26
0100
0000
0010
0000
,  // measure 27
1000
0000
0100
0000
,  // measure 28
0001
0000
1000
0000
,  // measure 29
0100
0000
1000
0000
,  // measure 30
0010
0000
0100
0000
,  // measure 31
1000
0000
0010
0000
,  // measure 32
0001
0000
1000
0000
,  // measure 33
0020
0000
0000
0030
,  // measure 34
0020
0000
0030
0000
,  // measure 35
0200
0000
0300
0000
,  // measure 36
2000
0000
3000
0000
,  // measure 37
0002
0000
0003
0000
,  // measure 38
2000
0000
3000
0000
,  // measure 39
0200
0000
0300
0000
,  // measure 40
0020
0000
0030
0000
,  // measure 41
0002
0000
0003
0000
,  // measure 42
0001
0000
0100
0000
,  // measure 43
1000
0000
0001
0000
,  // measure 44
0100
0000
1000
0000
,  // measure 45
0010
0000
0100
0000
,  // measure 46
1000
0000
0100
0000
,  // measure 47
0001
0000
1000
0000
,  // measure 48
0100
0000
0001
0000
,  // measure 49
0010
0000
0100
0000
,  // measure 50
0001
0000
0100
0000
,  // measure 51
0010
0000
0010
0000
,  // measure 52
1000
0000
0100
0000
,  // measure 53
0010
0000
0010
0000
,  // measure 54
1001
0000
0000
0000
;

//---------------dance-single - Chewi----------------
#NOTES:
     dance-single:
     Chewi:
     Easy:
     3:
     0.167,0.178,0.034,0.101,0.000:
0000
0000
0000
0000
,
0000
0000
0000
0000
,
0000
0000
0000
0000
,
0000
0000
0000
0000
,
2000
0000
3100
0000
,
0002
0000
0103
0000
,
2000
0000
3010
0000
,
0002
0000
0013
0000
,
0010
0000
0010
0000
,
0010
0010
0100
0100
,
1000
0000
1000
0000
,
1000
1000
0001
0001
,
0100
0000
0100
0000
,
0100
0100
0010
0010
,
1000
0000
0001
0000
,
0001
0001
1000
1000
,
1001
0000
0000
0000
,
0000
0010
0100
0010
,
0110
0000
0000
0000
,
0100
1000
0100
0000
,
1001
0000
0000
0000
,
0000
1000
0001
1000
,
0010
0000
0100
0000
,
0010
0100
0010
0100
,
0010
0000
1000
0000
,
0100
0001
0010
0000
,
1000
0000
0100
0000
,
0001
0010
1000
0000
,
0100
0000
1000
0000
,
0010
0001
0100
0000
,
1000
0000
0010
0000
,
0001
0100
1000
0000
,
0010
0010
0010
0010
,
0020
0000
0130
0000
,
0200
0000
0310
0000
,
2000
0000
3001
0000
,
0002
0000
1003
0000
,
2000
0000
3100
0000
,
0200
0000
0310
0000
,
0020
0000
0031
0000
,
0002
0000
1003
0000
,
0001
0000
0100
0000
,
1000
0010
0001
0000
,
0100
0000
1000
0000
,
0010
0001
0100
0000
,
1000
0000
0100
0000
,
0001
0010
1000
0000
,
0100
0000
0001
0000
,
0010
1000
0100
0000
,
0001
0000
0100
0000
,
0010
1000
0010
1000
,
1000
0000
0100
0000
,
0010
0001
0010
0001
,
1001
0000
0000
0000
;
