#VERSION:0.83;
#TITLE:Butterflies;
#SUBTITLE:;
#ARTIST:Red Velvet;
#TITLETRANSLIT:;
#SUBTITLETRANSLIT:;
#ARTISTTRANSLIT:;
#GENRE:Pop;
#ORIGIN:;
#CREDIT:chewi;
#BANNER:Butterflies.png;
#BACKGROUND:Butterflies-bg.png;
#PREVIEWVID:;
#JACKET:Butterflies-jacket.png;
#CDIMAGE:;
#DISCIMAGE:;
#LYRICSPATH:;
#CDTITLE:cdtitle.png;
#MUSIC:Butterflies.ogg;
#OFFSET:0.020000;
#SAMPLESTART:104.019997;
#SAMPLELENGTH:15.000000;
#SELECTABLE:YES;
#BPMS:0.000=120.000;
#STOPS:;
#DELAYS:;
#WARPS:;
#TIMESIGNATURES:0.000=4=4;
#TICKCOUNTS:0.000=4;
#COMBOS:0.000=1;
#SPEEDS:0.000=1.000=0.000=0;
#SCROLLS:0.000=1.000;
#FAKES:;
#LABELS:0.000=Song Start;
#BGCHANGES:;
#KEYSOUNDS:;
#ATTACKS:
;

//---------------dance-single - ----------------
#NOTEDATA:;
#CHARTNAME:;
#STEPSTYPE:dance-single;
#DESCRIPTION:;
#CHARTSTYLE:;
#DIFFICULTY:Beginner;
#METER:2;
#RADARVALUES:0.068176,0.098338,0.007231,0.057846,0.000000,66.000000,65.000000,1.000000,8.000000,0.000000,0.000000,0.000000,0.000000,0.000000,0.068176,0.098338,0.007231,0.057846,0.000000,66.000000,65.000000,1.000000,8.000000,0.000000,0.000000,0.000000,0.000000,0.000000;
#CREDIT:;
#NOTES:
0000
0000
0000
0000
,
0000
0000
0000
0000
,
0000
0000
0000
0000
,
0000
0000
0000
0000
,
0010
0000
0000
0000
,
0100
0000
0000
0000
,
0001
0000
0000
0000
,
1000
0000
0000
0000
,
0100
0000
0000
0000
,
0010
0000
0000
0000
,
0001
0000
0000
0000
,
1000
0000
0000
0000
,
1000
0000
0000
0000
,
0100
0000
0000
0000
,
1000
0000
0000
0000
,
0100
0000
0000
0000
,
0001
0000
0000
0000
,
0100
0000
0000
0000
,
0001
0000
0000
0000
,
0100
0000
0000
0000
,
0200
0000
0000
0300
,
0100
0000
0000
0000
,
0020
0000
0000
0030
,
0010
0000
0000
0000
,
2000
0000
0000
3000
,
1000
0000
0000
0000
,
0002
0000
0000
0003
,
0001
0000
0000
0000
,
1000
0000
0000
0000
,
0100
0000
0000
0000
,
0001
0000
0000
0000
,
0010
0000
0000
0000
,
1000
0000
0000
0000
,
0010
0000
0000
0000
,
0001
0000
0000
0000
,
0100
0000
0000
0000
,
1000
0000
0000
0000
,
0010
0000
0000
0000
,
0001
0000
0000
0000
,
0010
0000
0000
0000
,
0001
0000
0000
0000
,
0010
0000
0000
0000
,
1000
0000
0000
0000
,
0010
0000
0000
0000
,
0100
0000
0000
0000
,
0100
0000
0000
0000
,
0010
0000
0000
0000
,
0010
0000
0000
0000
,
1000
0000
0000
0000
,
1000
0000
0000
0000
,
0001
0000
0000
0000
,
0001
0000
0000
0000
,
0200
0000
0000
0300
,
0100
0000
0000
0000
,
0020
0000
0000
0030
,
0010
0000
0000
0000
,
2000
0000
0000
3000
,
1000
0000
0000
0000
,
0002
0000
0000
0003
,
0001
0000
0000
0000
,
1000
0000
0000
0000
,
0100
0000
0000
0000
,
0001
0000
0000
0000
,
0010
0000
0000
0000
,
1000
0000
0000
0000
,
0010
0000
0000
0000
,
0001
0000
0000
0000
,
0100
0000
0000
0000
,
0110
0000
0000
0000
;

//---------------dance-single - ----------------
#NOTEDATA:;
#CHARTNAME:;
#STEPSTYPE:dance-single;
#DESCRIPTION:;
#CHARTSTYLE:;
#DIFFICULTY:Easy;
#METER:5;
#RADARVALUES:0.179736,0.245846,0.094000,0.231384,0.000000,174.000000,161.000000,13.000000,32.000000,0.000000,0.000000,0.000000,0.000000,0.000000,0.179736,0.245846,0.094000,0.231384,0.000000,174.000000,161.000000,13.000000,32.000000,0.000000,0.000000,0.000000,0.000000,0.000000;
#CREDIT:;
#NOTES:
0000
0000
0000
0000
,
0000
0000
0000
0000
,
0000
0000
0000
0000
,
0000
0000
0000
0000
,
0000
0010
0000
0010
,
0000
0100
0000
0100
,
0000
0001
0000
0001
,
0000
1000
0000
1000
,
0000
0100
0000
0100
,
0000
0010
0000
0010
,
0000
0100
0000
0100
,
0000
1000
0000
1000
,
2002
0000
0000
3003
,
0001
0100
0001
0000
,
2002
0000
0000
3003
,
1000
0100
1000
0000
,
0220
0000
0000
0330
,
0010
0100
0100
0000
,
0220
0000
0000
0330
,
0100
0010
0010
0000
,
0010
0001
0100
0000
,
0010
1000
0100
0000
,
0010
0001
0100
0010
,
1000
0001
1000
1001
,
0100
1000
0010
0000
,
0100
0001
0010
0000
,
0100
1000
0010
0100
,
0001
1000
0001
1001
,
0001
1000
0010
0000
,
0200
0300
0200
0300
,
0001
1000
0100
0000
,
0020
0030
0020
0030
,
0100
1000
0010
0000
,
2000
3000
2000
3000
,
0010
0100
0001
0000
,
0002
0003
0002
0003
,
0000
0001
0000
0001
,
0000
1000
0000
1000
,
0000
0100
0000
0100
,
0000
0010
0000
0010
,
0000
0001
0000
0001
,
0000
1000
0000
1000
,
0000
0010
0000
0010
,
0000
0100
0000
0100
,
0220
0000
0000
0330
,
0100
1000
0100
0000
,
0220
0000
0000
0330
,
0010
0001
0010
0000
,
2002
0000
0000
3003
,
0001
1000
1000
0000
,
2002
0000
0000
3003
,
1000
0001
0001
0000
,
0100
1000
0010
0000
,
0100
0001
0010
0000
,
0100
1000
0010
0100
,
0001
1000
0001
1001
,
0010
0001
0100
0000
,
0010
1000
0100
0000
,
0010
0001
0100
0010
,
1000
0001
1000
1001
,
1000
0001
0100
0000
,
0020
0030
0020
0030
,
1000
0001
0010
0000
,
0200
0300
0200
0300
,
0010
0001
0100
0000
,
0002
0003
0002
0003
,
0100
0010
1000
0000
,
2000
3000
2000
3000
,
1001
0000
0000
0000
;

//---------------dance-single - ----------------
#NOTEDATA:;
#CHARTNAME:;
#STEPSTYPE:dance-single;
#DESCRIPTION:;
#CHARTSTYLE:;
#DIFFICULTY:Medium;
#METER:7;
#RADARVALUES:0.261340,0.270431,0.079538,0.101231,0.000000,253.000000,242.000000,11.000000,14.000000,0.000000,0.000000,0.000000,0.000000,0.000000,0.261340,0.270431,0.079538,0.101231,0.000000,253.000000,242.000000,11.000000,14.000000,0.000000,0.000000,0.000000,0.000000,0.000000;
#CREDIT:;
#NOTES:
0000
0000
0000
0000
,
0000
0000
0000
0000
,
0000
0000
0000
0000
,
0000
0000
0000
0000
,
1000
0010
0000
0010
,
0100
0001
0000
0001
,
0010
0100
0000
0100
,
1000
0001
1000
0001
,
0100
0010
0000
0010
,
1000
0010
0000
0010
,
0100
0001
0000
0001
,
1000
0001
1000
0001
,
1001
0010
0100
0010
,
0001
0000
0100
0000
0010
0010
0010
0000
,
0100
0100
1000
0100
,
1000
0000
0100
0000
1000
1000
1000
0000
,
0100
0001
0010
1000
,
0001
0000
0100
0000
1000
1000
1000
0000
,
1000
0010
0001
1000
,
0100
0000
0001
0000
0001
0001
0001
0000
,
0001
0100
1000
0010
,
0001
0100
1000
1000
,
1000
0100
0001
0010
,
1000
0100
0001
0010
,
0001
0100
0010
0001
,
0100
0010
0001
0100
,
0010
1000
0100
0010
,
1000
0100
0010
1000
,
2200
0000
0000
3300
,
1000
1000
1000
0000
0100
0100
0100
0000
,
0220
0000
0000
0330
,
0100
0100
0100
0000
0010
0010
0010
0000
,
0022
0000
0000
0033
,
0010
0011
0001
1001
,
0100
0001
1000
0010
,
0100
0001
1000
0100
,
0001
0100
0000
0100
,
0010
1000
0000
1000
,
0100
0010
0000
0010
,
0001
1000
0001
1000
,
0010
0100
0000
0100
,
0001
0100
0000
0100
,
0010
1000
0000
1000
,
0001
1000
0001
1000
,
1001
0100
0010
0100
,
1000
0000
0010
0000
0100
0100
0100
0000
,
0010
0010
0001
0010
,
0001
0000
0010
0000
0001
0001
0001
0000
,
0010
1000
0100
0001
,
1000
0000
0010
0000
0001
0001
0001
0000
,
0001
0100
1000
0001
,
0010
0000
1000
0000
1000
1000
1000
0000
,
1000
0010
0001
0100
,
1000
0010
0001
0001
,
0001
0010
1000
0100
,
0001
0010
1000
0100
,
1000
0010
0100
1000
,
0010
0100
1000
0010
,
0100
0001
0010
0100
,
0001
0010
0100
0001
,
0022
0000
0000
0033
,
0001
0001
0001
0000
0010
0010
0010
0000
,
0220
0000
0000
0330
,
0010
0010
0010
0000
0100
0100
0100
0000
,
2200
0000
0000
3300
,
0100
0100
0100
0000
1000
1000
1000
0000
,
2002
0000
0000
3003
,
1000
0010
0001
0100
,
1000
0000
0000
0000
;

//---------------dance-single - ----------------
#NOTEDATA:;
#CHARTNAME:;
#STEPSTYPE:dance-single;
#DESCRIPTION:;
#CHARTSTYLE:;
#DIFFICULTY:Hard;
#METER:12;
#RADARVALUES:0.408022,0.467107,0.383230,0.050615,0.235000,395.000000,342.000000,53.000000,7.000000,8.000000,0.000000,0.000000,0.000000,0.000000,0.408022,0.467107,0.383230,0.050615,0.235000,395.000000,342.000000,53.000000,7.000000,8.000000,0.000000,0.000000,0.000000,0.000000;
#CREDIT:;
#NOTES:
// measure 0
0000
0000
0000
0000
,  // measure 1
0000
0000
0000
0000
,  // measure 2
0000
0000
0000
0000
,  // measure 3
0000
0000
0000
0000
,  // measure 4
1000
0000
0000
0000
0100
0000
0000
0000
0010
0000
0000
0010
0000
0000
0010
0000
,  // measure 5
0000
0000
0000
0000
0010
0000
0000
0000
0001
0000
0000
0001
0000
0000
0001
0000
,  // measure 6
0000
0000
0000
0000
0100
0000
0000
0000
0010
0000
0000
0010
0000
0000
0010
0000
,  // measure 7
1000
1000
0010
0000
0100
0100
0001
0000
,  // measure 8
0100
0000
0000
0000
0001
0000
0000
0000
1000
0000
0000
1000
0000
0000
1000
0000
,  // measure 9
0000
0000
0000
0000
1000
0000
0000
0000
0100
0000
0000
0100
0000
0000
0100
0000
,  // measure 10
0000
0000
0000
0000
0010
0000
0000
0000
0001
0000
0000
0001
0000
0000
0001
0000
,  // measure 11
0100
0100
0001
0000
0001
0001
0100
0000
,  // measure 12
0001
0001
1000
1000
1000
0100
0010
0000
,  // measure 13
0001
0001
1000
1000
1000
0010
0100
0000
,  // measure 14
0100
0100
0100
0100
0001
0010
0100
MMMM
,  // measure 15
0001
0010
0100
0000
1000
0001
1001
0000
,  // measure 16
1000
1000
0001
0001
0001
0010
0100
0000
,  // measure 17
1000
1000
0001
0001
0001
0100
0010
0000
,  // measure 18
0010
0010
0010
0010
1000
0100
0010
MMMM
,  // measure 19
1000
0100
0010
0000
0001
1000
0001
0000
,  // measure 20
1000
0000
0000
1010
0000
0000
0000
0000
0001
0000
0000
0011
0000
0000
0000
0000
,  // measure 21
1000
0000
0000
1100
0000
0000
0000
0000
0001
0000
0000
0101
0000
0100
0000
0000
,  // measure 22
0100
0000
0000
0110
0000
0000
0000
0000
0010
0000
0000
1010
0000
0000
0000
0000
,  // measure 23
0010
0000
0000
0110
0000
0000
0000
0000
0100
0000
0000
0101
0000
0100
0000
0000
,  // measure 24
0001
0000
0000
0101
0000
0000
0000
0000
1000
0000
0000
1100
0000
0000
0000
0000
,  // measure 25
0001
0000
0000
0011
0000
0000
0000
0000
1000
0000
0000
1010
0000
0010
0000
0000
,  // measure 26
0010
0000
0000
0110
0000
0000
0000
0000
0100
0000
0000
0101
0000
0000
0000
0000
,  // measure 27
0100
0000
0000
0110
0000
0000
0000
0000
0010
0000
0000
1010
0000
0010
0000
0000
,  // measure 28
2000
0001
0100
3001
,  // measure 29
1000
0100
1100
0000
0100
0010
0110
0000
,  // measure 30
0020
0001
0100
0031
,  // measure 31
0001
0100
0101
0000
1000
0010
1010
0000
,  // measure 32
0020
0100
0001
0130
,  // measure 33
0100
0000
0010
0000
1000
0000
0100
0000
0010
0000
0100
0000
1000
0001
1000
0000
,  // measure 34
0001
0000
1000
0000
0100
0000
0001
0000
1000
0000
0001
0000
0100
0010
0100
0000
,  // measure 35
0001
0000
1000
0000
0010
0000
1000
0000
0001
0000
1000
0000
0010
0100
0010
0000
,  // measure 36
0001
0000
0000
0000
0010
0000
0000
0000
0100
0000
0000
0100
0000
0000
0100
0000
,  // measure 37
0000
0000
0000
0000
0100
0000
0000
0000
1000
0000
0000
1000
0000
0000
1000
0000
,  // measure 38
1000
0000
0000
0000
0010
0000
0000
0000
0100
0000
0000
0100
0000
0000
0100
0000
,  // measure 39
0001
0001
0010
0010
0100
0100
1000
1000
,  // measure 40
0010
0000
0000
0000
1000
0000
0000
0000
0001
0000
0000
0001
0000
0000
0001
0000
,  // measure 41
0000
0000
0000
0000
0001
0000
0000
0000
0010
0000
0000
0010
0000
0000
0010
0000
,  // measure 42
0000
0000
0000
0000
0100
0000
0000
0000
1000
0000
0000
1000
0000
0000
1000
0000
,  // measure 43
0010
0010
1000
1000
0010
0010
0100
0100
,  // measure 44
0001
0000
0000
0000
1000
0000
0000
0100
0000
0000
0100
0000
0110
0000
0000
0000
,  // measure 45
0100
0000
0000
0000
1000
0000
0000
0010
0000
0000
0100
0000
0101
0000
0000
0000
,  // measure 46
0100
0000
0000
0000
0010
0000
0000
1000
0000
0000
0001
0000
1001
0000
0000
0000
,  // measure 47
1000
0000
0000
0000
0100
0000
0000
0100
0000
0000
1000
0000
1001
0000
0100
0000
,  // measure 48
1000
0000
0000
0000
0001
0000
0000
0010
0000
0000
0010
0000
0110
0000
0000
0000
,  // measure 49
0010
0000
0000
0000
0001
0000
0000
0100
0000
0000
0010
0000
1010
0000
0000
0000
,  // measure 50
0010
0000
0000
0000
0100
0000
0000
0001
0000
0000
1000
0000
1001
0000
0000
0000
,  // measure 51
0001
0001
0010
0010
0100
0100
1000
1000
,  // measure 52
0001
0000
0000
0101
0000
0000
0000
0000
1000
0000
0000
1100
0000
0000
0000
0000
,  // measure 53
0001
0000
0000
0011
0000
0000
0000
0000
1000
0000
0000
1010
0000
0010
0000
0000
,  // measure 54
0010
0000
0000
0110
0000
0000
0000
0000
0100
0000
0000
0101
0000
0000
0000
0000
,  // measure 55
0100
0000
0000
0110
0000
0000
0000
0000
0010
0000
0000
1010
0000
0010
0000
0000
,  // measure 56
1000
0000
0000
1010
0000
0000
0000
0000
0001
0000
0000
0011
0000
0000
0000
0000
,  // measure 57
1000
0000
0000
1100
0000
0000
0000
0000
0001
0000
0000
0101
0000
0100
0000
0000
,  // measure 58
0100
0000
0000
0110
0000
0000
0000
0000
0010
0000
0000
1010
0000
0000
0000
0000
,  // measure 59
0010
0000
0000
0110
0000
0000
0000
0000
0100
0000
0000
0101
0000
0100
0000
0000
,  // measure 60
0002
1000
0010
1003
,  // measure 61
0001
0010
0011
0000
0010
0100
0110
0000
,  // measure 62
0200
1000
0010
1300
,  // measure 63
1000
0010
1010
0000
0001
0100
0101
0000
,  // measure 64
0200
0010
1000
0310
,  // measure 65
0010
0100
0110
0000
0010
1000
1010
0000
,  // measure 66
2000
0001
0010
3001
,  // measure 67
1000
0000
0000
1100
0000
0000
0000
0000
0001
0000
0000
0101
0000
0100
0000
0000
,  // measure 68
0110
0000
0000
0000
;
