#VERSION:0.83;
#TITLE:Burnt Rice (feat. Yung GEMMY);
#SUBTITLE:;
#ARTIST:Shawn Wasabi;
#TITLETRANSLIT:;
#SUBTITLETRANSLIT:;
#ARTISTTRANSLIT:;
#GENRE:Dance/Electronic;
#ORIGIN:;
#CREDIT:steps by chewi;
#BANNER:Burnt Rice (feat. Yung GEMMY).png;
#BACKGROUND:Burnt Rice (feat. Yung GEMMY)-bg.png;
#PREVIEWVID:;
#JACKET:Burnt Rice (feat. Yung GEMMY)-jacket.png;
#CDIMAGE:;
#DISCIMAGE:;
#LYRICSPATH:;
#CDTITLE:cdtitle.png;
#MUSIC:Burnt Rice (feat. Yung GEMMY).ogg;
#OFFSET:-0.925000;
#SAMPLESTART:36.924999;
#SAMPLELENGTH:15.000000;
#SELECTABLE:YES;
#BPMS:0.000=160.000;
#STOPS:;
#DELAYS:;
#WARPS:;
#TIMESIGNATURES:0.000=4=4;
#TICKCOUNTS:0.000=4;
#COMBOS:0.000=1;
#SPEEDS:0.000=1.000=0.000=0;
#SCROLLS:0.000=1.000;
#FAKES:;
#LABELS:0.000=Song Start;
#BGCHANGES:;
#KEYSOUNDS:;
#ATTACKS:
;

//---------------dance-single - ----------------
#NOTEDATA:;
#CHARTNAME:;
#STEPSTYPE:dance-single;
#DESCRIPTION:;
#CHARTSTYLE:;
#DIFFICULTY:Beginner;
#METER:3;
#RADARVALUES:0.093416,0.129062,0.034417,0.068833,0.000000,76.000000,72.000000,4.000000,8.000000,0.000000,0.000000,0.000000,0.000000,0.000000,0.093416,0.129062,0.034417,0.068833,0.000000,76.000000,72.000000,4.000000,8.000000,0.000000,0.000000,0.000000,0.000000,0.000000;
#CREDIT:;
#NOTES:
// measure 0
0000
0000
0000
0000
,  // measure 1
0000
0000
0000
0000
,  // measure 2
0000
0000
0000
0000
,  // measure 3
0000
0000
0000
0000
,  // measure 4
1000
0000
0000
0000
,  // measure 5
1000
0000
0000
0000
,  // measure 6
0001
0000
0000
0000
,  // measure 7
0001
0000
0000
0000
,  // measure 8
0100
0000
0000
0000
,  // measure 9
0010
0000
0000
0000
,  // measure 10
0100
0000
0000
0000
,  // measure 11
0010
0000
0000
0000
,  // measure 12
1000
0000
0000
0000
,  // measure 13
0001
0000
0000
0000
,  // measure 14
1000
0000
0000
0000
,  // measure 15
0001
0000
0000
0000
,  // measure 16
1001
0000
0000
0000
,  // measure 17
0100
0000
0000
0000
,  // measure 18
0100
0000
0000
0000
,  // measure 19
0100
0000
0000
0000
,  // measure 20
1001
0000
0000
0000
,  // measure 21
0010
0000
0000
0000
,  // measure 22
0010
0000
0000
0000
,  // measure 23
0010
0000
0000
0000
,  // measure 24
2000
0000
0000
3000
,  // measure 25
1000
0000
0000
0000
,  // measure 26
0002
0000
0000
0003
,  // measure 27
0001
0000
0000
0000
,  // measure 28
0200
0000
0000
0300
,  // measure 29
0100
0000
0000
0000
,  // measure 30
0020
0000
0000
0030
,  // measure 31
0010
0000
0000
0000
,  // measure 32
0010
0000
0000
0000
,  // measure 33
0100
0000
0000
0000
,  // measure 34
0100
0000
0000
0000
,  // measure 35
0010
0000
0000
0000
,  // measure 36
1000
0000
0000
0000
,  // measure 37
0001
0000
0000
0000
,  // measure 38
0001
0000
0000
0000
,  // measure 39
1000
0000
0000
0000
,  // measure 40
1000
0000
0000
0000
,  // measure 41
0100
0000
0000
0000
,  // measure 42
0001
0000
0000
0000
,  // measure 43
0010
0000
0000
0000
,  // measure 44
1000
0000
0000
0000
,  // measure 45
0010
0000
0000
0000
,  // measure 46
0001
0000
0000
0000
,  // measure 47
0100
0000
0000
0000
,  // measure 48
2000
0000
0000
3000
,  // measure 49
1000
0000
0000
0000
,  // measure 50
0002
0000
0000
0003
,  // measure 51
0001
0000
0000
0000
,  // measure 52
2000
0000
0000
3000
,  // measure 53
1000
0000
0000
0000
,  // measure 54
0200
0000
0000
0300
,  // measure 55
0100
0000
0000
0000
,  // measure 56
0100
0000
0000
0000
,  // measure 57
0010
0000
0000
0000
,  // measure 58
0100
0000
0000
0000
,  // measure 59
0010
0000
0000
0000
,  // measure 60
0001
0000
0000
0000
,  // measure 61
1000
0000
0000
0000
,  // measure 62
0001
0000
0000
0000
,  // measure 63
1000
0000
0000
0000
,  // measure 64
1001
0000
0000
0000
,  // measure 65
0100
0000
0000
0000
,  // measure 66
0100
0000
0000
0000
,  // measure 67
0100
0000
0000
0000
,  // measure 68
1001
0000
0000
0000
,  // measure 69
0010
0000
0000
0000
,  // measure 70
0010
0000
0000
0000
,  // measure 71
0010
0000
0000
0000
,  // measure 72
1000
0000
0000
0000
,  // measure 73
1000
0000
0000
0000
,  // measure 74
0001
0000
0000
0000
,  // measure 75
0001
0000
0000
0000
;

//---------------dance-single - ----------------
#NOTEDATA:;
#CHARTNAME:;
#STEPSTYPE:dance-single;
#DESCRIPTION:;
#CHARTSTYLE:;
#DIFFICULTY:Easy;
#METER:6;
#RADARVALUES:0.266729,0.326958,0.034417,0.000000,0.000000,217.000000,213.000000,4.000000,0.000000,0.000000,0.000000,0.000000,0.000000,0.000000,0.266729,0.326958,0.034417,0.000000,0.000000,217.000000,213.000000,4.000000,0.000000,0.000000,0.000000,0.000000,0.000000,0.000000;
#CREDIT:;
#NOTES:
// measure 0
0000
0000
0000
0000
,  // measure 1
0000
0000
0000
0000
,  // measure 2
0000
0000
0000
0000
,  // measure 3
0000
0000
0000
0000
,  // measure 4
1000
0000
1000
0000
,  // measure 5
0001
0000
0001
0000
,  // measure 6
0100
0000
0100
0000
,  // measure 7
0010
0000
0010
0000
,  // measure 8
0100
0100
0100
0000
,  // measure 9
0010
0010
0010
0000
,  // measure 10
1000
0001
1000
0000
,  // measure 11
0001
1000
0001
0000
,  // measure 12
1000
1000
1000
0000
,  // measure 13
0100
0100
0100
0000
,  // measure 14
0010
0001
0010
0000
,  // measure 15
0001
0010
0001
0000
,  // measure 16
0001
1000
0001
1000
,  // measure 17
1000
0001
1000
0001
,  // measure 18
0001
1000
0001
1000
,  // measure 19
1000
0001
1000
0001
,  // measure 20
0100
0010
0100
0010
,  // measure 21
0010
0100
0010
0100
,  // measure 22
0100
0010
0100
0010
,  // measure 23
0110
0000
0000
0000
,  // measure 24
1000
0000
0001
1000
,  // measure 25
0000
0001
1000
0000
,  // measure 26
0100
0100
0100
0000
,  // measure 27
0010
0010
0010
0000
,  // measure 28
0110
0000
0000
0000
,  // measure 29
0010
0000
0100
0010
,  // measure 30
0000
0100
0010
0000
,  // measure 31
0100
0000
1000
0000
,  // measure 32
0001
0001
0001
0001
,  // measure 33
0100
0100
0100
0100
,  // measure 34
0010
0010
0010
0010
,  // measure 35
1000
1000
1000
1000
,  // measure 36
0100
0100
0100
0100
,  // measure 37
0010
0010
0010
0010
,  // measure 38
0001
0001
0001
0001
,  // measure 39
1000
1000
1000
1000
,  // measure 40
0001
0000
0000
0000
,  // measure 41
0010
0000
0000
0000
,  // measure 42
0001
0000
0000
0000
,  // measure 43
0100
0000
0000
0000
,  // measure 44
1000
0000
0000
0000
,  // measure 45
0010
0000
0000
0000
,  // measure 46
1000
0000
0000
0000
,  // measure 47
0001
0000
0000
0000
,  // measure 48
1000
0001
1000
0001
,  // measure 49
0001
1000
0001
1000
,  // measure 50
1000
0001
1000
0001
,  // measure 51
0001
1000
0001
1000
,  // measure 52
0010
0100
0010
0100
,  // measure 53
0100
0010
0100
0010
,  // measure 54
0010
0100
0010
0100
,  // measure 55
0110
0000
0000
0000
,  // measure 56
0001
0000
1000
0001
,  // measure 57
0000
1000
0001
0000
,  // measure 58
0010
0010
0010
0000
,  // measure 59
0100
0100
0100
0000
,  // measure 60
0110
0000
0000
0000
,  // measure 61
0100
0000
0100
0010
,  // measure 62
0000
0100
0010
0000
,  // measure 63
0010
0000
0001
0000
,  // measure 64
1000
1000
1000
1000
,  // measure 65
0001
0001
0001
0001
,  // measure 66
0100
0100
0100
0100
,  // measure 67
0010
0010
0010
0010
,  // measure 68
1000
1000
1000
1000
,  // measure 69
0001
0001
0001
0001
,  // measure 70
0010
0010
0010
0010
,  // measure 71
0100
0100
0100
0100
,  // measure 72
0100
0000
0100
0000
,  // measure 73
0100
0010
0001
1000
,  // measure 74
0001
0000
1000
0000
,  // measure 75
0001
0100
0010
1000
,  // measure 76
0001
0000
0000
0000
;

//---------------dance-single - ----------------
#NOTEDATA:;
#CHARTNAME:;
#STEPSTYPE:dance-single;
#DESCRIPTION:;
#CHARTSTYLE:;
#DIFFICULTY:Medium;
#METER:9;
#RADARVALUES:0.346624,0.425045,0.249520,0.292541,0.051625,282.000000,253.000000,29.000000,34.000000,0.000000,0.000000,0.000000,0.000000,0.000000,0.346624,0.425045,0.249520,0.292541,0.051625,282.000000,253.000000,29.000000,34.000000,0.000000,0.000000,0.000000,0.000000,0.000000;
#CREDIT:;
#NOTES:
// measure 0
0000
0000
0000
0000
,  // measure 1
0000
0000
0000
0000
,  // measure 2
0000
0000
0000
0000
,  // measure 3
0000
0000
0000
0000
,  // measure 4
1000
0000
1000
0000
,  // measure 5
0010
0100
0001
0000
,  // measure 6
0001
0000
0001
0000
,  // measure 7
0010
0100
1000
0000
,  // measure 8
0001
0000
1001
0000
,  // measure 9
0001
1000
0010
0000
,  // measure 10
0100
0000
0110
0000
,  // measure 11
0010
0100
0001
0000
,  // measure 12
1000
0000
1001
0000
,  // measure 13
0100
0010
0001
0000
,  // measure 14
0010
0100
1000
0001
,  // measure 15
0010
0001
1000
0010
,  // measure 16
2000
3010
0002
0013
,  // measure 17
2000
3010
0002
0013
,  // measure 18
2000
3100
0002
0103
,  // measure 19
2000
3100
0002
0103
,  // measure 20
2000
3010
0002
0103
,  // measure 21
2000
3010
0002
0103
,  // measure 22
0002
0023
0230
2300
,  // measure 23
3001
0000
0000
0000
,  // measure 24
1000
0000
0000
1000
0000
0000
1000
0000
1000
0000
0000
0000
0001
0000
0000
0000
,  // measure 25
0000
0001
0101
0000
,  // measure 26
0100
0000
0000
0100
0000
0000
0100
0000
0100
0000
0000
0000
0010
0000
0000
0000
,  // measure 27
0000
0100
0110
0110
,  // measure 28
0010
0000
0000
0010
0000
0000
0010
0000
0010
0000
0000
0000
1000
0000
0000
0000
,  // measure 29
0000
0010
1010
0000
,  // measure 30
1000
0000
0000
1000
0000
0000
1000
0000
1000
0000
0000
0000
0001
0000
0000
0000
,  // measure 31
0000
1000
1001
0000
,  // measure 32
1000
0000
0000
0001
0000
0000
1000
0000
0001
0000
0000
0000
1001
0000
0000
0000
,  // measure 33
0000
1000
0001
0000
,  // measure 34
1000
0100
0010
0001
,  // measure 35
1000
1100
0001
0101
,  // measure 36
0001
0000
0000
0100
0000
0000
0001
0000
0100
0000
0000
0000
0101
0000
0000
0000
,  // measure 37
0000
0100
0001
0000
,  // measure 38
0001
0010
0100
1000
,  // measure 39
0001
0011
1000
1010
,  // measure 40
0010
0000
1000
0000
0001
0000
0010
0010
,  // measure 41
0010
0001
1000
0010
,  // measure 42
0100
0000
0001
0000
1000
0000
0100
0100
,  // measure 43
0100
1000
0001
0100
,  // measure 44
0010
0000
1000
0000
0001
0000
0010
0010
,  // measure 45
0010
0001
1000
0010
,  // measure 46
0110
0000
1001
0000
,  // measure 47
0110
0000
1001
0000
,  // measure 48
0002
0103
2000
3100
,  // measure 49
0002
0103
2000
3100
,  // measure 50
0002
0013
2000
3010
,  // measure 51
0002
0013
2000
3010
,  // measure 52
0002
0103
2000
3010
,  // measure 53
0002
0103
2000
3010
,  // measure 54
2000
3200
0320
0032
,  // measure 55
1003
0000
0000
0000
,  // measure 56
0001
0000
0000
0001
0000
0000
0001
0000
0001
0000
0000
0000
1000
0000
0000
0000
,  // measure 57
0000
1000
1010
0000
,  // measure 58
0010
0000
0000
0010
0000
0000
0010
0000
0010
0000
0000
0000
0100
0000
0000
0000
,  // measure 59
0000
0010
0110
0110
,  // measure 60
0100
0000
0000
0100
0000
0000
0100
0000
0100
0000
0000
0000
0001
0000
0000
0000
,  // measure 61
0000
0100
0101
0000
,  // measure 62
0001
0000
0000
0001
0000
0000
0001
0000
0001
0000
0000
0000
1000
0000
0000
0000
,  // measure 63
0000
0001
1001
0000
,  // measure 64
0001
0000
0000
1000
0000
0000
0001
0000
1000
0000
0000
0000
1001
0000
0000
0000
,  // measure 65
0000
0001
1000
0000
,  // measure 66
0001
0010
0100
1000
,  // measure 67
0001
0011
1000
1010
,  // measure 68
1000
0000
0000
0010
0000
0000
1000
0000
0010
0000
0000
0000
1010
0000
0000
0000
,  // measure 69
0000
0010
1000
0000
,  // measure 70
1000
0100
0010
0001
,  // measure 71
1000
1100
0001
0101
,  // measure 72
0100
0100
0010
0100
,  // measure 73
0000
0010
0100
0000
,  // measure 74
0001
0001
1000
0001
,  // measure 75
0000
1000
0002
2003
,  // measure 76
3000
0000
0000
0000
;

//---------------dance-single - ----------------
#NOTEDATA:;
#CHARTNAME:;
#STEPSTYPE:dance-single;
#DESCRIPTION:;
#CHARTSTYLE:;
#DIFFICULTY:Hard;
#METER:14;
#RADARVALUES:0.621957,0.752003,0.034417,0.499041,0.417301,506.000000,502.000000,4.000000,58.000000,0.000000,0.000000,0.000000,0.000000,0.000000,0.621957,0.752003,0.034417,0.499041,0.417301,506.000000,502.000000,4.000000,58.000000,0.000000,0.000000,0.000000,0.000000,0.000000;
#CREDIT:;
#NOTES:
// measure 0
0000
0000
0000
0000
,  // measure 1
0000
0000
0000
0000
,  // measure 2
0000
0000
0000
0000
,  // measure 3
0000
0000
0000
0000
,  // measure 4
1000
0000
0010
1000
0100
0000
0010
0000
,  // measure 5
0100
1000
0010
1000
0100
0000
0010
0000
,  // measure 6
0001
0000
0100
0001
0010
0000
0100
0000
,  // measure 7
0010
0001
0100
0001
0010
0100
1000
0001
,  // measure 8
1000
1000
0001
0000
0000
0100
0010
0100
,  // measure 9
0100
0001
0001
0010
0010
0100
0100
1000
,  // measure 10
0010
0100
0001
0100
0010
1000
0001
1000
,  // measure 11
1000
0100
0100
0010
0010
0001
0001
0000
,  // measure 12
0001
0001
1000
0000
0000
0010
0100
0010
,  // measure 13
0010
1000
1000
0100
0100
0010
0010
0001
,  // measure 14
0100
0010
1000
0010
0100
0001
1000
0001
,  // measure 15
0001
0010
0010
0100
0100
1000
1000
0000
,  // measure 16
2000
3000
0200
0300
0020
0030
0002
0013
,  // measure 17
0020
0000
0030
0000
2000
0000
3000
0000
0002
0000
0003
2000
0000
3000
0002
0000
,  // measure 18
2003
3000
0020
0030
0200
0300
0020
2030
,  // measure 19
3200
0000
0300
0000
0020
0000
0030
0000
0200
0000
0300
2000
0000
3000
0200
0000
,  // measure 20
2300
3000
0020
0030
0200
0300
0002
0103
,  // measure 21
0200
0000
0300
0000
2000
0000
3000
0000
0020
0000
0030
2000
0000
3000
0002
0000
,  // measure 22
1003
0000
1000
0000
0100
0000
0100
0000
0010
0000
0010
0000
0001
1000
0001
1000
,  // measure 23
0001
0000
0000
0000
,  // measure 24
1000
0000
0000
0010
0000
0000
0100
0000
0001
0000
0001
0000
0001
0000
1000
0001
,  // measure 25
1000
0000
0000
0100
0000
0000
0010
0000
0100
0000
0100
0000
0100
0000
1000
0001
,  // measure 26
1000
0000
0000
1000
0000
0000
0001
0000
0100
0000
0100
0000
0100
0000
0010
1000
,  // measure 27
0010
0000
0000
1000
0000
0000
0001
0000
0001
0000
0001
0100
1000
0100
0001
0000
,  // measure 28
0010
0000
0000
0001
0000
0000
1000
0000
0100
0000
0100
0000
0100
0000
0010
0100
,  // measure 29
0010
0000
0000
0001
0000
0000
1000
0000
0001
0000
0001
0000
0001
0000
0010
0100
,  // measure 30
0010
0000
0000
0010
0000
0000
0100
0000
1000
0000
1000
0000
1000
0000
0001
0010
,  // measure 31
0001
0000
0000
0010
0000
0000
0100
0000
0100
0000
0100
1000
0010
1000
0100
0000
,  // measure 32
1000
0000
0000
0100
0000
0000
0010
0000
0001
0000
1000
0000
1000
0000
0001
1000
,  // measure 33
0001
0000
0000
0010
0000
0000
0100
0000
0010
0000
0010
0000
0010
0000
0001
1000
,  // measure 34
0001
0000
0000
0001
0000
0000
1000
0000
0010
0000
0010
0000
0010
0000
0100
0001
,  // measure 35
0100
0000
0000
0001
0000
0000
1000
0000
1000
0000
1000
0010
0001
0010
1000
0000
,  // measure 36
0100
0000
0000
1000
0000
0000
0001
0000
0010
0000
0010
0000
0010
0000
0100
0010
,  // measure 37
0100
0000
0000
1000
0000
0000
0001
0000
1000
0000
1000
0000
1000
0000
0100
0010
,  // measure 38
0100
0000
0000
0100
0000
0000
0010
0000
0100
0000
0000
0100
0000
0000
0010
0000
,  // measure 39
0100
0000
0000
1000
0000
0000
0001
0000
0010
0000
0010
0000
0001
0100
0010
0000
,  // measure 40
0100
0000
0010
0000
0100
0000
0010
0100
,  // measure 41
0001
0000
0000
0000
0100
0000
0000
0000
0001
0000
0000
0001
0000
0000
0001
0000
,  // measure 42
0100
0000
0010
0000
0100
0000
0010
1000
,  // measure 43
0100
0000
0000
0000
1000
0000
0000
0000
0100
0000
0000
0100
0000
0000
0100
0000
,  // measure 44
1000
0000
0100
0000
0010
0000
0100
1000
,  // measure 45
0010
0000
0000
0000
0100
0000
0000
0000
0001
0000
0000
0100
0000
0000
0010
0000
,  // measure 46
0110
0000
1010
0000
,  // measure 47
1001
0000
0011
0000
,  // measure 48
0002
0003
0020
0030
0200
0300
2000
3100
,  // measure 49
0200
0000
0300
0000
0002
0000
0003
0000
2000
0000
3000
0002
0000
0003
2000
0000
,  // measure 50
3002
0003
0200
0300
0020
0030
0200
0302
,  // measure 51
0023
0000
0030
0000
0200
0000
0300
0000
0020
0000
0030
0002
0000
0003
0020
0000
,  // measure 52
0032
0003
0200
0300
0020
0030
2000
3010
,  // measure 53
0020
0000
0030
0000
0002
0000
0003
0000
0200
0000
0300
0002
0000
0003
2000
0000
,  // measure 54
3001
0000
0001
0000
0010
0000
0010
0000
0100
0000
0100
0000
1000
0001
1000
0001
,  // measure 55
1000
0000
0000
0000
,  // measure 56
0001
0000
0000
0100
0000
0000
0010
0000
0000
0000
0000
0000
1000
0000
0001
1000
,  // measure 57
0001
0000
0000
0010
0000
0000
0100
0000
0010
0000
0010
0000
0010
0000
0001
1000
,  // measure 58
0001
0000
0000
0001
0000
0000
1000
0000
0010
0000
0010
0000
0010
0000
0100
0001
,  // measure 59
0000
0000
0100
0001
0100
0001
1000
0010
1000
0010
1000
0001
1000
0001
1000
0000
,  // measure 60
0100
0000
0000
1000
0000
0000
0001
0000
0010
0000
0010
0000
0010
0000
0100
0010
,  // measure 61
0100
0000
0000
1000
0000
0000
0001
0000
1000
0000
1000
0000
1000
0000
0100
0010
,  // measure 62
0100
0000
0000
0100
0000
0000
0010
0000
0001
0000
0001
0000
0001
0000
1000
0100
,  // measure 63
0000
0000
1000
0100
1000
0100
0010
0001
0010
0001
0010
0000
0000
0000
0010
0000
,  // measure 64
0001
0000
0000
0010
0001
0000
0100
0000
0010
1000
0010
0000
1000
0000
1000
0001
,  // measure 65
1000
0000
0000
0100
1000
0000
0010
0000
0100
0001
0100
0000
0100
0000
0001
1000
,  // measure 66
0001
0000
0000
1000
0001
0000
0001
0000
0100
0001
0100
0000
0100
0000
0010
1000
,  // measure 67
0010
0000
0000
1000
0010
0000
1000
0000
0001
0100
0001
0100
0001
1000
0001
1000
,  // measure 68
0010
0000
0000
1000
0010
0000
1000
0000
0100
1000
0100
0000
0100
0000
0010
0100
,  // measure 69
0010
0000
0000
0001
0010
0000
0001
0000
0001
0100
0001
0000
0001
0000
0010
0100
,  // measure 70
0010
0000
0000
0010
0100
0000
0100
0000
0010
0100
0010
0100
1000
0000
0001
1000
,  // measure 71
0001
0000
0000
1000
0001
0000
1000
0000
0010
0100
0010
0100
0010
0000
0000
0000
,  // measure 72
0100
0000
0010
1000
0100
0000
0010
0000
,  // measure 73
0100
1000
0010
1000
0100
0000
0010
0000
,  // measure 74
0001
0000
0100
0001
0010
0000
0100
0000
,  // measure 75
0010
0001
0100
0001
0010
0100
2000
0002
,  // measure 76
3003
0000
0000
0000
;
