#TITLE:Burn (Axwell Radio Edit);
#SUBTITLE:;
#ARTIST:Usher;
#TITLETRANSLIT:;
#SUBTITLETRANSLIT:;
#ARTISTTRANSLIT:;
#GENRE:Pop;
#CREDIT:chewi;
#BANNER:Burn (Axwell Radio Edit).png;
#BACKGROUND:Burn (Axwell Radio Edit)-bg.png;
#LYRICSPATH:;
#CDTITLE:cdtitle.png;
#MUSIC:Burn (Axwell Radio Edit).ogg;
#OFFSET:-2.518000;
#SAMPLESTART:40.919998;
#SAMPLELENGTH:15.000000;
#SELECTABLE:YES;
#DISPLAYBPM:125.000000;
#BPMS:0.000000=125.000000
;
#STOPS:
;
#BGCHANGES:;
#KEYSOUNDS:;
#ATTACKS:;

//---------------dance-single - ----------------
#NOTES:
     dance-single:
     :
     Beginner:
     1:
     0.066665,0.097776,0.011111,0.088887,0.000000,42.000000,41.000000,1.000000,8.000000,0.000000,0.000000,0.066665,0.097776,0.011111,0.088887,0.000000,42.000000,41.000000,1.000000,8.000000,0.000000,0.000000:
// measure 0
0000
0000
0000
0000
,  // measure 1
0000
0000
0000
0000
,  // measure 2
0000
0000
0000
0000
,  // measure 3
0000
0000
0000
0000
,  // measure 4
1000
0000
0000
0000
,  // measure 5
0001
0000
0000
0000
,  // measure 6
1000
0000
0000
0000
,  // measure 7
0001
0000
0000
0000
,  // measure 8
0100
0000
0000
0000
,  // measure 9
0010
0000
0000
0000
,  // measure 10
0100
0000
0000
0000
,  // measure 11
0010
0000
0000
0000
,  // measure 12
1000
0000
0000
0000
,  // measure 13
0001
0000
0000
0000
,  // measure 14
1000
0000
0000
0000
,  // measure 15
1000
0000
0000
0000
,  // measure 16
0100
0000
0000
0000
,  // measure 17
0100
0000
0000
0000
,  // measure 18
0100
0000
0000
0000
,  // measure 19
0010
0000
0000
0000
,  // measure 20
2000
0000
0000
3000
,  // measure 21
1000
0000
0000
0000
,  // measure 22
0002
0000
0000
0003
,  // measure 23
0001
0000
0000
0000
,  // measure 24
2000
0000
0000
3000
,  // measure 25
1000
0000
0000
0000
,  // measure 26
0002
0000
0000
0003
,  // measure 27
0001
0000
0000
0000
,  // measure 28
0020
0000
0000
0030
,  // measure 29
0010
0000
0000
0000
,  // measure 30
0200
0000
0000
0300
,  // measure 31
0100
0000
0000
0000
,  // measure 32
2000
0000
0000
3000
,  // measure 33
1000
0000
0000
0000
,  // measure 34
0002
0000
0000
0003
,  // measure 35
0001
0000
0000
0000
,  // measure 36
0001
0000
0000
0000
,  // measure 37
1000
0000
0000
0000
,  // measure 38
0001
0000
0000
0000
,  // measure 39
1000
0000
0000
0000
,  // measure 40
0010
0000
0000
0000
,  // measure 41
0100
0000
0000
0000
,  // measure 42
0010
0000
0000
0000
,  // measure 43
0100
0000
0000
0000
,  // measure 44
1001
0000
0000
0000
;

//---------------dance-single - ----------------
#NOTES:
     dance-single:
     :
     Easy:
     3:
     0.123807,0.195551,0.011111,0.177774,0.000000,78.000000,77.000000,1.000000,16.000000,0.000000,0.000000,0.123807,0.195551,0.011111,0.177774,0.000000,78.000000,77.000000,1.000000,16.000000,0.000000,0.000000:
0000
0000
0000
0000
,
0000
0000
0000
0000
,
0000
0000
0000
0000
,
0000
0000
0000
0000
,
2000
0000
0000
3000
,
0002
0000
0000
0003
,
1000
0001
1000
0000
,
0001
1000
0001
0000
,
0200
0000
0000
0300
,
0020
0000
0000
0030
,
0100
0010
0100
0000
,
0010
0100
0010
0000
,
0001
0000
0001
0000
,
0001
0010
0100
0000
,
1000
0000
1000
0000
,
1000
0100
0010
0000
,
0100
0000
0100
0000
,
0100
0010
0001
0000
,
0100
0000
0100
0000
,
0010
0100
0001
0000
,
2000
0000
0000
3000
,
0100
0000
0100
0000
,
0002
0000
0000
0003
,
0100
0000
0100
0000
,
2000
0000
0000
3000
,
0010
0000
0010
0000
,
0002
0000
0000
0003
,
0010
0000
0010
0000
,
0020
0000
0000
0030
,
0100
0000
0100
0000
,
0200
0000
0000
0300
,
0010
0000
0010
0000
,
2000
0000
0000
3000
,
0001
0000
0001
0000
,
0002
0000
0000
0003
,
1000
0000
1000
0000
,
0002
0000
0000
0003
,
2000
0000
0000
3000
,
0001
1000
0001
0000
,
1000
0001
1000
0000
,
0020
0000
0000
0030
,
0200
0000
0000
0300
,
0010
0100
0010
0000
,
0100
0010
0100
0000
,
1001
0000
0000
0000
;

//---------------dance-single - ----------------
#NOTES:
     dance-single:
     :
     Medium:
     6:
     0.217455,0.219995,0.022222,0.044443,0.000000,137.000000,135.000000,2.000000,4.000000,0.000000,0.000000,0.217455,0.219995,0.022222,0.044443,0.000000,137.000000,135.000000,2.000000,4.000000,0.000000,0.000000:
0000
0000
0000
0000
,
0000
0000
0000
0000
,
0000
0000
0000
0000
,
0000
0000
0000
0000
,
1000
0001
0100
0000
,
0001
1000
0010
0000
,
1000
0001
0010
0000
,
0001
1000
0100
0000
,
1000
0100
0010
0001
,
1000
0100
1000
0000
,
0001
0010
0100
1000
,
0001
0010
0001
0000
,
0000
0001
0000
0001
0000
1000
0000
0000
,
0000
1000
0000
1000
0000
0001
0000
0000
,
0000
0100
0000
0100
0000
0010
0000
0000
,
0000
0010
0000
0010
0000
0100
0000
0000
,
0000
0001
0000
1000
0000
0001
0000
0000
,
0000
1000
0000
0001
0000
1000
0000
0000
,
0000
0001
0000
0010
0000
0100
0000
0000
,
1001
0000
0000
0000
,
0100
0010
0001
1000
,
0100
0100
0100
0100
,
0010
0100
1000
0001
,
0010
0010
0010
0010
,
0001
1000
0010
0100
,
0001
0010
0100
1000
,
0001
0100
1000
0010
,
0001
0100
1000
0010
,
0001
0010
0100
1000
,
0001
0001
0001
0001
,
1000
0010
0100
0001
,
0100
0100
0100
0100
,
0010
1000
0100
0001
,
0010
1000
0100
0001
,
0010
0001
0100
1000
,
0010
0001
0100
1000
,
0020
0000
1000
0000
,
1030
0001
1000
0000
,
2000
0000
0001
0000
,
3100
0010
0001
0000
,
0020
0000
0001
0000
,
0031
0010
0100
1000
,
0002
0000
1000
0000
,
1003
0010
0100
0001
,
1001
0000
0000
0000
;

//---------------dance-single - ----------------
#NOTES:
     dance-single:
     :
     Hard:
     8:
     0.298406,0.342215,0.155552,0.066665,0.000000,188.000000,174.000000,14.000000,6.000000,0.000000,0.000000,0.298406,0.342215,0.155552,0.066665,0.000000,188.000000,174.000000,14.000000,6.000000,0.000000,0.000000:
0000
0000
0000
0000
,
0000
0000
0000
0000
,
0000
0000
0000
0000
,
0000
0000
0000
0000
,
1001
0001
1000
0001
,
1001
1000
0001
1000
,
0001
0010
0001
0000
1000
0100
1000
0000
,
0001
0100
0001
0000
1000
0010
1000
0000
,
0110
0010
0100
0010
,
0110
0100
0010
0100
,
0001
0100
0001
0000
1000
0010
1000
0000
,
0001
0010
0001
0000
1000
0100
1000
0000
,
0001
0010
0100
0000
1000
0000
0001
0000
,
1000
0010
0001
0100
,
1000
0010
0100
0000
0001
0000
0100
0000
,
0001
0010
1000
0100
,
0001
0010
0100
0000
1000
0000
0100
0000
,
1000
0010
0001
0100
,
1000
0100
0010
0000
0001
0000
0010
0000
,
2002
0000
0000
3003
,
1000
0010
0001
0000
1000
0100
0001
0000
,
1000
1100
0001
0101
,
0001
0100
1000
0000
0001
0010
1000
0000
,
1000
1100
0001
0101
,
0001
0010
1000
0000
0001
0100
1000
0000
,
0001
0011
1000
1010
,
1000
0100
0001
0000
1000
0010
0001
0000
,
1000
1010
0001
0011
,
0010
1000
0100
0001
,
1000
0000
0010
0000
0001
0000
0100
0100
,
0100
1000
0010
0001
,
1000
0000
0100
0000
0001
0000
0010
0010
,
0010
0001
0100
1000
,
0001
0000
0010
0000
1000
0000
0100
0100
,
0100
0001
0010
1000
,
0001
0000
0100
0000
1000
0000
0010
0010
,
0020
0000
0000
0000
,
1030
0000
0100
0000
0010
0010
0001
0000
,
0002
0000
0000
0000
,
1003
0000
0010
0000
0100
0100
0001
0000
,
0200
0000
0000
0000
,
0301
0000
0010
0000
0100
0100
1000
0000
,
2000
0000
0000
0000
,
3100
0000
0010
0000
0001
0001
1000
0000
,
1001
0000
0000
0000
;
