#TITLE:Bulletproof;
#SUBTITLE:;
#ARTIST:LA ROUX;
#TITLETRANSLIT:;
#SUBTITLETRANSLIT:;
#ARTISTTRANSLIT:;
#GENRE:;
#CREDIT:Chewi☆;
#MENUCOLOR:#FFFFFF;
#METERTYPE:DDR X;
#BANNER:Bulletproof.png;
#BACKGROUND:Bulletproof-bg.png;
#LYRICSPATH:;
#CDTITLE:./CDTITLES/DanceDanceRevolution skyMIX3 -breeze-.png;
#MUSIC:Bulletproof.mp3;
#OFFSET:-0.480;
#SAMPLESTART:49.005;
#SAMPLELENGTH:15.000;
#SELECTABLE:YES;
#LISTSORT:;
#DISPLAYBPM:123.000;
#BPMS:0.000=123.000;
#STOPS:;
#BGCHANGES:0.000=Bulletproof.avi=1.000=1=1=0,
181.000=Bulletproof-bg.png=1.000=1=0=1,
99999=-nosongbg-=1.000=0=0=0 // don't automatically add -songbackground-
;
#ATTACKS:;

//---------------dance-single - Chewi----------------
#NOTES:
     dance-single:
     Chewi:
     Beginner:
     2:
     0.119,0.147,0.055,0.044,0.000: // measure 1
0000
0000
0000
0000
,  // measure 2
0000
0000
0000
0000
,  // measure 3
0000
0000
0000
0000
,  // measure 4
0000
0000
0000
0000
,  // measure 5
0100
0000
0001
0000
,  // measure 6
0010
0000
0001
0000
,  // measure 7
0010
0000
0100
0000
,  // measure 8
0100
0000
0010
0000
,  // measure 9
0100
0000
0010
0000
,  // measure 10
1000
0000
0001
0000
,  // measure 11
0100
0000
0010
0000
,  // measure 12
0110
0000
0000
0000
,  // measure 13
0010
0000
0100
0000
,  // measure 14
0001
0000
0010
0000
,  // measure 15
0100
0000
1000
0000
,  // measure 16
1001
0000
0000
0000
,  // measure 17
0100
0000
0010
0000
,  // measure 18
0010
0000
0100
0000
,  // measure 19
0010
0000
0000
0000
,  // measure 20
1001
0000
0000
0000
,  // measure 21
0010
0000
0001
0000
,  // measure 22
1000
0000
0010
0000
,  // measure 23
0001
0000
0010
0000
,  // measure 24
0110
0000
0000
0000
,  // measure 25
1001
0000
0000
0000
,  // measure 26
0001
0000
0000
0000
,  // measure 27
0100
0000
0100
0000
,  // measure 28
0200
0000
0000
0300
,  // measure 29
0100
0000
0000
0000
,  // measure 30
0010
0000
0010
0000
,  // measure 31
1000
0000
1000
0000
,  // measure 32
2000
0000
0000
3000
,  // measure 33
1000
0000
0000
0000
,  // measure 34
0100
0000
1000
0000
,  // measure 35
0100
0000
0001
0000
,  // measure 36
0002
0000
0000
0003
,  // measure 37
0001
0000
0000
0000
,  // measure 38
0010
0000
0001
0000
,  // measure 39
0001
0000
0001
0000
,  // measure 40
0200
0000
0000
0300
,  // measure 41
0100
0000
0000
0000
,  // measure 42
0010
0000
0010
0000
,  // measure 43
0100
0000
0100
0000
,  // measure 44
0001
0000
0001
0000
,  // measure 45
1000
0000
1000
0000
;

//---------------dance-single - Chewi----------------
#NOTES:
     dance-single:
     Chewi:
     Easy:
     4:
     0.203,0.271,0.088,0.099,0.000: // measure 1
0000
0000
0000
0000
,  // measure 2
0000
0000
0000
0000
,  // measure 3
0000
0000
0000
0000
,  // measure 4
0000
0000
0000
0000
,  // measure 5
1000
0100
0100
0000
,  // measure 6
0001
0100
0100
0000
,  // measure 7
0001
1000
1000
0000
,  // measure 8
1000
0001
0001
0000
,  // measure 9
1000
0100
0001
0000
,  // measure 10
0010
0000
0100
0000
,  // measure 11
1000
0000
0001
1000
,  // measure 12
1001
0000
0000
0000
,  // measure 13
0001
0010
1000
0000
,  // measure 14
0100
0000
0001
0000
,  // measure 15
1000
0000
0010
0000
,  // measure 16
0110
0000
0000
0000
,  // measure 17
1000
0100
0001
1000
,  // measure 18
0001
0100
1000
0001
,  // measure 19
0010
0100
0010
0100
,  // measure 20
0110
0000
0000
0000
,  // measure 21
0001
0010
0100
1000
,  // measure 22
0010
0100
0001
1000
,  // measure 23
0100
0010
0001
1000
,  // measure 24
1001
0000
0000
0000
,  // measure 25
0200
0000
0000
0300
,  // measure 26
0010
0010
0010
0010
,  // measure 27
1000
0001
1000
0001
,  // measure 28
2000
0000
0000
0000
,  // measure 29
0200
0000
0000
3300
,  // measure 30
0001
1000
0001
1000
,  // measure 31
0010
0100
0010
0100
,  // measure 32
0020
0000
0000
0000
,  // measure 33
2000
0000
0000
3030
,  // measure 34
1000
0001
0010
0100
,  // measure 35
1000
0001
0100
0010
,  // measure 36
0200
0000
0000
0000
,  // measure 37
0002
0000
0000
0303
,  // measure 38
0001
0010
0100
0010
,  // measure 39
0100
1000
0100
1000
,  // measure 40
2000
0000
0000
0000
,  // measure 41
0002
0000
0000
3003
,  // measure 42
0001
0001
0001
1001
,  // measure 43
1000
1000
1000
1001
,  // measure 44
0100
0100
0100
0110
,  // measure 45
0010
0010
0010
0110
;

//---------------dance-single - Chewi----------------
#NOTES:
     dance-single:
     Chewi:
     Medium:
     8:
     0.302,0.321,0.143,0.044,0.027: // measure 1
0000
0000
0000
0000
,  // measure 2
0000
0000
0000
0000
,  // measure 3
0000
0000
0000
0000
,  // measure 4
0000
0000
0000
0000
,  // measure 5
1000
0000
0100
0000
0001
0100
1000
0000
,  // measure 6
1000
0000
0100
0000
0001
0100
1000
0000
,  // measure 7
1000
0000
0100
0000
0001
0100
1000
0000
,  // measure 8
1000
0000
0100
0000
0001
0100
1000
0000
,  // measure 9
1000
0000
0001
0000
0100
0010
0100
0000
,  // measure 10
0010
1000
0100
0001
,  // measure 11
0010
0100
0010
0001
,  // measure 12
1001
0000
0000
0000
,  // measure 13
0001
0000
1000
0000
0010
0100
0010
0000
,  // measure 14
1000
0100
0010
0001
,  // measure 15
0010
0100
1000
0001
,  // measure 16
1001
0000
0000
0000
,  // measure 17
1000
0000
0010
0000
0100
0100
0100
0000
,  // measure 18
0001
0000
0100
0000
0010
0010
0010
0000
,  // measure 19
1000
0001
0010
0100
,  // measure 20
0110
0100
0000
0010
0000
1000
0001
0000
,  // measure 21
0010
0000
0100
0000
1000
0001
1000
0000
,  // measure 22
0010
0001
0010
1000
,  // measure 23
0100
0001
0100
1000
,  // measure 24
1001
1000
0000
0001
0000
0100
0110
0000
,  // measure 25
0000
0000
1000
0000
0100
0000
0000
0010
0000
0000
0001
0000
0000
0000
0000
0000
,  // measure 26
0010
1000
0000
0010
0000
0010
0000
0100
,  // measure 27
0000
0002
0000
0000
0000
0000
0003
0000
,  // measure 28
0001
0010
0100
0000
1000
0000
0100
0000
,  // measure 29
1000
1001
0100
0110
,  // measure 30
1000
0010
0000
0100
0000
0010
0000
0001
,  // measure 31
0000
0020
0000
0000
0000
0000
0030
0000
,  // measure 32
0100
0010
0001
0000
1000
0000
0010
0000
,  // measure 33
0100
0000
1001
0000
0010
0000
1001
0001
,  // measure 34
0010
0100
0000
1000
0000
0010
0000
0100
,  // measure 35
0000
0002
0000
0000
0000
0000
0003
0000
,  // measure 36
0100
0010
1000
0000
0100
0000
0010
0000
,  // measure 37
0001
0110
0100
1001
,  // measure 38
1000
0100
0000
0001
0000
0010
0000
0100
,  // measure 39
0000
2000
0000
0000
0000
0000
3000
0000
,  // measure 40
0010
0001
0010
0000
0010
0000
0100
0000
,  // measure 41
1000
1001
0100
0110
,  // measure 42
0010
0000
1000
0000
0001
0000
0010
0000
0100
0000
0000
0100
0000
0000
0000
0000
,  // measure 43
0010
0000
0001
0000
1000
0000
0010
0000
0100
0000
0000
0100
0000
0000
0000
0000
,  // measure 44
0010
0000
1000
0000
0001
0000
0010
0000
0100
0000
0000
0100
0000
0000
0000
0000
,  // measure 45
0010
0000
0001
0000
1000
0000
0010
0000
0100
0000
0000
0100
0000
0000
0100
0000
;

//---------------dance-single - Chewi----------------
#NOTES:
     dance-single:
     Chewi:
     Hard:
     11:
     0.520,0.469,0.154,0.000,0.187: // measure 1
0000
0000
0000
0000
,  // measure 2
0000
0000
0000
0000
,  // measure 3
0000
0000
0000
0000
,  // measure 4
0000
0000
0000
0000
,  // measure 5
1000
0000
0100
0000
0010
0000
0001
0000
1000
0000
0001
0010
0000
1000
0010
0000
,  // measure 6
0001
0000
0100
0000
0010
0000
1000
0000
0001
0000
1000
0100
0000
0001
0100
0000
,  // measure 7
1000
0000
0100
0000
0010
0000
0100
0000
1000
0000
0010
0100
0000
0100
0010
0000
,  // measure 8
1000
0000
0001
0000
0010
0000
0100
0010
0000
0010
0100
0000
0010
0000
0001
0000
,  // measure 9
0010
0000
0001
0000
0100
0000
0010
0000
1000
0000
0001
1000
0000
0000
0010
0000
,  // measure 10
0100
0000
0001
0000
0100
0000
0010
0000
1000
0000
0001
0010
0000
0000
0001
0000
,  // measure 11
0010
0000
0100
0000
1000
0000
0001
0000
0010
0000
0100
1000
0000
1000
0100
0000
,  // measure 12
0001
0010
0100
0001
0010
0100
1100
0000
,  // measure 13
1000
0000
0100
0000
0010
0000
0001
0000
1000
0000
0001
0010
0000
0000
1000
0000
,  // measure 14
0100
0000
0010
0000
0001
0000
0010
0000
0100
0000
1000
0100
0000
0000
1000
0000
,  // measure 15
0001
0000
0100
0000
0010
0000
1000
0000
0001
0000
0010
0000
0100
0010
0000
0010
,  // measure 16
0100
0010
0001
0100
0000
0010
1000
0100
,  // measure 17
0010
0000
0001
0000
0010
0000
0100
0000
1000
0000
0010
1000
0000
0000
0100
0000
,  // measure 18
0010
0000
0001
0000
0100
0000
0010
0000
0100
0000
0001
1000
0000
0000
0100
0000
,  // measure 19
0010
0000
0001
0000
1000
0000
0100
0000
1000
0000
0010
1000
0000
1000
0010
0000
,  // measure 20
0100
0010
1000
0001
0000
0010
0001
1000
,  // measure 21
0001
0000
0010
0000
0100
0000
1000
0000
0010
0000
0001
0100
0000
0000
1000
0000
,  // measure 22
0001
0000
0100
0000
0010
0000
1000
0000
0001
0000
0010
0100
0000
0000
0010
0000
,  // measure 23
0001
0000
0010
0000
0100
0000
1000
0000
0010
0000
0100
0001
0000
0001
0100
0000
,  // measure 24
0010
1000
0001
0010
0100
0010
0001
0100
,  // measure 25
0000
0000
0010
0000
0010
0000
1000
0010
0000
0001
0010
0000
0000
0000
0011
0000
,  // measure 26
0000
1100
0000
0001
1000
0010
0000
1010
,  // measure 27
0000
0101
0000
1000
0001
0100
0000
0010
,  // measure 28
0100
0010
0100
0010
1000
0001
1000
0001
,  // measure 29
1000
0100
1000
0100
0010
0001
0010
0001
,  // measure 30
0011
0001
0000
0101
0000
1001
0000
1010
,  // measure 31
0000
1001
0000
1000
0010
0100
0001
0010
,  // measure 32
0001
0010
0001
0010
0100
1000
0100
1000
,  // measure 33
0001
1000
0001
1000
0010
0100
0010
0100
,  // measure 34
0010
1010
0000
0000
1000
0100
0010
0001
,  // measure 35
0000
0011
0000
0001
0100
0010
1000
0001
,  // measure 36
0010
0001
0010
0001
1000
0100
1000
0100
,  // measure 37
0001
1000
0001
1000
0100
0010
0100
0010
,  // measure 38
1000
1010
0000
0000
0100
0001
0010
0001
,  // measure 39
0000
0011
0000
0001
1000
0010
0100
0001
,  // measure 40
0100
0010
1000
0100
0010
1000
0100
0010
,  // measure 41
0001
1000
0100
0001
0100
1000
0010
0001
,  // measure 42
0010
0000
0001
0000
0010
0000
0100
0000
1000
0000
0010
1000
0000
1000
0010
0000
,  // measure 43
0100
0000
0010
0000
0001
0000
0100
0000
0010
0000
0100
0001
0000
0001
0010
0000
,  // measure 44
0100
0000
0010
0000
0001
0000
1000
0000
0010
0000
0100
0010
0000
0010
0100
0000
,  // measure 45
0001
0000
0010
0000
0100
0000
1000
0000
0010
0000
1000
0010
0000
0010
1000
0000
;
