#TITLE:Brokenhearted;
#SUBTITLE:;
#ARTIST:Karmin;
#TITLETRANSLIT:;
#SUBTITLETRANSLIT:;
#ARTISTTRANSLIT:;
#CREDIT:Chewi☆;
#BANNER:Brokenhearted.png;
#BACKGROUND:Brokenhearted-bg.png;
#LYRICSPATH:;
#CDTITLE:;
#MUSIC:Brokenhearted.mp3;
#OFFSET:-0.150;
#SAMPLESTART:62.841;
#SAMPLELENGTH:15.000;
#SELECTABLE:YES;
#DISPLAYBPM:120.000;
#BPMS:0.000=120.000;
#STOPS:;
#BGCHANGES:;

//---------------dance-single - Chewi----------------
#NOTES:
     dance-single:
     Chewi:
     Easy:
     4:
     0.202,0.270,0.132,0.035,0.000: // measure 1
0000
0000
0000
0000
,  // measure 2
0000
0000
0000
0000
,  // measure 3
0000
0000
0000
0000
,  // measure 4
0000
0000
0000
0000
,  // measure 5
1000
1000
1000
1000
,  // measure 6
0001
0001
0001
0001
,  // measure 7
0100
0100
0100
0100
,  // measure 8
0010
0010
0010
0010
,  // measure 9
0000
0010
0000
0010
,  // measure 10
0000
0100
0100
0100
,  // measure 11
0000
1000
0000
1000
,  // measure 12
0000
0001
0001
0001
,  // measure 13
0000
0000
1001
0000
,  // measure 14
1000
0100
0010
0001
,  // measure 15
0000
0000
0000
0000
,  // measure 16
0000
0000
0000
0000
,  // measure 17
0000
0001
0000
0001
,  // measure 18
0000
0001
1000
0001
,  // measure 19
0000
1000
0000
1000
,  // measure 20
0000
1000
0001
1000
,  // measure 21
0000
0000
1001
0000
,  // measure 22
0100
0010
1000
0001
,  // measure 23
0000
0000
0000
0000
,  // measure 24
0000
0000
0000
0000
,  // measure 25
2000
0010
0010
3010
,  // measure 26
0001
0010
0001
0010
,  // measure 27
0002
0100
0100
0103
,  // measure 28
0001
0100
1000
0100
,  // measure 29
2000
0001
0001
3001
,  // measure 30
1000
0001
1000
0001
,  // measure 31
0020
0100
0100
0130
,  // measure 32
0010
0100
0010
0100
,  // measure 33
0110
0000
0110
0000
,  // measure 34
0000
0000
0010
0001
,  // measure 35
1001
0000
1001
0000
,  // measure 36
0000
0000
0000
0001
,  // measure 37
1000
0001
1000
0100
,  // measure 38
0010
0100
0010
0100
,  // measure 39
0100
0000
0110
0000
,  // measure 40
0110
0000
0010
0001
,  // measure 41
1001
0000
1001
0000
,  // measure 42
0000
0000
1000
0010
,  // measure 43
1001
0000
1001
0000
,  // measure 44
0000
0000
0000
1000
,  // measure 45
0001
1000
0001
1000
,  // measure 46
0001
1000
0100
1000
,  // measure 47
0001
0000
0100
0000
,  // measure 48
0110
0000
0010
0000
,  // measure 49
0100
0100
0100
0100
,  // measure 50
0010
0100
0001
0000
,  // measure 51
0001
0001
0001
0001
,  // measure 52
1000
0100
0010
0000
,  // measure 53
0000
0000
0110
0000
,  // measure 54
0010
0100
0010
0001
,  // measure 55
1000
0000
0001
0000
,  // measure 56
1001
0000
0100
0100
,  // measure 57
0100
0000
0000
0000
;

//---------------dance-single - Chewi----------------
#NOTES:
     dance-single:
     Chewi:
     Medium:
     8:
     0.300,0.365,0.378,0.070,0.000: // measure 1
0000
0000
0000
0000
,  // measure 2
0000
0000
0000
0000
,  // measure 3
0000
0000
0000
0000
,  // measure 4
0000
0000
0000
0000
,  // measure 5
1000
1010
0010
1010
,  // measure 6
0001
0101
0100
0101
,  // measure 7
0100
0110
0010
0110
,  // measure 8
0010
1001
0100
1001
,  // measure 9
0000
0000
1000
0000
0001
0000
1000
0001
,  // measure 10
1000
0001
0101
1100
,  // measure 11
0101
0000
1000
0000
0001
0000
1000
0001
,  // measure 12
1000
0001
0011
1010
,  // measure 13
1001
0000
1001
0000
,  // measure 14
0001
1000
0001
0000
1000
0001
1000
0000
,  // measure 15
0001
0100
0010
0101
,  // measure 16
1000
0010
0100
1010
,  // measure 17
0000
0000
1000
0001
1000
0000
0001
0000
,  // measure 18
1000
0000
0001
0010
0100
0000
0010
0000
,  // measure 19
0011
0000
0001
1000
0100
0000
1000
0000
,  // measure 20
0001
0000
1000
0001
0010
0000
0100
0000
,  // measure 21
0110
0000
1001
0000
,  // measure 22
1000
0010
0100
0001
,  // measure 23
0000
1100
0000
1100
,  // measure 24
0000
0101
0000
0101
,  // measure 25
0000
1000
0010
0000
1000
0010
1000
0000
,  // measure 26
0000
0001
0100
0000
0001
0100
0001
0000
,  // measure 27
0000
0100
0010
0000
0100
0010
0100
0000
,  // measure 28
0000
0010
0100
0000
0010
0100
0010
0000
,  // measure 29
0000
0000
0110
0000
,  // measure 30
0100
0010
1000
0001
,  // measure 31
1000
0100
0010
0000
0100
0000
0110
0000
,  // measure 32
0001
0010
0100
0000
0010
0000
0110
0000
,  // measure 33
0012
0100
0020
0000
,  // measure 34
0000
0033
0001
0010
,  // measure 35
0200
1000
2000
0000
,  // measure 36
0000
0000
3300
1000
,  // measure 37
0001
0000
1000
0001
0100
0000
0001
0000
,  // measure 38
1000
0000
0001
1000
0010
0000
0100
0000
,  // measure 39
0101
0000
0101
0000
,  // measure 40
1100
0000
1100
0000
,  // measure 41
1002
0010
2000
0000
,  // measure 42
0000
3003
1000
0001
,  // measure 43
0200
0010
0002
0000
,  // measure 44
0000
0000
0303
0001
,  // measure 45
0100
0000
0010
1000
0001
0000
0100
0000
,  // measure 46
0010
0000
1000
0001
0100
0000
0001
0000
,  // measure 47
1000
0000
1001
0000
,  // measure 48
1100
0000
1001
0000
,  // measure 49
0001
1000
0001
0000
1001
0000
1001
0000
,  // measure 50
1000
0001
1000
0000
1001
0000
1001
0000
,  // measure 51
0100
0010
0100
0000
0010
0000
0110
0000
,  // measure 52
0010
0100
0010
0000
0100
0000
0110
0000
,  // measure 53
0000
0000
1001
0000
,  // measure 54
1000
0100
0001
0010
,  // measure 55
1000
0000
0100
0000
,  // measure 56
0010
0000
0001
0000
;

//---------------dance-single - Chewi----------------
#NOTES:
     dance-single:
     Chewi:
     Hard:
     10:
     0.395,0.393,0.105,0.255,0.018: // measure 1
0000
0000
0000
0000
,  // measure 2
0000
0000
0000
0000
,  // measure 3
0000
0000
0000
0000
,  // measure 4
0000
0000
0000
0000
,  // measure 5
1000
0010
0010
0000
0100
0000
0101
0000
,  // measure 6
0001
0010
0010
0000
0100
0000
1100
0000
,  // measure 7
1000
0100
0100
0000
0010
0000
0011
0000
,  // measure 8
0001
0100
0100
0000
0010
0000
1010
0000
,  // measure 9
0000
0000
1000
0100
0020
0000
0031
0010
,  // measure 10
0100
1000
0002
0000
2003
0000
3001
0001
,  // measure 11
0000
0000
0001
0100
0020
0000
1030
0001
,  // measure 12
0100
0001
0010
0100
1000
0000
1000
2000
,  // measure 13
0000
3000
0000
0200
0020
0000
0330
0000
,  // measure 14
0001
0010
0100
1000
0001
0010
0100
0000
,  // measure 15
1000
1000
0001
0000
0100
0000
0101
0000
,  // measure 16
0001
0001
1000
0000
0010
0000
1001
0000
,  // measure 17
0000
0000
0001
0010
0200
0000
1300
0100
,  // measure 18
0010
0001
2000
0000
3002
0000
1003
1000
,  // measure 19
0000
0000
1000
0010
0200
0000
0301
1000
,  // measure 20
0010
1000
0100
0010
0001
0000
0001
0002
,  // measure 21
0000
0003
0000
0020
0200
0000
0330
0000
,  // measure 22
1000
0100
0010
0001
1000
0100
0010
0000
,  // measure 23
0001
0001
1000
0000
0010
0000
1010
0000
,  // measure 24
1000
1000
0001
0000
0100
0000
1001
0000
,  // measure 25
0000
1000
0100
0010
0100
1000
0001
0100
,  // measure 26
0010
0100
0001
1000
0010
0100
0010
1000
,  // measure 27
0001
0010
0100
1000
0010
0100
0001
1000
,  // measure 28
0010
0100
0001
0010
0001
1000
0100
1000
,  // measure 29
0000
0000
0000
0002
2000
0000
3003
0000
,  // measure 30
1000
0100
0010
0001
1000
0100
1000
0000
,  // measure 31
0001
0000
1001
0000
1000
1000
0010
0000
,  // measure 32
0110
0000
0000
0000
0100
0010
1000
0001
,  // measure 33
2000
0100
0002
0000
,  // measure 34
0000
0000
3003
1000
0100
0010
0001
0010
,  // measure 35
0002
1000
0020
0000
,  // measure 36
0000
0000
0000
0000
0033
0000
0001
0010
,  // measure 37
0200
0000
1300
0100
0010
0010
0001
1000
,  // measure 38
0010
0100
0010
1000
0001
0100
0001
2000
,  // measure 39
0000
0000
3000
0001
0001
0000
0000
1000
,  // measure 40
1000
0000
0000
0000
1000
0100
0010
0100
,  // measure 41
2000
0010
0200
0000
,  // measure 42
0000
0000
3300
0000
0100
1000
0010
0100
,  // measure 43
0002
1000
0200
0000
,  // measure 44
0000
0000
0000
0000
0303
0000
0001
0100
,  // measure 45
0010
1000
0001
0010
0100
1000
0001
1000
,  // measure 46
0100
0010
0001
1000
0100
1000
0010
2000
,  // measure 47
0000
0000
3000
0100
0100
0000
0000
0010
,  // measure 48
0010
0000
0000
0000
0000
0000
0010
0001
0000
0000
0010
0001
0000
0000
0010
0001
,  // measure 49
0100
0010
1000
0001
0010
0100
1000
0000
,  // measure 50
0001
0100
1000
0100
0001
0100
1000
0000
,  // measure 51
0010
0100
0001
1000
0100
0010
0001
0000
,  // measure 52
1000
0010
0001
0010
1000
0010
0001
0000
,  // measure 53
0000
0000
0000
0010
0020
0000
0030
0000
,  // measure 54
0010
0001
1000
0001
0100
0010
2000
0000
,  // measure 55
0000
0000
3000
0001
0001
0000
0000
1000
,  // measure 56
1000
0000
0000
0000
0000
0000
0001
0100
0010
0000
0000
0000
0110
0000
0000
0000
,  // measure 57
1001
0000
0000
0000
;

//---------------dance-single - Chewi----------------
#NOTES:
     dance-single:
     Chewi:
     Beginner:
     2:
     0.100,0.172,0.035,0.053,0.000: // measure 1
0000
0000
0000
0000
,  // measure 2
0000
0000
0000
0000
,  // measure 3
0000
0000
0000
0000
,  // measure 4
0000
0000
0000
0000
,  // measure 5
1000
0000
0000
0000
,  // measure 6
0001
0000
0000
0000
,  // measure 7
0100
0000
0000
0000
,  // measure 8
0010
0000
0000
0000
,  // measure 9
0000
0010
0000
0000
,  // measure 10
0000
0100
0000
0000
,  // measure 11
0000
1000
0000
0000
,  // measure 12
0000
0001
0000
0000
,  // measure 13
0000
0000
1001
0000
,  // measure 14
1000
1000
1000
1000
,  // measure 15
0000
0000
0000
0000
,  // measure 16
0000
0000
0000
0000
,  // measure 17
0000
0001
0000
0000
,  // measure 18
0000
1000
0000
0000
,  // measure 19
0000
0100
0000
0010
,  // measure 20
0000
0001
0000
0000
,  // measure 21
0100
0000
0100
0000
,  // measure 22
0100
0100
0100
0100
,  // measure 23
0000
0000
0000
0000
,  // measure 24
0000
0000
0000
0000
,  // measure 25
2000
0000
0000
3000
,  // measure 26
1000
0000
0000
0000
,  // measure 27
0002
0000
0000
0003
,  // measure 28
0001
0000
0000
0000
,  // measure 29
2000
0000
0000
3000
,  // measure 30
1000
0000
0000
0000
,  // measure 31
0020
0000
0000
0030
,  // measure 32
0010
0000
0000
0000
,  // measure 33
0110
0000
0000
0000
,  // measure 34
0010
0000
0000
0000
,  // measure 35
1001
0000
0000
0000
,  // measure 36
1000
0000
0000
0000
,  // measure 37
1000
0000
0001
0000
,  // measure 38
1000
0000
0001
0000
,  // measure 39
0100
0000
0010
0000
,  // measure 40
0100
0000
0010
0000
,  // measure 41
1000
0000
1000
0000
,  // measure 42
0000
0000
0000
0000
,  // measure 43
0001
0000
0001
0000
,  // measure 44
0000
0000
0000
0000
,  // measure 45
0001
0000
0001
0000
,  // measure 46
1000
0000
1000
0000
,  // measure 47
0001
0000
0100
0000
,  // measure 48
0010
0000
1000
0000
,  // measure 49
0200
0000
0000
0300
,  // measure 50
0100
0000
0000
0000
,  // measure 51
0002
0000
0000
0003
,  // measure 52
0001
0000
0000
0000
,  // measure 53
0000
0000
1001
0000
,  // measure 54
1000
1000
1000
1000
,  // measure 55
0001
0000
0001
0000
,  // measure 56
1000
0000
1000
0000
,  // measure 57
0001
0000
0000
0000
;
