#VERSION:0.82;
#TITLE:Break Free (feat. Zedd);
#SUBTITLE:;
#ARTIST:Ariana Grande;
#TITLETRANSLIT:;
#SUBTITLETRANSLIT:;
#ARTISTTRANSLIT:;
#GENRE:Dance;
#ORIGIN:;
#CREDIT:chewi;
#BANNER:Break Free (feat. Zedd).png;
#BACKGROUND:Break Free (feat. Zedd)-bg.png;
#PREVIEWVID:;
#JACKET:Break Free (feat. Zedd)-jacket.png;
#CDIMAGE:;
#DISCIMAGE:;
#LYRICSPATH:;
#CDTITLE:cdtitle.png;
#MUSIC:Break Free (feat. Zedd).ogg;
#OFFSET:-0.205000;
#SAMPLESTART:51.746998;
#SAMPLELENGTH:15.000000;
#SELECTABLE:YES;
#BPMS:0.000=130.000,
80.000=65.000,
96.000=130.000,
128.000=65.000,
144.000=130.000,
180.000=260.000,
187.000=130.000,
254.000=260.000;
#STOPS:186.000=0.231;
#DELAYS:;
#WARPS:;
#TIMESIGNATURES:0.000=4=4;
#TICKCOUNTS:0.000=4;
#COMBOS:0.000=1;
#SPEEDS:0.000=1.000=0.000=0;
#SCROLLS:0.000=1.000;
#FAKES:;
#LABELS:0.000=Song Start;
#BGCHANGES:-0.410=Break Free (feat. Zedd).avi=1.000=1=0=0=StretchNoLoop==CrossFade==,
99999=-nosongbg-=1.000=0=0=0 // don't automatically add -songbackground-
;
#KEYSOUNDS:;
#ATTACKS:
;

//---------------dance-single - ----------------
#NOTEDATA:;
#CHARTNAME:;
#STEPSTYPE:dance-single;
#DESCRIPTION:;
#CHARTSTYLE:;
#DIFFICULTY:Beginner;
#METER:2;
#RADARVALUES:0.081149,0.120235,0.015148,0.075739,0.000000,63.000000,2.000000,10.000000,0.000000,0.000000,0.000000,0.000000,0.000000,0.081149,0.120235,0.015148,0.075739,0.000000,63.000000,2.000000,10.000000,0.000000,0.000000,0.000000,0.000000,0.000000;
#CREDIT:;
#NOTES:
// measure 0
0000
0000
0000
0000
,  // measure 1
0000
0000
0000
0000
,  // measure 2
0000
0000
0000
0000
,  // measure 3
0000
0000
0000
0000
,  // measure 4
1000
0000
0000
0000
,  // measure 5
0001
0000
0000
0000
,  // measure 6
0100
0000
0000
0000
,  // measure 7
0010
0000
0000
0000
,  // measure 8
0001
0000
0000
0000
,  // measure 9
1000
0000
0000
0000
,  // measure 10
0010
0000
0000
0000
,  // measure 11
0100
0000
0000
0000
,  // measure 12
0200
0000
0000
0300
,  // measure 13
0100
0000
0000
0000
,  // measure 14
0020
0000
0000
0030
,  // measure 15
0010
0000
0000
0000
,  // measure 16
2000
0000
0000
3000
,  // measure 17
1000
0000
0000
0000
,  // measure 18
0002
0000
0000
0003
,  // measure 19
0001
0000
0000
0000
,  // measure 20
0010
0000
0000
0000
,  // measure 21
0010
0000
0000
0000
,  // measure 22
0100
0000
0000
0000
,  // measure 23
0100
0000
0000
0000
,  // measure 24
0002
0000
0000
0003
,  // measure 25
0001
0000
0000
0000
,  // measure 26
2000
0000
0000
3000
,  // measure 27
1000
0000
0000
0000
,  // measure 28
0020
0000
0000
0030
,  // measure 29
0010
0000
0000
0000
,  // measure 30
0200
0000
0000
0300
,  // measure 31
0100
0000
0100
0000
,  // measure 32
0100
0000
0000
0000
,  // measure 33
0010
0000
0000
0000
,  // measure 34
1000
0000
0000
0000
,  // measure 35
0001
0000
0000
0000
,  // measure 36
1000
0000
1000
0000
,  // measure 37
1000
0000
0000
0000
,  // measure 38
0001
0000
0001
0000
,  // measure 39
0001
0000
0000
0000
,  // measure 40
0010
0000
0010
0000
,  // measure 41
0010
0000
0000
0000
,  // measure 42
0100
0000
0100
0000
,  // measure 43
0100
0000
0000
0000
,  // measure 44
0200
0000
0000
0000
,  // measure 45
0000
0000
0000
0000
,  // measure 46
0000
0000
0300
0100
,  // measure 47
0000
0000
0000
0100
,  // measure 48
0000
0000
0000
0010
,  // measure 49
0000
0000
0000
0010
,  // measure 50
0000
0000
0000
1000
,  // measure 51
0000
0000
0000
1000
,  // measure 52
0000
0000
0000
0001
,  // measure 53
0000
0000
0000
0001
,  // measure 54
0000
0000
0000
1001
,  // measure 55
0000
0000
0000
1000
,  // measure 56
0000
0000
0000
0001
,  // measure 57
0000
0000
0000
1000
,  // measure 58
0000
0000
0000
0110
,  // measure 59
0000
0000
0000
0100
,  // measure 60
0000
0000
0000
0010
,  // measure 61
0000
0000
0000
0100
,  // measure 62
0000
0000
0000
0200
,  // measure 63
0000
0000
0300
0000
;

//---------------dance-single - ----------------
#NOTEDATA:;
#CHARTNAME:;
#STEPSTYPE:dance-single;
#DESCRIPTION:;
#CHARTSTYLE:;
#DIFFICULTY:Easy;
#METER:4;
#RADARVALUES:0.134166,0.192376,0.090886,0.060591,0.000000,104.000000,12.000000,8.000000,0.000000,0.000000,0.000000,0.000000,0.000000,0.134166,0.192376,0.090886,0.060591,0.000000,104.000000,12.000000,8.000000,0.000000,0.000000,0.000000,0.000000,0.000000;
#CREDIT:;
#NOTES:
0000
0000
0000
0000
,
0000
0000
0000
0000
,
0000
0000
0000
0000
,
0000
0000
0000
0000
,
1000
0000
0000
0000
,
0100
0000
0000
0000
,
1000
0100
1000
0000
,
0001
0100
0001
0000
,
0001
0000
0000
0000
,
0100
0000
0000
0000
,
0001
0100
0001
0000
,
1000
0100
1000
0000
,
1001
0000
0000
0000
,
1000
0001
1000
0000
,
0110
0000
0000
0000
,
0100
0010
0100
0000
,
0110
0000
0000
0000
,
0010
0100
0010
0000
,
1001
0000
0000
0000
,
0001
1000
0001
0000
,
2000
0000
0000
3000
,
1000
1000
0000
0000
,
0002
0000
0000
0003
,
0001
0001
0000
0000
,
0001
0000
0000
0000
,
1000
0000
0000
0000
,
0001
0010
0001
0000
,
1000
0010
1000
0000
,
1000
0000
0000
0000
,
0001
0000
0000
0000
,
1000
0100
1000
0000
,
0001
0100
0001
0000
,
0200
0000
0000
0300
,
0020
0000
0000
0030
,
2000
0000
0000
3000
,
0002
0000
0000
0003
,
0001
0000
0000
0000
,
1000
0000
0000
0000
,
0010
0000
0000
0000
,
0100
0000
0000
0000
,
0001
0000
0000
0000
,
0100
0000
0000
0000
,
0010
0000
0000
0000
,
1000
0000
0000
0000
,
1000
0001
1000
0001
,
2000
0000
0000
0000
,
0000
0000
3001
0001
,
0000
0001
0000
1000
,
0000
1000
0000
0001
,
0100
1000
0000
1000
,
0100
0001
0000
1000
,
0000
1000
0000
0001
,
0000
0001
0000
0001
,
0010
1000
0000
1000
,
0010
0001
0000
1001
,
0000
0000
0000
0110
,
0000
0000
0000
1001
,
0000
0000
0000
0110
,
0000
0010
0000
0110
,
0000
0000
0000
1001
,
0000
0000
0000
0110
,
0000
0000
0000
1001
,
0000
1000
0000
0002
,
0000
0000
1003
0000
;

//---------------dance-single - ----------------
#NOTEDATA:;
#CHARTNAME:;
#STEPSTYPE:dance-single;
#DESCRIPTION:;
#CHARTSTYLE:;
#DIFFICULTY:Medium;
#METER:7;
#RADARVALUES:0.255347,0.360705,0.181773,0.068165,0.000000,203.000000,24.000000,9.000000,0.000000,0.000000,0.000000,0.000000,0.000000,0.255347,0.360705,0.181773,0.068165,0.000000,203.000000,24.000000,9.000000,0.000000,0.000000,0.000000,0.000000,0.000000;
#CREDIT:;
#NOTES:
0000
0000
0000
0000
,
0000
0000
0000
0000
,
0000
0000
0000
0000
,
0000
0000
0000
0000
,
1000
0100
0000
0000
0000
0000
0000
0000
,
1000
0100
0000
0000
0000
0000
0000
0000
,
1000
0100
0010
0001
,
0011
0000
0000
0000
,
0001
0010
0000
0000
0000
0000
0000
0000
,
0001
0010
0000
0000
0000
0000
0000
0000
,
0001
0010
0100
1000
,
1001
0000
0000
0000
,
1000
0010
0001
0100
,
1000
0010
0001
0000
,
0010
0000
0100
0000
1000
0000
0001
0010
,
0100
1000
0001
0000
0000
0000
0000
0000
,
0000
1000
0010
0001
,
0100
1000
0010
0000
,
0001
0000
0010
0000
0100
0000
1000
0001
,
0010
0100
1000
0000
0001
0000
1000
0000
,
1001
0000
0100
0010
,
0100
0000
0010
1000
,
0001
0000
1000
0100
,
0010
0000
0000
0000
0001
0010
0100
1000
,
0001
0001
1000
1100
,
1000
1000
0001
0001
,
0100
0100
0010
1001
,
0010
0010
0100
0100
,
1000
1000
0001
0101
,
0100
0100
0010
0010
,
1000
1000
0001
1001
,
1000
0100
0010
0001
,
2002
0000
0000
0003
,
0020
0000
0000
3000
,
0200
0000
0000
0330
,
0100
0001
0100
0010
0100
0000
0000
0001
,
1000
1000
1000
1000
,
0001
0001
0001
0001
,
0010
0010
0010
0010
,
0100
0100
0100
0100
,
1000
0100
0010
0001
,
1000
0010
0100
0001
,
0100
0100
0010
0010
,
1000
1000
0001
0001
,
1000
0001
1000
0000
0001
1000
0001
0000
,
2002
0000
0000
0000
,
0000
0000
3003
0001
,
1000
0100
0010
0001
,
1000
0010
0100
0001
,
0001
0101
0000
1000
,
0100
1100
1000
0100
,
0010
0100
1000
0100
,
0010
0100
0001
0100
,
0010
0110
0000
0110
,
0000
0000
0000
0010
,
0100
1000
1100
1000
,
0100
0010
0011
0001
,
1000
0001
1001
0100
,
0010
0220
0330
0110
,
0100
0010
1000
1001
,
1000
0001
0010
0011
,
0010
0100
1000
1100
,
0101
1100
0101
0200
,
0000
0000
0310
0000
;

//---------------dance-single - ----------------
#NOTEDATA:;
#CHARTNAME:;
#STEPSTYPE:dance-single;
#DESCRIPTION:;
#CHARTSTYLE:;
#DIFFICULTY:Hard;
#METER:11;
#RADARVALUES:0.371119,0.480940,0.181773,0.022722,0.075739,316.000000,24.000000,3.000000,0.000000,0.000000,0.000000,0.000000,0.000000,0.371119,0.480940,0.181773,0.022722,0.075739,316.000000,24.000000,3.000000,0.000000,0.000000,0.000000,0.000000,0.000000;
#CREDIT:;
#NOTES:
0000
0000
0000
0000
,
0000
0000
0000
0000
,
0000
0000
0000
0000
,
0000
0000
0000
0000
,
1000
0000
1100
0000
0010
0001
0100
0000
,
0001
0000
0101
0000
0100
0010
1000
0000
,
0001
1000
0001
0000
1000
0001
1000
0000
,
0100
0010
0100
0000
0010
0100
0010
0000
,
0010
0000
0110
0000
0010
0100
1000
0000
,
0001
0000
1001
0000
1000
0001
0100
0000
,
0010
0100
0010
0000
0100
0010
0100
0000
,
0001
0100
0001
0000
1000
0100
1000
0000
,
0001
0010
0100
1000
0100
0000
1100
0000
,
1000
0100
0010
0001
0010
0000
0011
0000
,
0001
1000
0010
0000
1000
0001
0100
0000
,
0001
1000
0100
0000
1000
0001
0010
0000
,
0100
0010
0001
0010
0100
0000
0110
0000
,
0010
0100
1000
0100
0010
0000
0110
0000
,
0010
0100
1000
0000
0001
0010
0100
0000
,
1000
0001
0100
0000
0010
1000
0001
0100
,
0010
0000
0000
0000
0000
0000
0000
0000
1000
0000
0000
0001
0000
0000
0010
0000
,
0100
0000
0000
1000
0000
0000
0000
0000
0001
0010
0100
0010
0001
0000
0100
0010
,
1000
0000
0000
1000
0000
0000
0000
0000
0001
0000
0000
0001
0000
0000
0000
0000
,
0010
0000
0000
0010
0000
0000
0000
0000
0100
1000
0100
1000
0001
1000
0001
1000
,
0100
1000
0010
1000
0100
0000
1001
0000
,
1000
0100
0010
0001
1000
0000
1001
0000
,
0001
0010
0100
1000
0001
0000
1001
0000
,
0001
0100
0001
0010
0001
0100
0101
0000
,
0100
0010
1000
0001
1000
0000
1001
0000
,
0010
0100
1000
0001
1000
0000
1001
0000
,
1000
0100
1000
0000
0001
0100
0001
0000
,
0100
0010
0100
0010
1000
0001
1000
0001
,
1000
0000
0000
0001
0100
0000
1000
0000
,
0010
0000
0001
0000
,
0010
0000
0000
0100
1000
0000
0001
0000
,
1000
1000
0001
0001
0100
0100
0010
0010
,
0100
0100
0100
0100
,
0010
0010
0010
0010
,
1000
1000
1000
1000
,
0001
0001
0001
0001
,
0010
0010
0010
0010
,
0100
0100
0100
0100
,
1000
0100
0001
0010
,
1000
0100
0001
0010
,
1000
0100
1000
0100
0001
0010
0001
0010
,
0002
0000
0000
0000
,
0000
0000
1003
1001
,
0110
0000
1000
0001
1000
0000
0110
0000
,
1001
0000
1000
0001
1000
0000
0001
0010
,
0100
1000
0001
0010
0100
1000
0010
1000
,
0100
0000
0010
0001
0100
0000
0101
0000
,
1010
0000
1000
0001
0100
0000
1100
0000
,
0011
0000
0001
1000
0100
0000
1000
0001
,
0010
0000
0001
0010
0100
1000
0002
0000
,
0000
0000
0000
0000
0000
0000
1003
0000
0000
0001
0000
0001
,
0100
0000
0000
0010
0000
0000
1000
0000
0000
0001
0000
0001
,
0010
0000
0000
0100
0000
0000
1000
0000
0000
0001
0000
0001
,
1000
0000
0000
0010
0000
0000
0100
0000
0000
0010
0000
0010
,
0100
0000
0000
0100
0000
0000
0110
0000
0000
1000
0000
1000
,
0001
0000
0000
1000
0000
0000
0100
0000
0000
0010
0000
0010
,
0001
0000
0000
1000
0000
0000
0100
0000
0000
1000
0000
1000
,
0001
0000
0000
0100
0000
0000
0010
0000
0000
0100
0000
0100
,
0010
0100
0110
2000
,
0000
0000
3001
0000
;
